#TITLE:Movin' on without you;
#SUBTITLE:;
#ARTIST:宇多田ヒカル;
#TITLETRANSLIT:;
#SUBTITLETRANSLIT:;
#ARTISTTRANSLIT:Utada Hikaru;
#GENRE:;
#CREDIT:;
#BANNER:Movin' on without you.png;
#BACKGROUND:Movin' on without you-bg.png;
#LYRICSPATH:;
#CDTITLE:;
#MUSIC:Movin' on without you.ogg;
#OFFSET:0.000000;
#SAMPLESTART:62.702000;
#SAMPLELENGTH:15.000000;
#SELECTABLE:YES;
#DISPLAYBPM:122.000000;
#BPMS:0.000000=121.950005
;
#STOPS:
;
#BGCHANGES:0.000=Movin' on without you.avi=1.000=0=0=0=StretchNoLoop====,
99999=-nosongbg-=1.000=0=0=0 // don't automatically add -songbackground-
;
#KEYSOUNDS:;
#ATTACKS:;

//---------------dance-single - ----------------
#NOTES:
     dance-single:
     :
     Hard:
     8:
     0.318211,0.347772,0.148912,0.117889,0.183038,359.000000,335.000000,24.000000,19.000000,0.000000,0.000000,0.318211,0.347772,0.148912,0.117889,0.183038,359.000000,335.000000,24.000000,19.000000,0.000000,0.000000:
0000
0000
0000
0000
,
0000
0000
0000
0000
,
0000
0000
0000
0000
,
0000
0000
0000
0000
,
0000
0000
0000
0000
,
0110
0000
0000
0000
,
0000
0000
0000
0000
,
1010
0000
0101
0000
,
0011
1100
1001
0110
,
1001
0000
0000
0001
0100
0000
0100
0000
0000
0000
0010
0000
1000
0000
0100
0000
,
1000
0000
0000
1000
0000
0000
1000
0000
0000
0000
0001
0000
0010
0000
0001
0000
,
0100
0000
0000
0100
0010
0000
0010
0000
0000
0000
0010
0000
1000
0000
0100
0000
,
0001
0100
1000
0010
0000
0200
0010
0310
,
0110
0000
0000
0010
0100
0000
0100
0000
0000
0000
0001
0000
0010
0000
0001
0000
,
0100
0000
0000
0100
0000
0000
0100
0000
0000
0000
0010
0000
1000
0000
0010
0000
,
1000
0000
0000
0100
1000
0000
1000
0000
0000
0000
0001
0000
0100
0000
0010
0000
,
0100
0001
0010
1000
0010
0001
0100
0000
,
0110
0000
0000
0000
0010
1000
0010
0000
1000
0100
0000
1000
0000
0000
0010
0000
,
0010
0000
0000
0000
0100
0001
0100
0000
0001
0010
0000
0001
0000
0000
0100
0000
,
0100
0000
0000
0000
0010
0100
0010
0000
0100
0001
0000
0010
0000
0000
0100
0000
,
1000
0010
0100
0010
1000
1000
0100
0000
,
0010
0000
0000
0000
0010
0001
0010
0000
0001
0100
0000
0001
0000
0000
0010
0000
,
0010
0000
0000
0000
0100
1000
0100
0000
1000
0010
0000
0010
0000
0000
0100
0000
,
0010
0000
0000
0000
0100
0010
0100
0000
0100
0001
0000
0010
0000
0000
0001
0000
,
0100
0001
1000
0010
0100
0100
0010
0000
,
0110
0000
0000
0000
0010
1000
0000
1000
0000
0000
0100
0000
1000
0000
1000
0000
,
0010
0100
0001
0010
0001
0001
0101
0000
,
0100
0000
0100
0000
0010
0000
1000
0000
0000
0000
0100
0000
1000
0000
0000
0100
,
1000
0000
0000
1000
0010
0000
0000
0010
0100
0000
0000
0100
0001
0000
0010
0000
,
0011
0000
0000
0000
0101
0000
0001
0100
0000
0000
0010
0000
0100
0000
0000
0000
,
0010
1000
0100
1000
0000
1000
1010
0000
,
0202
0000
0000
0000
0000
0000
0303
0100
,
0200
0000
0302
0000
2003
0000
3010
0100
,
0010
0010
0110
0000
0100
0100
0101
0000
,
0001
0001
0011
0001
0000
0001
0100
0010
,
0010
1000
0100
0100
1000
0010
0001
0010
,
1000
0000
0100
1000
0000
0000
0020
0000
0000
0000
0130
0000
0110
0000
0000
0000
,
2000
0000
3100
0000
0020
0000
0031
0100
,
0200
0000
0301
0000
0020
0000
0031
0010
,
0100
1000
1000
0000
0010
0010
0100
0010
,
0110
0000
0000
0010
1000
0000
0100
0000
0000
1000
0100
0000
0010
0000
0010
0000
,
0011
0000
0000
0000
0101
0000
0000
0001
0100
0000
0000
0000
0100
0000
1000
0000
,
0100
0000
0000
0001
0000
0000
0010
0000
0000
0000
0010
0000
0001
0000
0010
0000
,
0010
0100
1000
0100
0100
0010
0001
0100
,
0010
0000
0010
0100
0000
0000
0100
0000
0000
0010
1000
0000
0010
0000
0010
0000
,
0200
0000
0301
0000
0020
0000
0130
1000
,
2000
0000
3001
0000
0020
0000
0031
0100
,
0100
0010
0100
0000
0100
0001
0010
0000
,
0100
0000
1000
0000
0010
0000
0100
0000
0000
0010
0100
0000
0010
0000
0010
0000
,
0100
0000
0000
0100
0010
0000
0000
0010
1000
0000
0000
1000
0100
0000
0000
0100
,
1000
0000
1000
0010
0000
0100
0100
0001
,
0010
0000
0000
0001
0100
0000
0000
0100
0010
0000
0000
0010
1000
0000
0000
1000
,
0100
0000
0000
0010
0001
0000
0200
0000
0000
0000
0010
0000
0010
0000
0310
0000
,
0100
0000
0000
0100
0001
0000
0000
0001
0010
0000
0000
0010
0100
0000
0000
0100
,
1000
0000
0000
1000
0001
0000
0002
0000
0000
0000
0100
0000
0103
0000
0000
0000
,
0100
0000
0000
0100
0010
0000
0000
0010
1000
0000
0000
1000
0100
0000
0000
0100
,
1000
0000
0000
1000
0001
0000
0001
0000
0000
0010
0100
0000
0010
0000
0010
0000
,
0220
0000
0000
0000
,
0000
0000
0000
0000
,
0330
0000
0000
0000
;

//---------------dance-single - ----------------
#NOTES:
     dance-single:
     :
     Medium:
     7:
     0.235778,0.292861,0.099275,0.167526,0.018614,266.000000,250.000000,16.000000,27.000000,0.000000,0.000000,0.235778,0.292861,0.099275,0.167526,0.018614,266.000000,250.000000,16.000000,27.000000,0.000000,0.000000:
0000
0000
0000
0000
,
0000
0000
0000
0000
,
0000
0000
0000
0000
,
0000
0000
0000
0000
,
0000
0000
0000
0000
,
1001
0000
0000
0000
,
0000
0000
0000
0000
,
1010
0000
0101
0000
,
0100
0010
0100
0010
,
0110
0000
0010
1000
0100
1000
0010
0000
,
2000
0001
0100
3001
,
0100
0000
0001
0010
0001
0100
0001
0000
,
0002
0010
0100
1003
,
0010
0100
0001
0000
0010
0001
0100
0000
,
0200
0001
1000
0310
,
0010
1000
0100
0000
0100
1000
0010
0000
,
0200
1000
0010
0301
,
1000
0000
0100
0000
1000
0100
1000
0000
,
0010
0000
0010
0000
0010
0100
0001
0000
,
0001
0000
0010
0000
0001
0100
0010
0000
,
0010
1000
0100
0000
1100
0000
0011
0000
,
0101
0000
0100
0010
1000
0000
1000
0000
,
0100
0000
0100
1000
0010
0000
0100
0000
,
0001
0000
0010
0001
0100
0000
0010
0000
,
0010
0100
0010
1000
0001
0100
0110
0000
,
0101
0000
0110
0000
0010
1000
0100
0000
,
0100
1000
0010
0100
0000
0100
0010
0000
,
0010
0000
1000
0000
0100
1000
0010
0000
,
2000
3200
0320
0032
,
0103
0010
1000
0000
0100
1000
0010
0000
,
0100
0001
0010
0000
0001
1000
0001
0000
,
0202
0000
0000
0303
,
0010
0000
0100
0000
1000
0000
0010
0100
,
0010
0010
0110
0000
0100
0100
0110
0000
,
0010
1000
0100
0000
0100
1000
0010
0000
,
0010
0100
0001
1000
0001
0010
0001
0100
,
0002
0000
0000
1000
0000
0000
1000
0000
0003
0000
0000
0000
0110
0000
0000
0000
,
0020
0130
0200
0310
,
0020
1030
2000
3100
,
0010
0001
0100
0000
0001
0010
0001
0000
,
0001
0100
0010
1000
0000
0100
0100
0000
,
2000
3001
0002
0013
,
0020
0130
0200
0310
,
0001
0100
0010
0000
0010
1000
0100
0000
,
2000
0000
0000
0010
0000
0000
0010
0000
3000
0000
0000
0000
0110
0000
0000
0000
,
0020
0130
0200
0301
,
0002
0000
0013
0000
0002
0000
0103
0010
,
1000
0000
0100
1000
0010
0100
0001
0000
,
0010
0000
0000
0000
0001
0000
0100
0000
0020
0000
0000
0000
0100
0030
0000
0000
,
0010
0000
0000
0010
1000
0000
0000
0000
0100
0000
0000
0000
1000
0000
0000
0000
,
0010
0000
0100
0001
0010
0000
0000
0000
,
0001
0000
0000
0001
0100
0000
0000
0000
0100
0000
0010
0000
1000
0000
0000
0000
,
0100
0000
1000
0000
1000
0010
0100
0000
,
0100
0000
0000
0100
0001
0000
0000
0000
0010
0000
0000
0000
0001
0000
0000
0000
,
0100
0000
0010
1000
0100
0000
0000
0000
,
1000
0000
0000
1000
0010
0000
0000
0000
0010
0000
0100
0000
0001
0000
0000
0000
,
0010
0000
0001
0000
0001
0100
0010
0000
,
2002
0000
0000
0000
,
0000
0000
0000
0000
,
3003
0000
0000
0000
;

//---------------dance-single - ----------------
#NOTES:
     dance-single:
     :
     Easy:
     3:
     0.162208,0.183038,0.037228,0.086865,0.000000,183.000000,177.000000,6.000000,14.000000,0.000000,0.000000,0.162208,0.183038,0.037228,0.086865,0.000000,183.000000,177.000000,6.000000,14.000000,0.000000,0.000000:
0000
0000
0000
0000
,
0000
0000
0000
0000
,
0000
0000
0000
0000
,
0000
0000
0000
0000
,
0000
0000
0000
0000
,
1001
0000
0000
0000
,
0000
0000
0000
0000
,
0100
0000
0001
0000
,
0010
0100
1000
0001
,
1001
0000
0100
0100
,
0010
1000
0100
0100
,
1000
0000
0001
0000
,
0100
0100
0100
0000
0010
0000
0000
0000
,
0010
1000
0100
0000
,
1000
1000
1000
0000
,
0010
0100
0001
0000
,
0010
0010
0010
0000
0000
0000
0001
0000
,
0100
0000
0100
0010
,
0010
0000
0010
0010
,
1000
0000
1000
1000
,
0100
1000
0100
0000
2000
0000
3010
0000
,
0100
0010
0100
0001
,
0100
0100
0001
0001
,
1000
1000
0100
0000
,
1000
0010
0100
0001
,
0011
0000
0101
0000
,
0100
0010
1000
0000
,
0100
1000
0010
0000
,
2000
3200
0320
0032
,
0103
0100
0010
0000
,
0010
0010
1000
0100
,
2200
0000
0000
3300
,
0010
0000
0001
0000
0100
0000
0010
0100
,
0010
0010
0100
0010
,
0100
0100
0010
0100
,
0010
1000
0010
0100
,
0010
0000
0100
0001
0010
0000
0000
0000
,
0020
0001
0100
0031
,
0002
0100
1000
0103
,
0010
1000
0100
1000
,
1000
0010
1000
0000
1000
0000
0000
0000
,
1000
0100
1000
1000
,
0010
0100
0001
0001
,
0010
0001
0100
0100
,
0010
1000
0100
0010
,
0002
0010
0100
0013
,
2000
0100
0010
3100
,
0001
1000
0100
0010
,
0001
0100
0001
0000
0002
0000
0103
0000
,
0001
0100
0010
0010
,
1000
0000
0000
0001
0000
0000
0000
0000
,
0010
0100
1000
0010
,
0100
0000
0000
0010
0000
0000
0000
0000
,
0010
1000
0100
1000
,
1000
0000
0000
0010
0000
0000
0000
0000
,
1000
0100
0010
0001
,
0001
0000
0000
0100
0000
0000
0000
0000
,
0220
0000
0000
0000
,
0000
0000
0000
0000
,
0330
0000
0000
0000
;

//---------------dance-single - ----------------
#NOTES:
     dance-single:
     :
     Beginner:
     1:
     0.096616,0.128127,0.018614,0.068251,0.000000,109.000000,106.000000,3.000000,11.000000,0.000000,0.000000,0.096616,0.128127,0.018614,0.068251,0.000000,109.000000,106.000000,3.000000,11.000000,0.000000,0.000000:
// measure 0
0000
0000
0000
0000
,  // measure 1
0000
0000
0000
0000
,  // measure 2
0000
0000
0000
0000
,  // measure 3
0000
0000
0000
0000
,  // measure 4
0000
0000
0000
0000
,  // measure 5
0010
0000
0000
0000
,  // measure 6
0000
0000
0000
0000
,  // measure 7
0100
0000
0000
0000
,  // measure 8
0100
0000
0000
0000
,  // measure 9
1001
0000
0001
0000
,  // measure 10
1000
0000
0100
0000
,  // measure 11
0010
0000
0001
0000
,  // measure 12
0100
0100
0100
0000
,  // measure 13
0010
0000
1000
0000
,  // measure 14
0100
0000
1000
0000
,  // measure 15
0010
0000
0100
0000
,  // measure 16
0001
0001
0001
0000
,  // measure 17
1000
0100
1000
0000
,  // measure 18
0010
0100
0010
0000
,  // measure 19
0100
0001
0100
0000
,  // measure 20
0002
0000
2000
3003
,  // measure 21
0100
0000
0010
0000
,  // measure 22
1000
0000
0100
0000
,  // measure 23
1000
0001
1000
0000
,  // measure 24
0002
0000
0200
0303
,  // measure 25
0010
0000
0010
0000
,  // measure 26
0100
0000
0100
0000
,  // measure 27
0001
0000
0010
0000
,  // measure 28
0001
0001
0001
0000
,  // measure 29
1000
0000
0010
0000
,  // measure 30
0100
0000
0010
0000
,  // measure 31
2000
0000
0000
3000
,  // measure 32
0100
0000
0010
0000
,  // measure 33
0011
0000
0001
0000
,  // measure 34
0100
0000
0010
0000
,  // measure 35
1000
0000
0100
0000
,  // measure 36
1000
1000
1000
0000
,  // measure 37
2000
0000
0000
3000
,  // measure 38
0002
0000
0000
0003
,  // measure 39
0200
0000
0000
0300
,  // measure 40
0020
0000
0000
0030
,  // measure 41
0010
0000
0010
0000
,  // measure 42
0100
0000
0100
0000
,  // measure 43
0001
0000
1000
0000
,  // measure 44
0001
0001
0001
0000
,  // measure 45
1000
0000
0010
0000
,  // measure 46
1000
0000
0100
0000
,  // measure 47
1000
1000
1000
0000
,  // measure 48
0100
0100
0100
0000
,  // measure 49
0010
0000
0001
0000
,  // measure 50
0100
0000
0100
0000
,  // measure 51
0010
0000
1000
0000
,  // measure 52
0100
0000
0010
0000
,  // measure 53
1000
0000
0010
0000
,  // measure 54
0100
0000
0001
0000
,  // measure 55
0001
0000
0010
0000
,  // measure 56
0100
0000
0010
0000
,  // measure 57
2002
0000
0000
0000
,  // measure 58
0000
0000
0000
0000
,  // measure 59
3003
0000
0000
0000
;
