#TITLE:IMAGE -MATERIAL-;
#SUBTITLE:;
#ARTIST:Tatsh;
#TITLETRANSLIT:;
#SUBTITLETRANSLIT:;
#ARTISTTRANSLIT:;
#GENRE:Symphonic Metal;
#CREDIT:;
#BANNER:IMAGE -MATERIAL-.png;
#BACKGROUND:IMAGE -MATERIAL- bg.png;
#LYRICSPATH:;
#CDTITLE:;
#MUSIC:IMAGE -MATERIAL-.ogg;
#OFFSET:0.000000;
#SAMPLESTART:80.294998;
#SAMPLELENGTH:15.000000;
#SELECTABLE:YES;
#DISPLAYBPM:260.000000;
#BPMS:0.000000=130.000000
,52.000000=260.000000
;
#STOPS:
;
#BGCHANGES:;
#KEYSOUNDS:;
#ATTACKS:;

//---------------dance-single - ----------------
#NOTES:
     dance-single:
     :
     Challenge:
     12:
     0.772987,1.144941,0.237469,0.525825,0.262912,638.000000,610.000000,28.000000,62.000000,0.000000,0.000000,0.772987,1.144941,0.237469,0.525825,0.262912,638.000000,610.000000,28.000000,62.000000,0.000000,0.000000:
0000
0000
0000
0000
,
0000
0000
0000
0000
,
1001
0100
0010
0001
,
0101
0100
0010
1000
,
0120
0000
0000
0000
,
0030
0000
0200
0000
,
0302
2000
0000
0000
,
0000
0000
0000
3003
,
1020
0000
2030
0000
,
3200
0000
0300
0020
,
0200
0000
0000
0000
,
0000
0000
0000
0000
,
0000
0000
0000
0330
,
1000
0100
1000
0000
0000
0001
0000
0001
,
0000
0100
0010
0000
0000
0020
0000
0000
,
1030
0001
0100
0000
0000
0100
0000
0100
,
0000
0001
0010
0000
0000
0002
0000
0000
,
0103
0010
0100
0000
0000
0100
0000
0001
,
0000
1000
0010
0000
0000
2000
0000
0000
,
3001
1000
0100
0000
0000
1000
0000
0010
,
0000
1000
0001
0000
0000
0000
0000
0000
,
1001
0000
1000
0100
0001
0100
1000
0010
,
1000
0000
1001
0000
0001
0100
0000
0100
,
0001
0010
0100
0010
0001
1000
0010
0001
,
0010
0000
1000
0000
0100
0000
1000
0010
,
1000
0001
0000
0100
0010
0000
1000
0000
,
0100
0000
0000
0000
1000
0000
0001
0000
0100
0001
0100
0001
0100
0000
0001
0000
,
0010
0000
0100
0000
1000
0010
1000
0000
0001
0000
0100
0010
0100
0010
0100
0000
,
0001
0010
0100
1000
0010
0100
0001
1000
0001
1000
0001
0100
,
0110
0000
0010
1000
0001
1000
0100
0000
,
0010
0001
0000
0001
1000
0010
1000
0000
,
0001
0000
0100
0001
1000
0010
0100
0000
,
0001
0010
0000
0010
1000
0010
0001
0000
,
0100
0000
0010
1000
0100
0010
0001
0000
,
0001
1000
0000
0010
1000
0100
0001
0000
,
0100
0000
1000
0001
0000
0100
0020
0000
,
0030
0000
0002
0023
,
0230
2300
0000
3000
,
0010
0000
1000
0010
1000
0000
1000
0001
,
1000
0000
0000
0100
0000
0000
1000
0000
0000
0000
0000
0000
0001
0000
0000
0000
0000
0000
0100
0000
0000
0000
0000
0000
0001
0000
0000
0000
0010
0000
0000
0000
1000
0000
0000
0000
0010
0000
0000
0000
0001
0000
0000
0000
0100
0000
0000
0000
,
0010
0000
1000
0100
0010
0100
1000
0010
,
0001
0010
1010
1001
,
1100
0000
0100
0010
0001
0100
1000
0100
,
0001
0000
1000
0000
0010
0000
0100
0001
,
0100
0000
0001
0010
0000
0010
0001
0100
,
0010
2000
3002
0203
,
0301
0000
0010
0100
1000
0000
0010
0100
,
0002
0000
2003
0000
3100
1000
0010
0100
,
0001
0000
0001
0100
1000
0100
0001
1000
,
0100
0000
1100
0000
1010
0000
0010
1000
,
0100
0000
1000
0010
0001
0010
1000
0100
,
0010
0000
0001
0000
0100
0001
0100
0010
,
2000
0000
3100
1000
0020
0000
0130
0001
,
0200
0000
0301
0010
0002
0000
0103
0010
,
1000
0000
0000
0001
0000
0000
1000
0000
0000
0000
0000
0000
0010
0000
0000
0000
0000
0000
1000
0000
0000
0000
0000
0000
0001
0000
0000
0000
0010
0000
0000
0000
0100
0000
0000
0000
1000
0000
0000
0000
0010
0000
0000
0000
0100
0000
0000
0000
,
0001
0010
1000
0010
0001
0100
0010
0100
0001
1000
0010
0100
,
0002
0000
0103
0010
0200
0000
0301
0010
,
2000
0000
3010
0001
0100
0010
0000
2000
,
0000
0000
3020
0000
0000
0130
0002
0000
,
0013
0110
1100
1010
,
0020
0000
1030
0100
2000
0000
3100
0010
,
0002
0000
0103
0000
0010
0100
0000
0002
,
0000
0000
2003
0000
3100
0020
0000
0000
,
0130
1100
1010
0110
,
0200
0000
0301
0010
0002
0000
0103
0010
,
0200
0000
0310
1000
0100
0001
0100
1000
,
0002
0000
0000
2003
0000
0000
3001
0000
,
0100
0001
1000
0100
,
0020
0100
0100
0100
,
0230
0000
1300
0000
,
0002
1000
1000
1000
,
2003
0000
3001
0100
,
0010
0000
0000
0100
0000
0000
0010
0000
0000
0000
0000
0000
1000
0000
0000
0000
0000
0000
0100
0000
0000
0000
0000
0000
1000
0000
0000
0000
0010
0000
0000
0000
0100
0000
0000
0000
0001
0000
0000
0000
0100
0000
0000
0000
0001
0000
0000
0000
,
1000
0010
0001
0010
1000
0100
0010
0100
1000
0001
0100
0010
,
0100
0001
1000
0100
0010
0100
1000
0001
,
0100
1000
0100
0001
0010
0001
1000
0000
,
1100
0000
1000
0000
0020
0000
1030
0100
,
2000
0000
3001
0100
0002
0000
0013
0100
,
1000
0000
0001
0100
1000
0100
0001
1000
,
0100
1000
0010
0100
0001
0010
0001
0000
,
1001
0000
1000
0000
0200
0000
1300
0010
,
2000
0000
3001
0100
0020
0000
1030
0000
,
1001
0000
0001
0100
1000
0100
0001
0010
,
1000
0010
0001
0100
0010
1000
0100
0000
,
0110
0000
0010
0000
0002
0000
0103
0010
,
2000
0000
3100
0010
0200
0000
1300
0010
,
0001
0000
0010
1000
0100
1000
0001
0100
,
0001
0010
0001
0000
0100
0000
0010
0000
1000
0000
0100
0000
0001
0000
0100
0000
,
1000
0100
0010
0001
0100
0010
1000
0100
0001
0100
1000
0001
,
0100
0001
0010
0100
1000
0010
0001
0010
1000
0100
0010
0001
,
1000
0000
0010
1000
0001
0100
0001
0100
,
1000
0100
0001
0010
0001
1000
0010
0000
,
0110
0000
0100
0000
0002
0000
1003
0100
,
2000
0000
3010
0100
0020
0000
1030
0100
,
0001
0000
0001
0100
1000
0010
1000
0001
,
0010
0001
1000
0100
0010
0001
0100
0010
,
1000
0001
0100
0001
0010
1000
0010
0001
,
0101
0000
0000
1001
0000
0000
1100
0000
,
1010
0000
0010
1000
0100
0010
0100
1000
,
0001
0100
0001
1000
0010
0001
0010
0000
,
1000
0000
0100
0000
2000
0000
3001
0100
,
0020
0000
1030
0001
0200
0000
0301
1000
,
0001
0000
1000
0100
0001
0100
1000
0010
,
0100
0010
1000
0001
0100
0001
1000
0100
,
0010
0100
1000
0001
0100
0010
0100
0001
,
0010
0100
1000
0010
0001
0010
1000
0100
,
0001
0100
1000
0001
1000
0100
0010
0001
,
0100
0010
0100
0000
0001
0000
1000
0000
0010
0000
0100
0000
0010
0000
1000
0000
,
1100
0000
0000
0000
;

//---------------dance-single - ----------------
#NOTES:
     dance-single:
     :
     Hard:
     10:
     0.587615,0.778560,0.059367,0.381647,0.000000,485.000000,478.000000,7.000000,45.000000,0.000000,0.000000,0.587615,0.778560,0.059367,0.381647,0.000000,485.000000,478.000000,7.000000,45.000000,0.000000,0.000000:
0000
0000
0000
0000
,
0000
0000
0000
0000
,
1001
0010
0100
0001
,
0011
0100
1000
0010
,
0210
0000
0000
0000
,
0300
0000
2000
0000
,
3002
0200
0000
0000
,
0000
0000
0000
0303
,
0002
0000
0203
0000
,
0320
0000
0030
2000
,
0200
0000
0000
0000
,
0000
0000
0000
0000
,
0000
0000
0000
3300
,
1000
0000
0001
0100
0000
0001
0000
1000
,
0000
0010
0100
0000
0000
0100
0000
0000
,
0000
0100
0001
0000
1000
0100
0000
1000
,
0000
0001
1000
0000
0000
0001
0000
0000
,
0000
0010
0100
0000
1000
0010
0000
0100
,
0000
0010
1000
0000
0000
0001
0000
0000
,
0000
1000
0001
0000
0000
0100
0000
0100
,
0000
0001
0010
0000
0000
0000
0000
0000
,
0110
0000
0100
0000
1000
0010
0100
0000
,
0001
0010
0100
1000
0010
0000
0100
0000
,
0001
0010
0001
0000
1000
0010
1000
0000
,
0001
0100
1000
0100
0001
0000
1000
0000
,
0100
0000
1000
0010
0000
0010
1000
0000
,
0001
0000
0001
0000
0100
0010
1000
0010
,
1000
0100
0001
0100
1000
0010
0001
0010
,
1000
0001
0100
0010
1000
0100
0010
0001
,
0100
0000
0001
1000
0000
1000
0010
0000
,
0010
0100
0000
0001
0010
0100
1000
0000
,
0010
0000
0100
0001
0000
0010
0001
0000
,
0100
0010
0000
0010
1000
0001
0100
0000
,
0010
0000
1000
0100
0000
0010
0001
0000
,
0100
0010
0000
1000
0100
0010
0001
0000
,
1000
0000
0010
0100
0000
0001
0010
0000
,
0000
0000
0020
0230
,
2300
3002
0003
0000
,
0200
0310
2000
3100
,
0020
0000
0031
0000
0100
0001
0010
0100
,
1000
0000
0001
0100
0000
0100
0001
0000
,
1000
0020
0000
1030
,
0100
1000
0000
0001
0010
0000
0001
0000
,
0100
0000
0010
0000
1000
0100
0001
0100
,
1000
0000
0010
0100
0000
0100
0010
0000
,
0100
0002
0023
0230
,
2300
0000
3002
0000
,
0013
0000
0100
0000
1000
0001
0100
0010
,
0100
0000
0001
0000
1000
0100
0000
0100
,
1000
0000
0001
0000
0100
0000
0001
0010
,
2000
0000
0000
3020
0000
0000
0031
0000
,
0100
0000
0000
0000
0010
1000
0010
0001
,
0020
1030
2000
3100
,
0200
0310
0002
0103
,
0001
0010
0100
0000
1000
0010
0100
0001
,
0010
0100
1000
0010
0001
0010
1000
0100
,
0020
0130
0200
1300
,
2000
0000
3010
0000
0010
0100
0000
0002
,
0000
0000
0103
0000
0010
1000
0000
0000
,
0001
1000
0010
0100
,
0002
1003
2000
3100
,
0200
0000
1300
0000
0001
1000
0000
0020
,
0000
0000
2030
0000
0000
3200
0000
0000
,
1300
0100
0010
0001
,
2000
3100
0200
0310
,
0002
0000
0000
0000
1003
0100
1000
0000
,
0020
0000
0000
0230
0000
0000
0301
0000
,
1000
0010
0100
0001
,
0020
0100
0100
0100
,
0130
0000
0000
0000
,
0002
1000
1000
0000
,
1003
0100
1000
0000
,
0010
0100
0001
1000
0100
0001
0100
1000
,
0010
0001
0010
1000
0100
0010
0001
0100
,
0010
0000
1000
0000
0100
0000
0010
0001
,
0010
0000
0001
0000
0100
0010
1000
0010
,
0100
0000
0001
0000
1000
0100
1000
0000
,
0001
0100
0001
0000
1000
0100
1000
0000
,
0001
0000
0100
0000
0001
0000
0010
0100
,
0000
0100
0010
0000
0001
0000
0100
0010
,
1000
0000
0100
0000
0010
0001
0010
0000
,
0001
0100
0001
0000
0100
0010
0100
0000
,
0010
0000
1000
0100
0000
0100
1000
0000
,
0001
0000
0100
0000
0010
0100
0001
0000
,
1000
0000
0010
0000
0100
0001
0100
0000
,
0001
0010
0100
0000
1000
0010
1000
0000
,
0100
1000
0001
0100
,
0010
0100
0001
0100
0010
1000
0100
0010
,
0100
1000
0001
0010
1000
0010
0001
1000
,
0010
0100
0001
0100
1000
0100
0001
0010
,
0001
1000
0100
0010
,
0100
0000
1000
0000
0001
0000
0100
0010
,
0100
0000
0001
0000
0010
0100
0010
0000
,
0100
1000
0100
0000
1000
0010
1000
0000
,
0100
0000
0010
0000
0001
0100
0000
0100
,
0001
1000
0010
0100
,
0001
0010
0100
1000
,
1001
0000
0000
0110
0000
0000
1001
0000
,
1000
0000
0100
0000
0001
0000
0100
1000
,
0000
0010
1000
0000
0001
0000
0100
0001
,
0100
0000
0001
0000
1000
0100
1000
0000
,
1000
0010
1000
0000
0010
0100
0010
0000
,
0100
0000
0001
1000
0000
1000
0001
0000
,
0100
0010
1000
0100
,
1000
0010
0001
0010
,
1000
0100
0001
0100
,
1000
0001
1000
0100
,
0010
0100
1000
0010
0100
0001
0010
1000
,
0010
0000
0000
0000
;

//---------------dance-single - ----------------
#NOTES:
     dance-single:
     :
     Medium:
     8:
     0.450707,0.641167,0.288356,0.542787,0.000000,372.000000,338.000000,34.000000,64.000000,0.000000,0.000000,0.450707,0.641167,0.288356,0.542787,0.000000,372.000000,338.000000,34.000000,64.000000,0.000000,0.000000:
// measure 0
0000
0000
0000
0000
,  // measure 1
0000
0000
0000
0000
,  // measure 2
1001
0100
1000
0001
,  // measure 3
0101
0100
0010
1000
,  // measure 4
1002
0000
0000
0000
,  // measure 5
0003
0000
0200
0000
,  // measure 6
0302
2000
0000
0000
,  // measure 7
0000
0000
0000
3003
,  // measure 8
1001
0000
1010
0000
,  // measure 9
1100
0000
0000
0020
,  // measure 10
0002
0000
0000
0000
,  // measure 11
0000
0000
0000
0000
,  // measure 12
0000
0000
0000
0033
,  // measure 13
0001
0000
1000
0000
0000
0010
0000
1000
,  // measure 14
0000
0000
0001
0000
0000
0100
0000
0000
,  // measure 15
0000
0000
0010
0000
0000
1000
0000
0100
,  // measure 16
0000
0000
1000
0000
0000
0001
0000
0000
,  // measure 17
0000
0000
0100
0000
0000
0010
0000
0100
,  // measure 18
0000
0000
0001
0000
0000
0010
0000
0000
,  // measure 19
0000
0000
0001
0000
0000
0100
0000
0010
,  // measure 20
0000
1000
0000
0000
,  // measure 21
1001
1000
0000
0001
,  // measure 22
0100
0010
0100
0001
,  // measure 23
1000
0000
0000
0100
0000
0000
1000
0000
,  // measure 24
0001
0100
0000
0001
,  // measure 25
0020
0000
0000
0230
0000
0000
2300
0000
,  // measure 26
3002
0000
0103
0010
,  // measure 27
0100
0001
0100
0000
0001
0000
1000
0010
,  // measure 28
0100
0001
0100
0000
,  // measure 29
0110
0000
0000
1010
0000
0000
1001
0000
,  // measure 30
0000
0101
0000
0000
0010
0000
1000
0000
,  // measure 31
1100
0000
0000
1010
0000
0000
1001
0000
,  // measure 32
0000
0101
0000
0000
0100
0000
0000
0000
,  // measure 33
0110
0000
0000
1010
0000
0000
0101
0000
,  // measure 34
0000
0011
0000
0000
0010
0000
0100
0000
,  // measure 35
1100
0000
0000
1001
0000
0000
0012
0000
,  // measure 36
0000
0003
0200
0302
,  // measure 37
2003
3020
0000
0030
,  // measure 38
0200
0000
0302
0000
,  // measure 39
1003
0100
0010
0000
0100
1000
0010
0000
,  // measure 40
1010
1000
0100
0010
,  // measure 41
0001
0200
0000
0310
,  // measure 42
2000
0000
0000
3100
1000
0000
0002
0000
,  // measure 43
0200
0000
0303
0010
,  // measure 44
1000
0000
0100
0000
1000
0000
0001
0100
,  // measure 45
0000
0020
2030
3002
,  // measure 46
0203
0000
0302
0000
,  // measure 47
0013
0100
1000
0001
,  // measure 48
0101
0100
0010
1000
,  // measure 49
0100
0000
1000
0000
0001
0000
0100
0001
,  // measure 50
0020
0000
0000
0230
0000
0000
2300
0000
,  // measure 51
3002
0000
0000
0000
0103
0010
1000
0000
,  // measure 52
0200
0000
2300
0000
,  // measure 53
3200
0000
0320
0000
,  // measure 54
0031
0100
0001
0000
0010
1000
0010
0000
,  // measure 55
1000
0001
1000
0000
0100
0010
0001
0100
,  // measure 56
0020
0000
2030
0000
,  // measure 57
3002
0000
1000
0000
1000
0000
0000
0010
,  // measure 58
0000
0000
0100
0000
0000
0010
0003
0000
,  // measure 59
0001
0100
0010
1000
,  // measure 60
0002
0000
0203
0000
,  // measure 61
0320
0000
1000
0000
1000
0000
0000
0100
,  // measure 62
0000
0000
1000
0000
0000
0001
0030
0000
,  // measure 63
0010
1000
0001
1000
,  // measure 64
0020
0000
2030
0000
,  // measure 65
3002
0000
0100
0000
0100
0000
0000
0010
,  // measure 66
0000
0000
0100
0000
0000
0010
0003
0000
,  // measure 67
0001
1000
0010
0100
,  // measure 68
0020
0000
0000
0000
,  // measure 69
2030
0000
3000
0000
,  // measure 70
0002
0000
0000
0000
,  // measure 71
0203
0000
0300
0000
,  // measure 72
0001
1000
0100
0000
1000
0010
0100
0000
,  // measure 73
0001
0000
0010
0000
0001
0100
0010
1000
,  // measure 74
0100
0000
1000
0000
0001
0000
0100
0010
,  // measure 75
1000
0001
0100
0001
,  // measure 76
1001
0000
2000
0000
,  // measure 77
3002
0000
0203
0000
,  // measure 78
0310
1000
0010
0000
1000
0000
0100
0000
,  // measure 79
1000
0001
0100
0001
,  // measure 80
2000
3020
2030
0000
,  // measure 81
3200
0000
0320
0000
,  // measure 82
0031
0000
1000
0000
0010
0000
0100
0001
,  // measure 83
0010
0001
0100
0001
,  // measure 84
0011
0000
0200
0000
,  // measure 85
0320
0000
2030
0000
,  // measure 86
3001
0000
0100
0001
1000
0000
0010
0000
,  // measure 87
1000
0100
0010
0001
0100
0000
0010
0000
,  // measure 88
1000
0100
1000
0000
0001
0000
0000
0000
,  // measure 89
0100
0010
0100
0000
0001
0000
0000
0000
,  // measure 90
1001
1000
0001
0100
,  // measure 91
0010
1000
0010
1000
,  // measure 92
1100
0000
0002
0000
,  // measure 93
0203
0000
0320
0000
,  // measure 94
1030
0100
1000
0000
0001
0000
1000
0000
,  // measure 95
0010
0000
1000
0000
0000
0000
0001
0010
,  // measure 96
0001
0100
0010
0100
,  // measure 97
0101
0000
0000
1001
0000
0000
1010
0000
,  // measure 98
1001
0000
0001
0000
0100
0000
0010
0100
,  // measure 99
0010
0000
1000
0000
0001
0000
0100
0010
,  // measure 100
1000
0000
0200
0000
,  // measure 101
2300
0000
3002
0000
,  // measure 102
0103
0000
0010
1000
0010
0000
1000
0000
,  // measure 103
0001
0100
0010
1000
,  // measure 104
1001
0001
1000
0001
,  // measure 105
0100
0010
1000
0100
,  // measure 106
0010
0001
0100
0010
,  // measure 107
0100
0001
0100
0000
0010
0100
0010
0000
,  // measure 108
1010
0000
0000
0000
;
