#TITLE:Desert Rose;
#SUBTITLE:;
#ARTIST:DevilsAvenged;
#TITLETRANSLIT:;
#SUBTITLETRANSLIT:;
#ARTISTTRANSLIT:;
#GENRE:;
#CREDIT:;
#BANNER:Desert Rose.png;
#BACKGROUND:Desert Rose-bg.png;
#JACKET:Desert Rose-jacket.png;
#LYRICSPATH:;
#CDTITLE:;
#MUSIC:Desert_Rose.ogg;
#OFFSET:0.000000;
#SAMPLESTART:100.000000;
#SAMPLELENGTH:12.000000;
#SELECTABLE:YES;
#BPMS:0.000000=236.000000
,313.000000=300.000000
,353.000000=236.000000
,385.000000=300.000000
,425.000000=236.000000
;
#STOPS:353.000000=0.160000,
424.000000=0.180000
;
#BGCHANGES:0.000=Desert Rose.mp4=1.000=0=0=0=StretchNoLoop====,
99999=-nosongbg-=1.000=0=0=0 // don't automatically add -songbackground-
;
#KEYSOUNDS:;
#ATTACKS:;

//---------------dance-single - ----------------
#NOTES:
     dance-single:
     :
     Hard:
     10:
     0.658712,1.325901,0.116734,0.441921,0.704572,553.000000,539.000000,14.000000,53.000000,0.000000,0.000000,0.658712,1.325901,0.116734,0.441921,0.704572,553.000000,539.000000,14.000000,53.000000,0.000000,0.000000:
// measure 0
0000
0000
0000
0000
,  // measure 1
0000
0000
0000
0000
,  // measure 2
0000
0000
0000
0000
,  // measure 3
0000
0000
0000
0000
,  // measure 4
0000
0000
0000
0000
,  // measure 5
0000
0000
0000
0000
,  // measure 6
0000
0000
0000
0000
,  // measure 7
0000
0000
0000
0000
,  // measure 8
0000
0000
1000
0010
1000
0100
1000
0100
,  // measure 9
0010
0001
0010
0001
0100
1000
0100
0010
,  // measure 10
0001
0010
0100
1000
0100
1000
0100
0010
,  // measure 11
0100
0001
0010
1000
0100
0010
1000
0100
,  // measure 12
0010
0000
0000
0100
0000
0000
0001
0000
0000
0100
0000
0000
0000
0000
1000
0000
0000
0000
0000
0000
0000
2000
0000
0000
,  // measure 13
0000
0000
0000
3100
0000
0010
0200
0000
0000
0000
0000
0000
,  // measure 14
0300
0000
0000
0001
1000
0000
0002
0000
0000
1000
0000
0000
,  // measure 15
1003
0000
0100
1000
0100
0010
0001
0010
,  // measure 16
2000
0000
3000
0100
0020
0000
0030
0100
,  // measure 17
1000
0100
0010
0001
0010
0001
0100
0010
,  // measure 18
0000
0000
0000
0020
0000
0032
0000
0003
,  // measure 19
1000
0100
2000
3000
0000
0000
0000
0000
,  // measure 20
0000
0000
0000
0000
0000
0000
0000
0000
0100
0000
0000
0000
0000
0000
0000
0200
0000
0000
0000
0000
0000
0000
0000
0000
,  // measure 21
0301
0000
1000
0002
0000
0000
0000
0000
0000
0003
0000
0000
,  // measure 22
0010
0100
0000
0020
0000
0000
0100
0000
0000
0130
0000
0000
,  // measure 23
0100
1000
0100
0010
0001
0010
2000
0000
,  // measure 24
3000
0100
0020
0000
0030
0100
1000
0100
,  // measure 25
0010
0100
0010
0001
0100
0010
0001
0100
,  // measure 26
0000
0000
0020
0000
0000
0000
0032
0000
0000
0000
0003
0000
1000
0100
0000
0000
,  // measure 27
0010
0000
0000
0022
0000
0000
0033
0000
,  // measure 28
0000
0000
0000
0000
1100
1100
0000
0022
,  // measure 29
0000
0000
0000
0033
0000
1000
0100
1000
,  // measure 30
0010
0100
0001
1000
0100
0010
1000
0100
,  // measure 31
0010
0000
0000
1000
0000
0000
0001
0000
0000
0100
0000
0000
0010
0000
0000
0000
0010
0000
1000
0000
0100
0000
0010
0000
,  // measure 32
0001
0000
0000
0001
0000
1100
0000
1100
0000
0000
0022
0000
0000
0000
0000
0000
,  // measure 33
0033
0000
1000
0100
0010
0100
1000
0100
,  // measure 34
0010
0100
1000
0000
2000
0000
3100
0010
,  // measure 35
0100
2000
0000
3002
0000
0003
1000
0100
,  // measure 36
0001
0100
0010
1010
1010
0220
0330
0000
,  // measure 37
0000
0000
0000
0000
0000
1000
0100
1000
,  // measure 38
0010
0100
0001
1000
0100
0010
1000
0100
,  // measure 39
0010
0000
0000
1000
0000
0000
0001
0000
0000
0100
0000
0000
0010
0000
0000
0000
0010
0000
1000
0000
0100
0000
0010
0000
,  // measure 40
0001
0000
0000
0001
0000
0000
1000
0000
1000
0000
0000
0000
0000
0000
0010
0000
,  // measure 41
0010
0000
0000
0000
1000
1000
0000
0010
,  // measure 42
0010
0000
0000
1000
0100
1000
0100
1000
0100
1000
0100
1000
,  // measure 43
0100
2000
0000
0000
3000
0000
1000
0100
0010
0001
0010
0100
,  // measure 44
1000
0000
1000
0100
1000
0100
0001
0010
,  // measure 45
1000
0001
0100
0010
1000
0100
0001
0010
,  // measure 46
1000
0100
0001
0020
0030
0000
0010
0100
,  // measure 47
0100
0010
0001
1000
0100
0100
0001
0020
,  // measure 48
0030
0000
0010
0100
0010
0100
1000
0001
,  // measure 49
0010
0100
0010
0100
1000
0100
1000
0001
,  // measure 50
0100
0000
0010
0000
1000
0100
1000
0100
1000
0100
1000
0100
0001
0010
0001
0010
,  // measure 51
0001
0010
0001
0010
1000
0100
0010
0001
0010
0100
2000
0000
0000
3000
0000
0000
,  // measure 52
0000
0000
1000
0020
,  // measure 53
0000
0000
0000
0000
0000
0000
0130
0000
0000
1000
0000
0000
0200
0000
0000
0000
0000
0000
0000
0000
0020
0300
0000
0000
,  // measure 54
0000
0000
0000
0000
0030
0000
0001
0000
0000
2000
0000
0000
0000
0000
0000
0000
0000
0000
3000
0000
0000
0000
0000
0000
,  // measure 55
0000
0000
0000
0000
0000
0000
0000
0000
0010
0000
0000
0000
0000
0000
0100
0000
0000
0000
0000
0000
0000
1000
0000
0000
,  // measure 56
0000
0002
0000
0000
0000
0003
0000
0000
,  // measure 57
0000
0000
0000
0000
0000
0000
0000
0000
0100
0000
0000
0000
0000
0000
0010
0000
0000
0000
0000
0000
0000
0001
0000
0000
,  // measure 58
0000
2000
0000
0000
0000
3000
0000
0000
,  // measure 59
0000
0000
0000
0000
0000
0000
1000
0100
0010
0100
1000
0100
,  // measure 60
0010
0000
0001
2000
0000
0000
3000
0000
,  // measure 61
0000
0000
0000
0000
0000
0000
0000
0000
0010
0000
0000
0000
0000
0000
0100
0000
0000
0000
0000
0000
0000
1000
0000
0000
,  // measure 62
0000
0002
0000
0000
0000
0003
0000
0000
,  // measure 63
0000
0000
0000
0000
0000
0000
0000
0000
0100
0000
0000
0000
0000
0000
0010
0000
0000
0000
0000
0000
0000
0001
0000
0000
,  // measure 64
0000
2000
0000
0000
0000
3000
0000
2000
,  // measure 65
0000
3000
0010
1000
0000
0100
0000
0010
,  // measure 66
0000
2000
0000
0000
0000
0000
0000
0000
,  // measure 67
0000
0000
0000
0000
0000
0000
0000
3000
,  // measure 68
0000
0000
0000
0000
0011
0011
0000
0000
,  // measure 69
0101
0202
0000
0303
0000
0000
1000
0100
,  // measure 70
0010
0000
0000
0000
1000
0100
0010
0001
0000
0000
0000
0000
0002
0000
0000
0000
,  // measure 71
0000
0000
0000
0000
0000
0000
0000
0000
0000
0003
0000
0000
1000
0000
0000
0000
0000
0000
0000
0000
0100
0000
0000
0000
0000
0000
0000
0000
0010
0000
0000
0000
0000
0000
0000
0000
1000
0000
0000
0000
0000
0000
0000
0000
0000
0000
0000
0000
,  // measure 72
0000
0000
0000
0000
0000
0000
0000
0000
0010
1000
0001
0100
0000
0000
0000
0000
,  // measure 73
0200
0000
0000
0000
0000
0000
0000
0000
0000
0000
0000
0000
0000
0000
0000
0000
0000
0000
0000
0000
0000
0300
0000
0000
0010
0000
0000
0000
0000
0000
0000
0000
1000
0000
0000
0000
0000
0000
0000
0000
0001
0000
0000
0000
0000
0000
0000
0000
,  // measure 74
0010
0000
0000
0000
0000
0000
0000
0000
1000
0100
0010
0001
0000
0000
0000
0000
,  // measure 75
0002
0000
0000
0000
0000
0000
0000
0000
0000
0000
0000
0000
0000
0000
0000
0000
0000
0000
0000
0000
0000
0003
0000
0000
1000
0000
0000
0000
0000
0000
0000
0000
0100
0000
0000
0000
0000
0000
0000
0000
0010
0000
0000
0000
0000
0000
0000
0000
,  // measure 76
1000
0000
0000
0000
0000
0000
0000
0000
0010
1000
0001
0100
0000
0000
0000
0000
,  // measure 77
0200
0000
0000
0000
0000
0000
0000
0000
0000
0000
0000
0000
0000
0000
0000
0000
0000
0000
0000
0000
0000
0300
0000
0000
0010
0000
0000
0000
0000
0000
0000
0000
1000
0000
0000
0000
0000
0000
0000
0000
0001
0000
0000
0000
0000
0000
0000
0000
,  // measure 78
0010
0000
0000
1000
0000
0100
0000
0010
0000
1000
0000
0100
,  // measure 79
0000
0010
0000
0001
0000
0010
0000
0100
0000
1000
0000
0100
,  // measure 80
0000
1000
0000
0001
0000
0010
0000
0100
0000
0001
0000
0010
,  // measure 81
0000
0100
0000
1000
0000
0100
0000
0010
0000
0001
0000
0010
,  // measure 82
0000
0100
0000
1000
0000
0001
0000
0010
0000
1000
0000
0100
,  // measure 83
0000
0010
0000
0001
0000
0010
0000
0100
0000
1000
0000
0100
,  // measure 84
0000
0010
0000
1000
0000
0001
0000
0010
0000
1000
0000
0100
,  // measure 85
0000
0010
0000
0001
0000
0010
0000
0100
0000
1000
0000
0100
,  // measure 86
0100
0000
0001
0000
1000
0000
0100
0000
0010
0000
1000
0000
,  // measure 87
0100
0000
0001
0000
1000
0000
0010
0000
1000
0000
0001
0000
,  // measure 88
0100
0000
0000
0000
0000
0000
0000
0000
0001
0000
0000
0000
0010
0000
0000
1000
0000
0000
0001
0000
0000
0100
0000
0000
0000
0000
0000
0000
0000
0000
0000
0000
0000
0000
0000
0000
0200
0000
0000
0000
0000
0000
0000
0000
0000
0000
0000
0000
,  // measure 89
0000
0000
0000
0000
0000
0000
0000
0000
0000
0300
0000
0000
0010
0000
0000
0000
0000
0000
0000
0000
1000
0000
0000
0000
0000
0000
0000
0000
0001
0000
0000
0000
0000
0000
0000
0000
0010
0000
0000
0000
0000
0000
0000
0000
0000
0000
0000
0000
,  // measure 90
0000
0000
0000
0000
1000
0100
0010
0001
0000
0000
0000
0000
0002
0000
0000
0000
,  // measure 91
0000
0000
0000
0000
0000
0000
0000
0000
0000
0003
0000
0000
1000
0000
0000
0000
0000
0000
0000
0000
0100
0000
0000
0000
0000
0000
0000
0000
0010
0000
0000
0000
0000
0000
0000
0000
1000
0000
0000
0000
0000
0000
0000
0000
0000
0000
0000
0000
,  // measure 92
0000
0000
0000
0000
0010
1000
0001
0100
0000
0000
0000
0000
0200
0000
0000
0000
,  // measure 93
0000
0000
0000
0000
0000
0000
0000
0000
0000
0300
0000
0000
0010
0000
0000
0000
0000
0000
0000
0000
1000
0000
0000
0000
0000
0000
0000
0000
0001
0000
0000
0000
0000
0000
0000
0000
0010
0000
0000
0000
0000
0000
0000
0000
0000
0000
0000
0000
,  // measure 94
0010
1000
0001
0100
0000
0000
0000
0000
0200
0000
0000
0000
0000
0000
0000
0300
,  // measure 95
0010
0000
1000
0000
0001
0000
0010
0000
0000
0000
0000
0000
,  // measure 96
0000
0000
0000
1000
0000
0100
0000
0010
0000
1000
0000
0100
,  // measure 97
0000
0010
0000
0001
0000
0010
0000
0100
0000
1000
0000
0100
,  // measure 98
0000
1000
0000
0001
0000
0010
0000
0100
0000
0001
0000
0010
,  // measure 99
0000
0100
0000
1000
0000
0100
0000
0010
0000
0001
0000
0010
,  // measure 100
0000
0100
0000
1000
0000
0001
0000
0010
0000
1000
0000
0100
,  // measure 101
0000
0010
0000
0001
0000
0010
0000
0100
0000
1000
0000
0100
,  // measure 102
0000
0010
0000
1000
0000
0001
0000
0010
0000
1000
0000
0100
,  // measure 103
0000
0010
0000
0001
0000
0010
0000
0100
0000
1000
0000
0100
,  // measure 104
0100
0000
0001
0000
1000
0000
0100
0000
0010
0000
1000
0000
,  // measure 105
0100
0000
0001
0000
1000
0000
0010
0000
1000
0000
0001
0000
,  // measure 106
0100
0000
1000
0100
0000
1000
0100
0000
,  // measure 107
0010
0000
0000
0000
0010
0000
0000
0000
0010
0000
0000
0000
,  // measure 108
0000
1000
1000
0000
1000
0100
0010
0001
,  // measure 109
0000
0000
0000
0000
0001
0001
2000
0000
,  // measure 110
3002
0000
0003
0000
1000
0100
0000
1000
,  // measure 111
0100
0000
0000
0010
0000
0000
0000
0010
0000
0000
0000
0010
,  // measure 112
0000
0000
0000
1000
1000
0000
0100
0100
,  // measure 113
0010
0000
0000
0000
0001
0000
0000
1000
0000
0000
0000
0000
;
