#TITLE:CAFE;
#SUBTITLE:(KC Reconstruct Mix);
#ARTIST:D.D. Sound;
#TITLETRANSLIT:;
#SUBTITLETRANSLIT:;
#ARTISTTRANSLIT:;
#CREDIT:;
#BANNER:;
#BACKGROUND:;
#LYRICSPATH:;
#CDTITLE:;
#MUSIC:CAFE (KC Reconstruct Mix).ogg;
#OFFSET:0.000;
#SAMPLESTART:63.960;
#SAMPLELENGTH:12.000;
#SELECTABLE:YES;
#BPMS:0.000=132.080,32.000=131.400,60.000=130.100,72.000=130.000;
#STOPS:72.000=1.380
,101.000=1.400
;
#BGCHANGES:;

//---------------dance-single - ----------------
#NOTES:
     dance-single:
     :
     Hard:
     7:
     0.474,0.522,0.263,0.072,0.104:
0000
0000
0000
0000
,
0000
0000
0000
0000
,
0000
0000
0000
0000
,
0000
0000
0000
0000
,
1000
0100
0000
0010
0001
0000
0100
0010
,
0000
1000
0001
0000
0001
0010
0000
0100
,
1000
0010
0000
0100
0001
0000
0011
0000
,
0001
0000
0010
0000
0001
0000
0010
0000
0100
1000
0100
0000
1000
0000
0100
0000
,
2100
0001
0010
0001
,
0100
0000
0001
0000
0010
3010
0000
1000
,
0102
1000
0010
1000
,
0100
0000
1000
0000
0010
0013
0010
0010
,
2001
0000
3100
0000
1002
0000
0013
0001
,
2001
0000
3010
0000
1002
0100
0003
0100
,
0110
1001
0110
1001
,
1000
0100
0001
0100
1000
0100
0001
0100
,
1000
0010
0100
0001
0010
0100
1000
0010
,
1000
0100
0010
0001
0100
0010
1000
0001
,
1001
0000
0000
0000
0001
0000
0000
0001
0000
0000
0100
0000
0010
0000
0000
0010
,
0000
0100
0001
1000
0001
1000
0100
0010
,
0001
0000
1000
0000
0100
0000
0000
0100
0000
0000
0010
0000
0001
0000
0000
0001
,
0000
0010
0100
1000
0100
0010
0100
1000
,
0010
0000
0100
0000
0001
0000
0000
0001
0000
0000
0001
0000
0000
0000
0001
0000
,
0100
0010
0000
1000
0000
0100
0000
0010
,
0000
0001
0200
0000
0010
0000
0001
0000
,
0301
1000
0001
1000
0001
0000
0000
0000
0001
0000
0000
0100
0000
0000
1000
0000
,
1000
0000
0000
0100
0000
0000
0001
0000
0010
0000
0001
0000
0100
0000
0010
0000
,
1000
0000
0100
0000
1000
0000
0010
0000
0100
0000
0000
0100
0000
0000
0001
0000
,
1000
0000
0000
1000
0000
0000
0100
0000
0010
0000
0001
0000
0010
0000
0100
0000
,
1000
0000
0010
0000
1000
0000
0100
0000
0010
0000
0000
0010
0000
0000
0010
0000
,
0000
0001
1000
1001
0000
1100
0000
0101
,
0000
0011
0000
0001
1000
0000
0001
0100
,
0010
1000
0001
0000
1000
0100
1000
0100
,
0010
0000
0000
0000
0001
0000
1000
0000
1001
0000
0000
0000
0000
0001
1000
0000
,
0000
0000
0000
0000
1000
0010
1000
0000
,
0001
0000
0010
0000
0001
0000
0000
0000
1001
0000
0000
0000
0000
1000
0001
0000
,
0000
0000
0000
0000
0001
0100
0010
1000
,
0001
0000
0000
0000
0000
0000
1000
0000
0100
0000
1000
0100
0000
0010
0100
0000
,
0000
1000
0001
1000
0001
0100
0010
1000
,
0001
0000
0000
0001
0000
0000
0001
0000
0100
0000
0010
1000
0000
0010
0100
0000
,
0000
0001
0010
0100
1000
0100
0010
0100
,
1000
0000
1000
0100
0001
0100
1000
0010
,
0100
0000
0000
0100
0000
0000
0100
0000
0000
0000
0100
0000
0000
0000
0001
0000
,
0100
0001
0010
0100
1000
0001
1000
0010
,
1000
0100
0010
0100
0000
0000
0000
0000
,
1000
0100
0010
0100
0010
0001
0100
0010
,
0100
0000
0000
0100
0000
0000
0100
0000
0000
0000
0100
0000
0000
0000
0001
0000
,
0010
0100
1000
0100
0010
0100
1000
0010
,
1000
0000
0000
0100
0000
0000
1000
0000
0020
0000
0000
0000
0001
0000
0000
0000
,
0100
0000
1030
0000
1000
0010
1000
0010
,
0100
0000
0001
0000
1000
0001
0000
0000
0001
0000
0100
0000
0000
0000
0010
0000
,
1000
0000
1001
0000
1000
0100
0000
0010
,
0001
0000
1001
0000
0001
0100
0000
0010
,
1000
0000
1001
0000
1000
0100
0000
0010
,
0001
0000
1001
0000
0001
0100
0000
0010
,
0100
0000
0110
0000
0001
0010
0000
0100
,
0010
0000
0110
0000
1000
0100
0000
0010
,
0100
0110
1001
1001
,
0101
0000
0101
0000
0001
0100
0010
1000
,
0100
0001
0100
1000
0010
0100
0001
0010
,
1000
0010
0001
0100
0110
0000
0010
1000
,
0100
0000
1000
0000
0010
0000
0100
0001
0000
1000
0002
0000
0000
0000
0003
0000
,
0101
0000
1100
0000
1000
0010
0100
0010
,
0001
0010
1000
0100
0010
0001
0100
1000
,
0100
0001
0010
0100
1000
0000
0100
0000
,
0010
0001
1000
0001
1001
0000
0000
0000
;

//---------------dance-double - ----------------
#NOTES:
     dance-double:
     :
     Hard:
     8:
     0.532,0.965,0.167,0.072,0.219: // measure 1
00000000
00000000
00000000
00000000
,  // measure 2
00000000
00000000
00000000
00000000
,  // measure 3
00000000
00000000
00000000
00000000
,  // measure 4
00000000
00000000
00000000
00000000
,  // measure 5
10000000
01000000
00100000
01000000
10000000
01000000
00010000
00001000
,  // measure 6
00000100
00000001
00000010
00000001
00000100
00001000
00010000
01000000
,  // measure 7
10000000
00100000
01000000
00010000
10000000
00100000
01000000
00000000
,  // measure 8
01000000
00000000
00001000
00000000
00010000
00000000
00000100
00000000
00000010
00000001
00000010
00000000
00000100
00000000
00001000
00000000
,  // measure 9
00002001
00000010
00000001
00000100
,  // measure 10
00000001
00000000
00000010
00000000
00000001
00003001
00000000
00010000
,  // measure 11
00012000
00100000
01000000
00010000
,  // measure 12
01000000
00000000
00100000
00000000
00013000
00001000
00001000
00001000
,  // measure 13
00021000
00000000
00000100
00000000
00000010
00000000
00000100
00030100
,  // measure 14
00020100
00000000
00001000
00000000
00030100
00000010
00000000
00000010
,  // measure 15
00000011
00001010
00110000
10100000
,  // measure 16
10000000
01000000
00010000
00001000
00000100
00000001
00000100
00001000
,  // measure 17
00010000
00001000
00010000
00001000
00010000
00001000
00010000
00001000
00010000
00001000
00010000
00001000
00010000
00001000
00010000
00001000
,  // measure 18
00010000
00001000
00010000
00001000
00010000
00001000
00010000
00001000
00010000
00001000
00010000
00001000
00020000
00032000
00023000
00032000
,  // measure 19
00013000
01000000
10000000
00100000
,  // measure 20
10000000
00000000
01000000
00100000
00001000
00010000
00000100
00000010
,  // measure 21
00000001
00000100
00000010
00000000
00001000
00000000
00000100
00000000
,  // measure 22
00000001
00000000
00000100
00001000
00000010
00000100
00000001
00000010
,  // measure 23
00001000
00000000
00010000
00000000
00100000
00000000
00000000
00100000
00000000
00000000
00100000
00000000
00000000
00000000
10000000
00000000
,  // measure 24
01000000
01100000
00000000
00011000
00000000
00000110
00000000
00000100
,  // measure 25
00000000
00000001
00000010
00000100
00000100
00000000
00000010
00000100
,  // measure 26
00010000
00001000
00010000
00001000
00010000
00000000
00000000
00000000
00011000
00000000
00000000
00000000
00010000
00000000
00000000
00000000
,  // measure 27
01000000
00000000
10000000
00000000
00100000
10000000
01000000
10000000
,  // measure 28
00100000
10000000
01000000
00010000
00001000
00000000
00000100
00000000
,  // measure 29
00000001
00000000
00001001
00000000
00000001
00001000
00000100
00000001
,  // measure 30
00000100
00000000
00001000
00000000
00000010
00000000
00010000
00000000
00001000
00000000
00000000
00001000
00000000
00000000
00001000
00000000
,  // measure 31
00000000
00001000
00100000
00110000
00000000
10100000
00000000
10010000
,  // measure 32
00000000
00000000
01010000
00000000
00000000
00000000
01000000
00000000
00001000
00000000
00000000
00000000
00000000
00010000
00000000
00000100
,  // measure 33
00000000
00001000
00000000
00000010
00001000
00000000
00001000
00000000
00000010
00000000
00000100
00000000
00000001
00000000
00000010
00000000
,  // measure 34
00000100
00000000
00010000
00000000
00001000
00000000
00010000
00001000
00010000
00000000
01000000
10000000
00000000
00010000
10000000
00000000
,  // measure 35
00000000
00010000
10000000
01000000
00100000
01000000
10000000
01000000
,  // measure 36
00010000
00000000
00000000
00010000
00000000
00000000
00010000
00000000
00001000
00000000
00000100
00000001
00000000
00001000
00000001
00000000
,  // measure 37
00000000
00000000
00000001
00000000
00000010
00000000
00000100
00000000
00001000
00000000
00000100
00000000
00000010
00000000
00000100
00001000
,  // measure 38
00000000
00000000
00000000
00000000
00000000
00000000
00010000
00000000
00000100
00000000
00010000
00001000
00000000
00100000
00010000
00000000
,  // measure 39
00000000
00000000
10000000
00100000
10000000
00000000
01000000
00000000
00010000
00000000
01000000
00000000
10000000
00000000
00100000
00000000
,  // measure 40
01000000
00000000
00000000
00001000
00000000
00000000
00010000
00000000
00000100
00000000
00001000
00000010
00000000
00000100
00000001
00000000
,  // measure 41
00000000
00000000
00000001
00000010
00000100
00000000
00010000
00000000
00001000
00000000
00100000
00000000
00010000
00000000
10000000
00100000
,  // measure 42
00000000
00000000
10000000
01000000
00100000
01000000
10000000
01000000
,  // measure 43
00010000
00000000
00000000
00001000
00000000
00000000
00000100
00000000
00000000
00000000
00000001
00000000
00000000
00000000
00000010
00000000
,  // measure 44
00000100
00001000
00000100
00000010
00000001
00000100
00001000
00010000
,  // measure 45
00100000
00000000
00010000
00000000
00001000
00000000
00000100
00000000
00000001
00000000
00000000
00000000
00000000
00000000
00001000
00000001
,  // measure 46
00001000
00000001
00001000
00000001
00000100
00000000
00001000
00000000
00010000
00000000
00100000
00000000
10000000
00000000
00100000
00000000
,  // measure 47
01000000
00000000
00000000
01000000
00000000
00000000
10000000
00000000
00000000
00000000
01000000
00000000
00000000
00000000
00010000
00000000
,  // measure 48
00100000
10000000
00100000
00001000
00010000
00000100
00001000
00000001
,  // measure 49
00000100
00000000
00000000
00000100
00000000
00000000
00000100
00000000
00000020
00000000
00000000
00000000
00000001
00000000
00000000
00000000
,  // measure 50
00000100
00000000
00001030
00000000
00000010
00000010
00010000
00010000
,  // measure 51
00001000
00000000
00001000
00000000
00100000
01000000
00000000
00000000
10000000
00000000
00100000
00000000
10000000
00000000
01000000
00000000
,  // measure 52
00010000
01000000
10000000
00000000
10000000
00100000
01000000
00001000
,  // measure 53
00010000
00000100
00001000
00000000
00000010
00000001
00000010
00001000
,  // measure 54
00000100
00000001
00000100
00000000
00000100
00010000
00001000
00100000
,  // measure 55
00010000
10000000
00100000
00000000
10000000
01000000
00010000
00001000
,  // measure 56
00000100
00000001
00000010
00000000
00000010
00000001
00000100
00001000
,  // measure 57
00010000
01000000
10000000
00000000
10000000
00100000
01000000
00001000
,  // measure 58
00010000
00001000
00000100
00001000
00011000
00000000
00110000
00000000
,  // measure 59
10100000
00000000
10010000
10000000
01000000
00010000
00000010
00001000
,  // measure 60
00010000
01000000
00100000
00010000
00001000
00000100
00000010
00000100
,  // measure 61
00001000
00010000
01000000
10000000
00100000
00000000
00010000
00001000
,  // measure 62
00000100
00000000
00000000
00000000
00000000
00000000
00000001
00000000
00000000
00000000
00000000
00000000
00000010
00000000
00000000
00000000
00000000
00000000
00000100
00000000
00000000
00001000
00000000
00000000
00000000
00000000
00000000
00000100
00000000
00000000
00010000
00000000
00000000
00000000
00000000
00000000
00001000
00000000
00000000
00000000
00010000
00000000
00000000
00000000
00100000
00000000
00000000
00000000
,  // measure 63
00010000
00000000
00001000
00000000
00000100
00000000
00001000
00000000
00000000
00000000
00000000
00000000
00010000
00000000
00000000
01000000
00000000
00000000
00010000
00000000
00000000
00000010
00000000
00000000
,  // measure 64
00000100
00000001
00000010
00001000
01000000
10000000
01000000
00100000
,  // measure 65
00001000
00000100
00000010
00001000
00010000
01000000
00010000
00001000
,  // measure 66
00000100
00000000
00001000
00000000
00010000
00001000
00010000
00001000
00010000
00000000
00000000
00000000
00000000
00000000
00000000
00000000
;

//---------------dance-double - ----------------
#NOTES:
     dance-double:
     :
     Medium:
     6:
     0.375,0.417,0.111,0.040,0.004: // measure 1
00000000
00000000
00000000
00000000
,  // measure 2
00000000
00000000
00000000
00000000
,  // measure 3
00000000
00000000
00000000
00000000
,  // measure 4
00000000
00000000
00000000
00000000
,  // measure 5
00010000
00001000
00000000
00100000
00010000
00000000
10000000
00100000
,  // measure 6
00000000
01000000
00010000
00000000
00100000
00001000
00000000
00010000
,  // measure 7
00000100
00000010
00000000
00000010
00000001
00000000
00000100
00000000
,  // measure 8
00001000
00010000
00000000
00010000
01000000
00000000
00010000
00000000
,  // measure 9
00011000
00000000
00001000
00010000
01000000
00000000
00010000
00001000
,  // measure 10
00000100
00000000
00001000
00010000
01000000
00010000
00000000
00010000
,  // measure 11
00001000
00000000
00001000
00100000
00010000
00000000
00010000
10000000
,  // measure 12
00100000
00000000
00100000
10000000
00010000
01000000
00000000
01000000
,  // measure 13
00001000
00010000
00000100
00000000
00000100
00001000
00000010
00000000
,  // measure 14
00000010
00000100
00000001
00000000
00000001
00000010
00000000
00000010
,  // measure 15
00000100
00000100
00000100
00000100
,  // measure 16
00010000
00001000
00000010
00000000
00000001
00000010
00001000
00000000
,  // measure 17
00001000
00010000
00100000
00000000
10000000
00100000
00010000
00000000
,  // measure 18
00001000
00010000
00001000
00010000
00001000
00010000
00001000
00010000
,  // measure 19
00001000
00010000
01000000
10000000
,  // measure 20
00100000
10000000
01000000
00100000
,  // measure 21
00001000
00010000
00001000
00000000
00010000
00000000
00000100
00000000
,  // measure 22
00001000
00000100
00000010
00000001
,  // measure 23
00000100
00000001
00000100
00000000
00000000
00000100
00000010
00000000
,  // measure 24
00000100
00000010
00001000
00000100
,  // measure 25
00010000
00000000
00001000
00100000
00100000
00000000
00010000
00000000
,  // measure 26
10000000
10010000
10000000
01000000
,  // measure 27
00100000
00010000
10010000
10000000
,  // measure 28
00100000
00000000
01000000
00001000
00010000
00000000
00000100
00000000
,  // measure 29
00001000
00000100
00000010
00000001
,  // measure 30
00000100
00000010
00000100
00000000
00000001
00000000
00000000
00000010
,  // measure 31
00000100
00010000
00001000
00100000
,  // measure 32
00010000
01000000
10000000
01000000
,  // measure 33
00010000
00100000
00000000
01000000
,  // measure 34
10000000
01000000
00020000
00000000
,  // measure 35
00000000
00030100
00000000
00000000
00010000
00000000
00000100
00000000
,  // measure 36
00000001
00000100
00002000
00000000
,  // measure 37
00000000
01003000
00000000
00000000
10000000
00000000
00100000
00000000
,  // measure 38
00011000
00000000
00000000
00000000
00021000
00000000
00000000
00000010
,  // measure 39
00000000
00000100
00030000
00000000
00010000
00000100
00001000
00000100
,  // measure 40
00010000
00000000
00001000
00000000
00012000
00000000
00000000
00100000
,  // measure 41
00000000
01003000
00000000
00000000
00010000
00001000
01000000
00010000
,  // measure 42
10000000
00000000
10000000
00000000
01000000
00010000
01000000
00000000
,  // measure 43
10000000
00100000
10000000
00000000
01000000
00000000
00100000
00000000
,  // measure 44
00001000
00000000
00010000
00000000
00000100
00000010
00000100
00000000
,  // measure 45
00001000
00000001
00001000
00000000
00000001
00000000
00000100
00000000
,  // measure 46
00000010
00000000
00010000
00000000
00001000
00010000
00001000
00000000
,  // measure 47
00100000
00010000
00100000
00000000
01000000
00000000
01000000
00000000
,  // measure 48
10000000
00000000
00100000
00000000
01000000
00010000
00001000
00000100
,  // measure 49
00001000
00000000
00000000
00010000
00000000
00000000
00001000
00000000
00000020
00000000
00000000
00000000
00000001
00000000
00000000
00000000
,  // measure 50
00000100
00000000
00001030
00000000
00001000
00000001
00001000
00000001
,  // measure 51
00000100
00001000
00010000
00000000
00010000
00001000
00000000
00100000
,  // measure 52
00010000
00000000
10010000
00000000
10000000
00100000
00000000
01000000
,  // measure 53
00010000
00000000
01010000
00000000
01000000
00001000
00000000
00010000
,  // measure 54
00001000
00000000
00011000
00000000
00010000
00000100
00000000
00001000
,  // measure 55
00000100
00000000
00001100
00000000
00000100
00000010
00000000
00000001
,  // measure 56
00000100
00000000
00000110
00000000
00000010
00001000
00000000
00000100
,  // measure 57
00010000
00000000
00011000
00000000
00000000
00001000
00100000
00010000
,  // measure 58
10000000
01000000
00100000
00001000
00010000
00000000
00010000
00000000
,  // measure 59
00010000
00000000
00010000
00000000
00010000
00000100
00000001
00000000
,  // measure 60
00000001
00000100
00001000
00000000
00010000
00100000
10000000
00000000
,  // measure 61
10000000
00100000
00010000
00001000
00010000
00000000
00010000
00000100
,  // measure 62
00000010
00000001
00000100
00001000
00000100
00000001
00000100
00001000
,  // measure 63
00010000
01000000
10000000
00000000
00010000
01000000
10000000
00000000
,  // measure 64
10000000
01000000
00010000
00000000
00001000
00000010
00000001
00000000
,  // measure 65
00000001
00000010
00001000
00000000
00001001
00000000
00000001
00000000
,  // measure 66
00001000
00000100
00010000
00001000
00011000
00000000
00000000
00000000
;

//---------------dance-single - ----------------
#NOTES:
     dance-single:
     :
     Medium:
     6:
     0.403,0.443,0.135,0.040,0.012:
0000
0000
0000
0000
,
0000
0000
0000
0000
,
0000
0000
0000
0000
,
0000
0000
0000
0000
,
1000
0100
0000
0100
1000
0000
1000
0001
,
0000
0001
0010
0000
0010
0100
0000
0100
,
1000
0010
0000
0010
1000
0000
0001
0000
,
0010
0001
0000
0001
0010
0000
0001
0000
,
1001
0000
1000
0100
0010
0000
0010
0100
,
1000
0000
1000
0010
0100
0001
0000
0001
,
1000
0000
0001
0010
0100
0000
0100
0010
,
0001
0000
0001
0100
0010
1000
0001
1000
,
0001
0000
1000
0100
0001
0000
0001
0100
,
1000
0000
1000
0010
0001
1000
0001
0010
,
1000
1000
1000
1000
,
0001
1000
0001
1000
0001
1000
0001
1000
,
0100
0010
0100
0010
0100
0010
0100
0010
,
0001
0100
0010
1000
0001
0100
0010
1000
,
0001
1001
1000
0100
,
0010
0000
0001
0000
0100
0000
0010
1000
,
0001
0100
0010
1000
,
0100
0000
0001
0000
0100
0000
1000
0010
,
0100
0000
0001
0000
1000
0000
0000
1000
0000
0000
1000
0000
0000
0000
1000
0000
,
0000
0100
0000
0010
0000
0001
0000
0100
,
0000
0010
1000
0001
1000
0000
1000
0000
,
1100
0101
0001
0100
,
0010
0000
1000
0000
0100
0000
0010
0001
,
0010
0000
0100
1000
0100
0000
0010
0000
,
0001
1000
0010
1000
,
0100
0000
0001
0000
0100
0000
1000
0000
0001
0000
0000
0001
0000
0000
0001
0000
,
0000
0001
0000
0100
0000
0010
0000
1000
,
0000
0100
0000
0010
0001
0000
0001
0000
,
0001
0000
0001
0000
0001
0100
0010
0100
,
0001
0100
0010
0100
0002
0000
0000
1003
,
0000
0000
1001
0000
1000
0010
0100
0000
,
0100
0010
1000
0000
2000
0000
0000
3100
,
0000
0000
1001
0000
1000
0010
0100
0000
,
0110
0000
0000
0000
0020
0000
0000
0031
,
0000
0011
0001
0010
,
1000
0000
0100
0000
0200
0000
0000
0301
,
0000
0101
0001
0100
,
1000
0000
0010
0000
0100
0001
0100
0000
,
0100
1000
0100
0000
0100
0001
0010
0100
,
1000
0001
1000
0100
0010
0001
1000
0000
,
0010
1000
0001
0000
1001
0000
0000
0000
,
1000
0001
0100
0001
0100
0010
1000
0000
,
1000
0100
0010
0000
0010
0100
1000
0001
,
1000
0100
0010
0000
0010
0001
0100
0010
,
1000
0000
0000
0001
0000
0000
1000
0000
0020
0000
0000
0000
0001
0000
0000
0000
,
0100
1030
1000
0001
,
1000
0001
1001
0000
1000
0100
0000
0100
,
1000
0000
0001
0000
0100
0001
0000
0001
,
0100
0000
0001
0000
1000
0001
0000
0001
,
0100
0000
0100
0000
0100
0001
0000
0001
,
1000
0000
1000
0000
1000
0010
0000
0010
,
0100
0000
0110
0000
0100
0001
0000
0001
,
0010
0000
0110
0000
0100
1000
0001
1000
,
0100
1000
0001
1000
0100
0000
0100
0000
,
0100
0000
0100
0000
0100
0010
0100
0000
,
0100
1000
0100
0000
0100
0001
0100
0000
,
0100
1000
0010
0100
0001
0000
0001
0010
,
0100
1000
0100
0010
0001
0000
1001
0000
,
0110
0000
1001
0000
0001
0100
0001
0000
,
0001
1000
0001
0000
0001
0010
0001
0000
,
1000
0010
1000
0000
1000
0001
1000
0000
,
1000
0100
1000
0000
1001
0000
0000
0000
;

//---------------dance-single - ----------------
#NOTES:
     dance-single:
     :
     Easy:
     3:
     0.215,0.313,0.111,0.040,0.000:
0000
0000
0000
0000
,
0000
0000
0000
0000
,
0000
0000
0000
0000
,
0000
0000
0000
0000
,
1000
0000
0000
0001
,
0000
0000
0100
0000
,
0010
0000
0010
0000
,
1000
0001
1000
0001
,
2001
0000
0000
0000
,
0000
0000
0000
0100
,
3200
0000
0000
0000
,
0000
0000
0000
0010
,
0320
0000
0000
0000
,
0032
0000
0000
0000
,
1003
1000
1000
1000
,
0001
1000
0001
1000
,
0100
0010
0100
0010
,
0001
0100
0010
1000
,
1001
1000
0000
0100
,
1000
0100
0010
0100
,
1000
0100
0000
0100
,
0010
0001
0010
0100
,
1000
0001
0000
0000
,
0001
0100
0001
0100
,
1000
0100
0001
1000
,
0001
1001
1000
0000
,
0000
0001
1000
0010
,
1000
0100
0001
0000
,
0000
0001
0100
1000
,
0001
1000
0010
0000
,
0000
0010
0100
0100
,
0001
0001
1000
1000
,
0100
0100
0010
0010
,
0001
0001
1001
0000
,
0000
0000
1000
0001
,
1000
0000
1001
0000
,
0000
0000
0001
1000
,
0010
0000
0110
0000
,
0000
0000
0100
0010
,
0100
0000
0110
0000
,
0000
0000
0100
0001
,
0010
0000
0001
0000
,
0001
0000
0001
0000
,
0000
0000
1000
0000
,
1000
0000
1000
0000
,
0000
0000
0100
0000
,
0100
0000
0100
0000
,
0000
0000
0010
0000
,
0001
1000
1020
0001
,
0100
1030
0000
1000
,
0100
1100
1000
0100
,
1000
0100
0010
0100
,
0010
0100
0010
0001
,
0010
0001
1000
0001
,
1000
0001
0100
0010
,
0100
0010
1000
0100
,
1000
0100
0010
0001
,
0010
0001
1001
1001
,
0110
0000
0110
0000
1000
0000
0000
0100
,
0000
0000
0010
0000
0000
0001
0000
0000
,
1000
0000
0000
0100
0000
0000
0000
0000
,
0010
0000
0001
0100
,
1000
0000
0100
0000
0001
0000
0000
0010
,
0000
0000
0100
0000
0000
1000
0000
0000
,
0001
0000
0000
0100
0000
0000
0000
0000
,
0010
1000
1001
0000
;

//---------------dance-double - ----------------
#NOTES:
     dance-double:
     :
     Easy:
     3:
     0.206,0.261,0.048,0.040,0.000: // measure 1
00000000
00000000
00000000
00000000
,  // measure 2
00000000
00000000
00000000
00000000
,  // measure 3
00000000
00000000
00000000
00000000
,  // measure 4
00000000
00000000
00000000
00000000
,  // measure 5
00010000
00000000
00000000
00001000
,  // measure 6
00000000
00000000
00100000
00000000
,  // measure 7
00010000
00000000
10000000
01000000
,  // measure 8
00010000
00000000
00001000
00000100
,  // measure 9
00000002
00000000
00000000
00000000
,  // measure 10
00000000
00000000
00000000
00000103
,  // measure 11
00002000
00000000
00000000
00000000
,  // measure 12
00000000
00000000
00000000
00013000
,  // measure 13
02000000
00000000
00000000
00000000
,  // measure 14
23000000
00000000
00000000
31000000
,  // measure 15
00010000
00001000
00000100
00001000
,  // measure 16
00010000
00100000
00010000
00001000
,  // measure 17
00000010
00001000
00010000
00100000
,  // measure 18
00010000
00001000
00000010
00001000
,  // measure 19
00011000
00010000
00000000
01000000
,  // measure 20
00000000
10000000
00000000
00100000
,  // measure 21
10000000
00010000
00000000
00100000
,  // measure 22
00000000
00001000
00000000
00010000
,  // measure 23
00000100
00001000
00000000
00000001
,  // measure 24
00000000
00000100
00000010
00001000
,  // measure 25
00000010
00000100
00000000
00000001
,  // measure 26
00000010
00001000
00010000
00000000
,  // measure 27
00001000
00000000
00100000
00000000
,  // measure 28
00010000
10000000
01000000
00000000
,  // measure 29
00010000
00000000
00001000
00000000
,  // measure 30
00010000
00000010
00001000
00000000
,  // measure 31
00001000
00000001
00000010
00000001
,  // measure 32
00001000
00000001
00000100
00000000
,  // measure 33
00001000
00000000
00010000
00001000
,  // measure 34
00010000
00001000
00011000
00000000
,  // measure 35
00000000
00000000
00010000
01000000
,  // measure 36
10000000
00000000
10010000
00000000
,  // measure 37
00000000
00000000
10000000
00100000
,  // measure 38
00010000
00000000
00011000
00000000
,  // measure 39
00000000
00000000
00001000
00000100
,  // measure 40
00000001
00000000
00001001
00000000
,  // measure 41
00000000
00000000
00000001
00000010
,  // measure 42
00001000
00000000
00001000
00010000
,  // measure 43
00001000
00000000
00100000
00010000
,  // measure 44
00100000
00000000
00010000
10000000
,  // measure 45
00010000
00000000
01000000
00001000
,  // measure 46
00010000
00000010
00001000
00000010
,  // measure 47
00001000
00000000
00001000
00000001
,  // measure 48
00001000
00000000
00000001
00001000
,  // measure 49
00000100
00001000
00000020
00000001
,  // measure 50
00000100
00001030
00000010
00001000
,  // measure 51
00000100
00010000
00001000
00000000
,  // measure 52
00010000
00001000
00100000
00000000
,  // measure 53
00010000
01000000
10000000
00000000
,  // measure 54
10000000
01000000
00010000
00000000
,  // measure 55
00010000
01000000
00001000
00000000
,  // measure 56
00001000
00010000
00000100
00000000
,  // measure 57
00000100
00000001
00000100
00000000
,  // measure 58
00000100
00001000
00000001
00000100
,  // measure 59
00001000
00000000
00010000
00000000
01000000
00000000
00000000
10000000
,  // measure 60
00000000
00000000
01000000
00000000
00000000
00010000
00000000
00000000
,  // measure 61
00001000
00000000
00000010
00000001
,  // measure 62
00000100
00000010
00010000
00001000
,  // measure 63
00100000
00000000
00010000
00000000
10000000
00000000
00000000
00100000
,  // measure 64
00000000
00000000
00010000
00000000
00000000
00001000
00000000
00000000
,  // measure 65
00000100
00000000
00000000
00000001
00000000
00000000
00000000
00000000
,  // measure 66
00000010
00001000
00011000
00000000
;

//---------------dance-single - ----------------
#NOTES:
     dance-single:
     :
     Beginner:
     1:
     0.115,0.183,0.016,0.000,0.000:
0000
0000
0000
0000
,
0000
0000
0000
0000
,
0000
0000
0000
0000
,
0000
0000
0000
0000
,
1000
0000
0000
0000
,
0000
0000
0000
0000
,
0001
0000
0000
0000
,
0001
0000
0000
0000
,
0100
0000
0000
0000
,
0000
0000
0000
0000
,
0001
0000
0000
0000
,
0000
0000
0000
0000
,
1000
0000
0000
0000
,
1000
0000
0000
0000
,
1000
1000
1000
1000
,
1000
0000
0001
0000
,
1000
0000
0001
0000
,
0010
0000
0100
0000
,
1001
1000
0000
0000
,
0000
0000
0000
1000
,
0000
0001
0000
0000
,
0000
0000
0000
0001
,
0000
0100
0000
0000
,
0000
0001
0000
0001
,
0000
0100
0000
0000
,
0010
0010
1000
0000
,
0000
0000
1000
0000
,
0000
0000
0100
0000
,
0000
0000
0010
0000
,
0000
0000
0001
0000
,
0001
0000
1000
0000
,
1000
0000
0100
0000
,
0000
0000
0010
0010
,
0010
0010
0010
0000
,
0000
0000
0001
0000
,
0001
0000
0001
0000
,
0000
0000
0001
0001
,
0001
0000
1000
0000
,
0000
0000
1000
0000
,
0100
0000
1000
0000
,
0000
0000
1000
1000
,
1000
0000
0100
0000
,
0100
0000
0100
0000
,
0000
0000
1000
0000
,
1000
0000
1000
0000
,
0000
0000
0001
0000
,
0001
0000
0001
0000
,
0000
0000
0010
0000
,
0010
0000
0010
0000
,
0010
0000
0001
0000
,
0001
0000
1000
0000
,
0000
1000
1000
0000
,
0000
0100
0100
0000
,
0000
0010
0010
0000
,
0000
0001
0001
0000
,
0000
0100
0100
0000
,
0000
0010
0010
0000
,
0000
1000
1000
1000
,
1000
1000
1000
0000
,
0001
0000
1000
0000
,
0001
0000
0100
0000
,
0000
0000
0000
0000
,
0000
0000
0010
0000
,
0100
0000
0010
0000
,
0100
0000
0001
0000
,
0000
0000
1001
0000
;
