#TITLE:rough percussionythm;
#SUBTITLE:;
#ARTIST:BEMANI Sound Team "setup VS 謎の勢力";
#TITLETRANSLIT:;
#SUBTITLETRANSLIT:;
#ARTISTTRANSLIT:;
#GENRE:HARD D&B;
#CREDIT:Graphics made by TonyAkita;
#MUSIC:rough percussionythm.ogg;
#BANNER:rough percussionythm.png;
#BACKGROUND:rough percussionythm-bg.png;
#JACKET:rough percussionythm-jacket.png;
#CDTITLE:;
#SAMPLESTART:67.381;
#SAMPLELENGTH:15.000;
#SELECTABLE:YES;
#OFFSET:1.135;
#BPMS:0.000=174.993;
#STOPS:;
#DISPLAYBPM:175.000;
#BGCHANGES:4.100=rough percussionythm.avi=1.000=0=0=1,,
99999.000=-nosongbg-=1.000=0=0=0=StretchNoLoop====
;
#FGCHANGES:;

//--------------- dance-single - forcednature ----------------
#NOTES:
     dance-single:
     forcednature:
     Beginner:
     4:
     0,0,0,0,0:
0000
0000
0000
0000
,
0000
0000
0000
0000
,
0000
0000
0000
0000
,
0000
0000
0000
0000
,
0000
0000
0000
0000
,
0000
0000
0000
0000
,
0001
0000
0000
0000
,
1000
0000
0000
0000
,
0010
0000
0010
0000
,
0010
0000
0000
0000
,
0100
0000
0000
0000
,
0001
0000
0000
0000
,
1000
0000
0000
0000
,
0100
0000
0000
0000
,
0010
0000
0000
0000
,
0001
0000
0000
0000
,
1000
0000
1000
0000
,
1000
0000
0000
0000
,
0001
0000
0000
0000
,
0100
0000
0000
0000
,
0010
0000
0000
0000
,
1000
0000
0000
0000
,
0100
0000
0000
0000
,
0010
0000
0000
0000
,
0001
0000
0001
0000
,
1000
0000
1000
0000
,
0001
0000
0000
0000
,
0100
0000
0000
0000
,
0010
0000
0000
0000
,
1000
0000
0000
0000
,
0100
0000
0000
0000
,
1000
0000
0000
0000
,
0001
0000
0001
0000
,
1000
0000
1000
0000
,
1001
0000
0000
0000
,
0010
0000
0010
0000
,
0010
0000
0000
0000
,
0200
0000
0300
0000
,
1000
0000
1000
0000
,
0001
0000
0000
0000
,
0001
0000
0001
0000
,
2000
0000
3000
0000
,
0010
0000
0010
0000
,
0100
0000
0000
0000
,
1000
0000
0001
0000
,
1000
0000
0000
0000
,
0010
0000
0000
0000
,
0100
0000
0000
0000
,
0001
0000
1000
0000
,
1001
0000
0000
0000
,
0001
0000
0000
0000
,
0100
0000
0000
0000
,
0010
0000
0000
0000
,
1000
0000
1000
0000
,
0100
0000
0000
0000
,
1000
0000
0000
0000
,
0001
0000
0001
0000
,
0001
0000
0000
0000
,
0010
0000
0000
0000
,
0001
0000
0000
0000
,
1000
0000
0000
0000
,
0010
0000
0010
0000
,
0100
0000
0000
0000
,
0001
0000
0000
0000
,
1000
0000
1000
0000
,
1000
0000
0001
0000
,
0100
0000
0000
0100
,
0000
0000
0100
0000
,
0010
0000
0000
0010
,
0000
0000
0010
0000
,
0001
0000
0000
1000
,
0000
0000
0001
0000
,
1000
0000
0000
0000
0000
0000
0000
0002
,
0000
0000
0000
0000
0000
0003
0000
0000
,
0100
0000
0100
0000
,
0001
0000
0001
0000
,
0100
0000
0100
0000
,
1000
0000
1000
0000
,
0010
0000
0001
0000
,
1000
0000
0010
0000
,
0010
0000
1000
0000
,
0001
0000
0010
0000
,
0010
0000
0001
0000
,
0100
0000
1000
0000
,
0010
0000
1000
0000
,
0100
0000
0001
0000
,
1000
0000
0100
0000
,
0001
0000
0010
0000
,
1000
0000
0010
0000
,
0001
0000
0100
0000
,
1001
0000
0000
0000
;

//--------------- dance-single - forcednature ----------------
#NOTES:
     dance-single:
     forcednature:
     Easy:
     7:
     0,0,0,0,0:
0000
0000
0000
0000
,
0000
0000
0000
0000
,
0000
0000
0000
0000
,
0000
0000
0000
0000
,
0000
0000
0000
0000
,
0000
0000
0000
0000
,
0001
0100
0001
1000
,
0010
1000
0001
0000
,
0100
0100
0010
0100
,
0001
0100
1000
0000
,
0100
0001
0010
0001
,
1000
0100
1000
0000
,
0010
1000
0001
0100
,
0001
1000
0010
0000
,
1000
0100
0010
0001
,
0010
0100
1000
0000
,
0001
0100
0001
0001
,
1000
0010
1000
0000
,
0002
0000
0100
0003
,
2000
0000
0100
3000
,
0020
0000
0100
0030
,
2000
0000
0001
3000
,
0200
0000
0010
0300
,
0002
0000
1000
0003
,
0100
0100
0010
0100
,
0001
1000
0001
0000
,
2000
0010
0010
3000
,
0002
0010
0010
0003
,
2000
0100
0100
3000
,
0002
0100
0100
0003
,
0020
1000
1000
0030
,
0200
0001
0001
0300
,
1000
0010
0100
0001
,
0010
0100
1000
0000
,
1001
0100
0000
0100
,
0000
0010
1000
0001
,
0100
0010
0000
0010
,
1000
0001
0010
0100
,
0010
0001
0000
0001
,
0000
1000
0010
1000
,
0001
0100
0010
1000
,
0200
0000
0000
0300
,
0010
0001
0100
0001
,
0010
0001
0100
0000
,
0010
1000
0100
1000
,
0010
1000
0100
0000
,
0010
0000
0100
0000
,
0010
0000
0100
0000
,
1000
1000
0001
0000
,
2002
0000
3003
0000
,
0002
0100
0100
0103
,
2000
0100
0100
3100
,
0002
0010
0010
0013
,
2000
0010
0010
3010
,
0200
0010
0010
0310
,
0020
0100
0100
0130
,
1000
0001
0100
0001
,
1000
0001
0100
0000
,
0002
1000
0100
1003
,
2000
0001
0100
3001
,
0002
1000
0010
1003
,
2000
0001
0010
3001
,
0020
0100
1000
0130
,
0200
0010
0001
0310
,
1000
1000
0001
0001
,
0100
0001
1000
0000
,
0010
0000
0000
0100
0000
0000
0010
0000
,
0000
0100
0000
0000
0110
0000
0000
0000
,
0001
0000
0000
1000
0000
0000
0001
0000
,
0000
1000
0000
0000
1001
0000
0000
0000
,
0100
0000
0000
0010
0000
0000
0100
0000
,
0000
0010
0000
0000
0110
0000
0000
0000
,
0001
0000
0000
1000
0000
0000
0000
2002
,
0000
0000
0000
0000
0000
3003
0000
0000
,
1000
0010
1000
0001
,
0100
0001
1000
0010
,
1000
0001
0010
0100
,
1000
0001
0100
0010
,
1000
0100
0010
0001
,
0100
0001
1000
0010
,
1000
0001
0010
0100
,
1000
0001
0100
0000
,
0010
1000
0001
1000
,
0100
1000
0001
0010
,
0100
0010
0001
0100
,
0010
1000
0100
0010
,
0100
1000
0001
0100
,
0010
1000
0001
0010
,
0001
1000
0010
0100
,
0001
1000
0100
0100
,
1001
0000
0000
0000
;

//--------------- dance-single - forcednature ----------------
#NOTES:
     dance-single:
     forcednature:
     Medium:
     12:
     0,0,0,0,0:
0000
0000
0000
0000
,
0000
0000
0000
0000
,
0000
0000
0000
0000
,
0000
0000
0000
0000
,
0000
0000
0000
0000
,
0000
0000
0000
0000
,
1001
0000
0001
0000
0100
0100
0010
0000
,
1000
0000
0001
0010
0000
0100
1000
0000
,
1001
0000
1001
0000
0100
0010
1000
0000
,
0110
0000
0110
0000
0010
0001
1000
0000
,
1001
0000
1000
0000
0001
0001
0010
0000
,
0001
0000
1000
0100
0000
1000
0001
0000
,
0100
0000
0010
0000
1000
1000
0001
0000
,
0100
0000
0001
0010
0100
1000
0010
0000
,
1001
0000
0001
0000
0100
0100
0010
0000
,
1000
0000
0100
0010
0010
0001
1000
0000
,
0110
0000
0110
0000
1000
0100
0010
0000
,
1001
0000
1001
0000
1000
0001
0100
0000
,
0120
0000
0000
0000
1030
0001
0010
0002
,
0000
0000
0000
0000
0003
1000
0001
0100
,
0020
0000
0000
0000
0000
0130
0001
0010
,
0100
2000
0000
0000
3001
1000
0001
0100
,
0020
0000
0000
0000
0000
1030
0100
0020
,
0000
0000
0000
0000
0030
0001
1000
0000
,
0110
0000
0110
0000
0100
0001
0010
0000
,
1001
0000
1001
0000
1000
0001
0100
0000
,
0002
0000
0000
0000
0013
0100
1000
0002
,
0000
0000
0000
0000
0003
0100
0001
1000
,
0200
0000
0000
0000
0000
0310
0001
0100
,
0010
2000
0000
0000
3100
0010
0001
1000
,
0020
0000
0000
0000
0000
0130
0001
2000
,
0000
0000
0000
0000
3000
0100
1000
0000
,
0110
0000
0110
0000
0100
0001
0010
0000
,
1001
0000
0000
0000
1001
0000
0000
0000
1000
0001
1000
0001
1000
0000
0000
0000
,
1001
1000
0010
0001
,
0010
0010
1000
0000
0100
0000
0010
0001
,
0100
1000
0100
0001
,
0010
0000
0000
0000
0100
0000
0000
0000
1000
0000
0000
0000
0001
0010
0000
0000
,
0001
0000
0001
0000
0100
0010
1000
1000
,
0100
0000
0100
0000
0100
0000
0000
0000
0010
0000
0000
0000
0001
1000
0001
0000
,
1000
0000
0010
0100
0001
0000
0100
0000
,
2002
0000
0000
3003
,
1000
0000
0000
0001
0100
0000
0000
0000
0001
0000
0000
1000
0100
0000
0000
0000
,
0010
0000
0000
0001
1000
0000
0000
0000
0100
0000
0000
0010
0100
0000
0000
0000
,
1000
0000
0000
0001
0010
0000
0000
0000
0100
0000
0000
1000
0010
0000
0000
0000
,
0100
0000
0000
0001
1000
0000
0000
0000
0010
0000
0000
1000
0100
0000
0000
0000
,
0000
0000
0000
0000
0110
0000
0000
0000
1000
0000
0000
0010
0100
0000
0000
0000
,
0000
0000
0011
0010
0000
0100
1100
0000
,
1001
0000
1001
0000
0100
0010
1000
0000
,
2002
0000
0000
3003
,
0002
0000
1000
0000
0013
0001
0100
0020
,
1000
0000
0001
0000
0130
0001
1000
0100
,
0020
0000
0100
0000
0031
1000
0001
0100
,
0010
0000
0000
2000
0000
0000
0001
0000
0000
0000
0000
0000
3100
0000
0000
0010
0000
0000
0002
0000
0003
2000
0000
3000
,
0002
0000
0100
0000
0013
0001
1000
0020
,
0100
0000
0001
0000
0130
0010
1000
0000
,
0001
0010
0100
0000
1000
0100
0010
0000
,
0001
0000
1000
0000
0001
0000
0000
0000
0001
0000
1000
0000
0001
1000
0001
0000
,
0200
0000
1000
0000
0301
0010
0100
2000
,
0001
0000
0100
0000
3001
0010
0001
0100
,
0020
0000
0001
0000
1030
0001
0010
0100
,
1000
0000
0000
0020
0000
0000
0100
0000
0000
0000
0000
0000
1030
0000
0000
0001
0000
0000
2000
0000
3000
0200
0000
0300
,
0020
0000
1000
0000
0031
0001
0100
0020
,
0001
0000
1000
0000
0130
0010
1000
0000
,
0100
0000
0010
0000
0001
0000
0000
1000
0000
0000
0010
0000
0100
0000
0001
0000
,
1000
0000
0000
0100
0000
0000
0010
0000
0001
0000
0000
0000
1000
0000
0000
0000
,
1010
0000
0000
0011
0000
0000
0101
0000
,
0000
1100
0000
0000
0001
1000
0001
1000
,
1001
0000
0000
1100
0000
0000
0101
0000
,
0000
0000
0110
0000
0000
0000
0000
0000
0001
1000
0001
1000
0001
0000
0000
0000
,
1001
0000
0000
0110
0000
0000
1010
0000
,
0000
0011
0000
0000
1000
0001
1000
0001
,
1001
0000
0000
0110
0000
0000
0000
2002
,
0000
0000
0000
0000
0000
3003
0000
0000
,
0001
0000
0200
0000
0000
0300
0010
0000
2000
0000
0000
3000
0001
0000
0200
0000
,
0000
0300
0001
0000
1000
0000
0000
0000
0100
0000
0000
0000
0010
0001
0010
0000
,
0001
0000
2000
0000
0000
3000
0010
0000
0200
0000
0000
0300
0001
0000
2000
0000
,
0000
3000
0100
0000
0010
0000
0000
0000
0001
0000
0000
0000
1000
0001
1000
0000
,
0010
0000
2000
0000
0000
3000
0001
0000
0020
0000
0000
0030
0100
0000
2000
0000
,
0000
3000
0001
0000
0200
0000
0000
0300
0001
0000
0000
0000
1000
0001
1000
0000
,
1100
0000
1100
0000
0010
0001
0100
0000
,
0101
0000
0000
0000
0101
0000
0000
0000
0001
1000
0001
1000
0001
0000
0000
0000
,
0001
0000
2000
0000
0000
3000
0100
0000
2000
0000
0000
3000
0001
0000
0020
0000
,
0000
0030
0001
0000
1000
0000
0000
0000
0010
0000
0000
0000
0100
0010
0100
0000
,
0001
0000
0020
0000
0000
0030
0100
0000
0020
0000
0000
0030
0100
0000
2000
0000
,
0000
3000
0100
0000
0010
0000
0000
0000
0001
0000
0000
0000
0100
0010
0100
0000
,
0010
0000
2000
0000
0000
3000
0001
0000
2000
0000
0000
3000
0100
0000
2000
0000
,
0000
3000
0001
0000
0100
0000
0000
0000
0001
0000
0000
0000
0010
0001
0010
0000
,
0011
0000
0011
0000
1000
0010
0100
0000
,
1010
0000
0000
0000
1010
0000
0000
0000
1000
0001
1000
0001
1000
0000
0000
0000
,
1001
0000
0000
0000
;

//--------------- dance-single - forcednature ----------------
#NOTES:
     dance-single:
     forcednature:
     Hard:
     15:
     0,0,0,0,0:
0000
0000
0000
0000
,
0000
0000
0000
0000
,
0000
0000
0000
0000
,
0000
0000
0000
0000
,
0000
0000
0000
0000
,
0000
0000
0000
0000
,
1000
0000
0001
0100
0001
0000
0000
0000
0010
0000
0100
0000
1000
0000
0000
0000
,
0010
0100
0001
1000
0000
0100
1000
0100
,
0001
0000
0000
0100
0000
0000
0010
0000
0001
0000
0100
0000
0101
0000
0000
0000
,
1000
0000
0000
0010
0000
0000
1000
0000
0100
0000
0010
0000
0011
0000
0000
0000
,
0001
0000
1000
0010
1000
0000
0000
0000
0010
0000
0100
0000
1000
0000
0000
0000
,
0100
0001
0010
0100
0000
0001
0100
0000
,
0010
0000
0001
1000
0001
0000
0000
0000
0100
0000
0010
0000
1000
0000
0000
0000
,
0100
0001
0100
1000
0010
0100
0101
0000
,
1000
0000
0100
0010
0100
0000
0000
0000
0001
0000
0100
0000
0010
0000
0000
0000
,
0001
0100
1000
0100
0010
1000
0100
0010
,
0001
0000
0000
0100
0000
0000
0010
0000
1000
0000
0010
0000
0001
0000
0010
0000
,
0100
0000
0000
0001
0000
0000
1000
0000
0100
0000
0010
0000
0001
0000
0100
0000
,
0010
1000
0002
0000
0103
0001
0010
0100
,
1000
0010
0002
0000
1003
0100
0001
1000
,
0100
0010
2000
0000
3001
0100
0010
0001
,
1000
0010
0200
0000
0301
0010
1000
0010
,
0100
1000
0020
0000
0130
0001
1000
0100
,
0001
1000
0020
0000
0031
1000
0010
0100
,
0001
0000
0000
0010
0000
0000
0100
0000
1000
0000
0010
0000
0110
0000
0000
0000
,
1000
0000
0000
0001
0000
0000
0100
0000
0001
0000
1000
0000
1010
0000
0000
0000
,
1000
0000
0001
0000
0100
0000
0001
0000
1000
0001
1000
0000
0010
0000
0000
0000
,
0100
0000
0001
0000
0010
0000
0100
0000
1000
0010
1000
0000
0001
0000
0000
0000
,
0100
0000
0001
0000
0010
0000
0001
0000
1000
0100
1000
0000
0010
0000
0000
0000
,
0100
0000
1000
0000
0100
0000
0001
0000
0010
0001
0010
0000
0100
0000
0000
0000
,
1000
0000
0000
0010
1000
0000
0001
0000
0000
0100
0001
0000
0010
0000
0000
0000
,
0100
0000
0000
1000
0100
0000
0010
0000
0000
0001
0010
0000
0100
0000
1000
0000
,
0010
0000
0000
0100
0000
0000
0001
0000
0010
0000
0001
0000
0101
0000
0000
0000
,
0001
0000
0000
1000
0000
0000
0010
0000
1000
0000
0100
0000
0110
0000
0000
0000
,
1001
0000
0000
0000
0001
0000
0100
0001
0000
0000
0000
0000
1000
0000
0100
1000
,
0000
0000
0001
0000
0010
0000
0100
0000
1000
0000
0010
0000
0100
0001
0100
0000
,
0010
0000
0000
0000
1000
0000
0001
1000
0000
0000
0000
0000
0001
0000
1000
0001
,
0100
0001
0100
0000
0010
0000
1000
0000
0100
1000
0100
0000
1000
0001
0000
1000
,
0001
0000
0100
0000
1000
0000
0100
0000
0010
0000
0100
0000
0001
0100
0001
0000
,
0010
0000
0100
0000
0100
0000
1000
0000
1000
0000
0010
1000
0010
0100
0001
0100
,
0001
0010
0001
0100
1000
0100
0010
1000
,
2001
0001
0001
0001
0001
0001
0001
3001
,
1000
0000
0000
0010
1000
0000
0001
0000
0100
0000
0000
0010
1000
0000
0100
0000
,
0010
0000
0000
0001
0100
0000
0001
0000
0010
0000
0000
0100
1000
0000
0001
0000
,
0100
0000
0000
0001
1000
0000
0010
0000
1000
0000
0000
0100
0010
0000
0100
0000
,
1000
0000
0000
0010
0100
0000
0001
0000
0100
0000
0000
0001
1000
0000
0100
0000
,
0000
0000
0000
0000
0010
0000
0001
0000
1000
0000
0000
0001
0100
0000
0010
0000
,
0000
0000
0000
0000
1000
0000
0001
0000
0000
0000
0100
0000
0001
1000
0001
0000
,
1000
0000
0000
0100
0000
0000
0010
0000
0001
0000
0100
0000
0110
0000
0000
0000
,
1001
0000
0000
0001
0000
0000
1000
0000
0010
0000
1000
0000
1100
0000
0000
0000
,
1000
0000
0100
0000
1000
0000
0010
0000
0100
0001
0100
0000
1000
0000
0000
0000
,
0100
0000
0010
0000
1000
0000
0100
0000
0010
0001
0010
0000
0100
0000
0000
0000
,
1000
0000
0010
0000
0001
0000
1000
0000
0100
0010
0100
0000
0001
0000
0000
0000
,
1000
0000
0010
0000
1000
0000
0100
0000
0010
0001
0010
0000
0100
0010
0100
0000
,
1000
0000
0000
0010
0100
0000
0001
0000
0000
0010
0100
0000
1001
0000
0000
0000
,
0001
0000
0000
0100
0001
0000
1000
0000
0000
0100
1000
0000
1001
0000
0000
0000
,
0001
0100
0001
0000
1000
0000
0010
0000
1000
0100
1000
0000
0001
0010
0001
0000
,
1000
0001
1000
0000
0001
1000
0001
0000
1000
0100
1000
0000
0001
0010
0001
0000
,
1000
0000
0010
0000
0100
0000
0001
0000
0010
0100
0010
0000
1100
0000
0000
0000
,
1000
0000
0100
0000
0010
0000
0001
0000
0100
1000
0100
0000
0110
0000
0000
0000
,
0001
0000
1000
0000
0100
0000
0001
0000
0100
0010
0100
0000
1100
0000
0000
0000
,
1000
0000
0010
0000
0100
0000
0001
0000
0010
0001
0010
0000
0100
1000
0100
0000
,
0010
0000
0000
0001
0100
0000
1000
0000
0000
0100
0010
0000
1001
0000
0000
0000
,
0001
0000
0000
1000
0100
0000
0010
0000
0000
1000
0010
0000
0110
0000
0000
0000
,
0001
0000
0001
0000
0100
0000
0000
0100
0000
0000
0010
0000
1000
0000
1000
0000
,
0100
0000
0000
0100
0000
0000
0010
0000
0001
1000
0001
0000
1000
0100
1000
0000
,
0100
0000
0000
1000
0100
0000
0010
0000
0000
0001
0010
0000
0001
0000
0000
1000
,
0010
0000
0100
0000
0000
0001
0100
0000
0001
0000
1000
0000
0100
0010
0100
0000
,
1000
0000
0000
0001
1000
0000
0100
0000
0000
0010
0001
0000
0100
0000
0000
0001
,
0010
0000
0100
0000
0000
0010
0001
0000
1000
0001
1000
0001
1000
0000
0000
0000
,
0001
0000
0000
1000
0001
0000
0100
0000
0000
0010
0100
0000
0010
0000
0000
1000
,
0100
0000
0010
0000
0000
0001
1000
0000
0010
0000
0100
0000
0001
0100
0001
0000
,
0010
0000
0000
0100
1000
0000
0001
0000
0000
0100
0010
0000
1000
0000
0002
0000
,
0000
0000
0000
0000
0000
0000
0003
0000
0000
0000
0001
1000
0001
1000
0001
0000
,
0100
1000
0100
0010
0100
0001
0010
1000
,
0010
0000
0100
0000
1000
0000
0001
0100
0001
0000
1000
0100
1000
0000
1000
0000
,
1000
0001
0010
0100
1000
0010
0100
0001
,
0010
0000
0100
0000
1000
0000
0001
0100
0001
0000
1000
0010
1000
0000
1000
0000
,
1000
0100
0010
0001
1000
0010
0100
0001
,
0010
0000
1000
0000
0010
0000
0100
0010
0100
0000
1000
0001
1000
0000
0001
0000
,
1000
0000
0000
0010
0000
0000
0100
0000
0001
0000
0010
0000
0110
0000
0000
0000
,
0001
0000
0000
1000
0000
0000
0010
0000
0100
0000
0001
0000
0101
0000
0000
0000
,
0001
1000
0100
0010
0001
1000
0010
0001
,
0010
0000
0100
0000
1000
0000
0100
0010
0100
0000
0001
1000
0001
0000
0001
0000
,
0001
0010
1000
0010
0100
0001
0100
1000
,
0010
0000
0100
0000
0001
0100
0001
0000
1000
0010
1000
0000
0001
1000
0001
0000
,
0100
0010
1000
0100
0001
0100
1000
0010
,
0001
0000
0010
0000
0100
0000
0001
0010
0001
0000
1000
0010
1000
0000
0001
0000
,
1000
0000
0000
0100
0000
0000
1000
0000
0100
0000
0010
0000
1010
0000
0000
0000
,
0001
0000
0000
0010
0000
0000
1000
0000
0010
0000
0100
0000
1100
0000
0000
0000
,
1001
0000
0000
0000
;

//--------------- dance-single - forcednature ----------------
#NOTES:
     dance-single:
     forcednature:
     Challenge:
     18:
     0,0,0,0,0:
0000
0000
0000
0000
,
0000
0000
0000
0000
,
0000
0000
0000
0000
,
0000
0000
0000
0000
,
0000
0000
0000
0000
,
0000
0000
0000
0000
,
1001
0001
0100
0000
0010
1000
0100
0000
,
0010
0000
0001
0000
1000
0000
0001
0100
0001
0000
1000
0010
1000
0010
1000
0000
,
0100
0000
0000
1000
0010
0000
1000
0000
0001
0010
0001
0010
0001
0000
0000
0000
,
0100
0000
0000
0001
1000
0000
0100
0000
0010
0001
0010
0001
0010
0000
0000
0000
,
1001
1000
0100
0000
0010
0010
0100
0000
,
0010
0001
1000
0010
0000
0100
0110
0000
,
0001
1000
0100
0000
1000
1000
0010
0000
,
0100
0000
0001
0000
0010
0000
0100
1000
0100
0000
0010
0000
1001
0000
0000
0000
,
0011
0001
0100
0000
0010
0010
1000
0000
,
0100
0000
0010
0000
0001
0000
0100
0010
1000
0001
1000
0010
0100
0001
1000
0000
,
0100
0000
0000
0010
0001
0000
0100
0000
0001
1000
0001
1000
0001
0000
1000
0010
,
1000
0000
0000
0100
0010
0000
0001
1000
0100
1000
0001
0000
0100
0000
0010
0000
,
2000
0000
0000
0000
0100
0000
0000
0000
0001
0000
0000
0000
0000
0000
0000
0000
0010
3000
0000
0000
1010
0000
0000
0000
1200
0000
0000
0000
0000
0000
0000
0000
,
0001
0000
0000
0000
0000
0000
0000
0000
1000
0000
0000
0000
0000
0000
0000
0000
0001
0300
0000
0000
0101
0000
0000
0000
0110
0000
0000
0000
0010
0000
0000
0000
,
0002
0000
0000
0000
0100
0000
0000
0000
0010
0000
0000
0000
0000
0000
0000
0000
1000
0003
0000
0000
0011
0000
0000
0000
0101
0000
0000
0000
0100
0000
0000
0000
,
0010
0000
0000
0000
2000
0000
0000
0000
0100
0000
0000
0000
0000
0000
0000
0000
0010
3000
0000
0000
1010
0000
0000
0000
1100
0000
0000
0000
0100
0000
0000
0000
,
0020
0000
0000
0000
0001
0000
0000
0000
0100
0000
0000
0000
0000
0000
0000
0000
1000
0030
0000
0000
1010
0000
0000
0000
0012
0000
0000
0000
0000
0000
0000
0000
,
0100
0000
0000
0000
0000
0000
0000
0000
0010
0000
0000
0000
1000
0000
0000
0000
0000
0003
0000
0000
0010
0000
0001
0000
0010
0000
0001
0000
0010
0000
0000
0000
,
0100
0000
0000
1000
0001
0000
0100
0000
0001
0010
0001
0010
0001
0000
0000
0000
,
0100
0000
0000
0010
1000
0000
0100
0000
1000
0001
1000
0001
1000
0000
0100
0000
,
0010
0000
0001
1000
0010
0000
0100
0010
1000
0001
0010
0001
0100
0000
1000
0000
,
0100
0000
0001
0010
0100
0000
1000
0010
0100
0001
0010
0100
1000
0000
0010
0000
,
0001
0000
0010
0100
0001
0000
0010
0100
1000
0001
1000
0100
1000
0000
0001
0000
,
0100
0000
0010
1000
0100
0000
0010
0100
1000
0001
0100
0001
0010
0000
0100
0000
,
0010
0000
0000
1000
0010
0000
0100
0000
0000
1000
0001
0000
0100
0000
0010
0000
,
0001
0000
0000
0010
0100
0000
0001
0000
0000
0010
0100
1000
0001
1000
0001
0000
,
0010
0000
0000
0100
1000
0000
0010
0000
0100
0001
0100
0001
0100
0000
0000
0000
,
0010
0000
0000
1000
0100
0010
0100
0010
0001
0010
0001
0010
0100
1000
0100
1000
,
0001
0000
0000
0000
0001
0000
0100
0001
0000
0000
0000
0000
1000
0000
0100
1000
,
0000
0000
0010
0100
0010
0000
1000
0001
1000
0000
0100
0010
0100
1000
0001
0000
,
0100
0000
0000
0000
0001
0000
0100
0001
0000
0000
0000
0000
1000
0000
0100
1000
,
0100
0000
0000
0000
1000
0000
0000
0000
0100
0000
0000
0000
1000
0000
0000
0000
0000
0000
0000
0000
0000
0000
0000
0000
0001
0000
0000
0000
0000
0000
0000
0000
0000
0000
0000
0000
0100
0000
0000
0000
0000
0000
0000
0000
0000
0000
0000
0000
0010
0000
0000
0000
0000
0000
1000
0000
0000
0000
0000
0000
0001
0000
0000
0000
0000
0000
0010
0000
0000
0000
0000
0000
0002
0000
0000
0000
0000
0003
1000
0000
0000
0000
0000
0000
0000
0000
0000
0000
0000
0000
1000
0000
0000
0000
0000
0000
,
0010
0000
1000
0000
0100
0000
0001
0000
0100
0000
0010
0000
0001
1000
0001
1000
,
0100
0000
0000
0000
0000
0000
0000
0000
0000
0000
0000
0000
0000
0000
0000
0000
0000
0000
0000
0000
0000
0000
0000
0000
0010
0000
0000
0000
0000
0000
0000
0000
0000
0000
0000
0000
0001
0000
0000
0000
0000
0000
0000
0000
0000
0000
0000
0000
0100
0000
0000
0000
0000
0000
0000
0000
0000
0000
0000
0000
0010
0000
0000
0000
0000
0000
0000
0000
0000
0000
0000
0000
1000
0000
0000
0000
0000
0000
0000
0000
0000
0000
0000
0000
0100
0000
0000
0000
0000
0000
0000
0000
0000
0000
0000
0000
0010
0000
0000
0000
0000
0000
0000
0000
0000
0000
0000
0000
0001
0000
0000
0000
0000
0000
0000
0000
0000
0000
0000
0000
0100
0000
0000
0000
0000
0000
0000
0000
0000
0000
0000
0000
0010
0000
0000
0000
0000
0000
0000
0000
0000
0000
0000
0000
2000
0000
0000
0000
0000
0000
0000
0000
0000
0000
0000
0000
0001
0000
0000
0000
0000
0000
0000
3000
0000
0000
0000
0000
1000
0000
0000
0000
0000
0000
0000
0000
0000
0000
0000
0000
0001
0000
0000
0000
0000
0000
0000
0000
0000
0000
0000
0000
,
1000
0000
0001
0010
0001
0000
0100
0000
0010
1000
0010
1000
0010
0000
0100
0000
,
0001
1000
0001
1000
0001
1000
0001
1000
0001
1000
0001
1000
0001
1000
0001
1000
,
0100
0000
0000
0010
0011
0000
0002
0003
1000
0000
0000
0010
0110
0000
0200
0300
,
0001
0000
0000
1000
1001
0000
0002
0003
0100
0000
0000
0010
1010
0000
2000
3100
,
0010
0000
0000
0001
1001
0000
0002
0103
0010
0000
0000
1000
1010
0000
0002
0003
,
0010
0000
0000
0100
1100
0000
0020
0030
0001
0000
0000
0100
0101
0000
2000
3000
,
0001
0000
0000
0000
1001
0000
0002
0003
1000
0000
0000
0100
0110
0000
0002
0003
,
1000
0000
0000
0000
0101
0000
0002
0003
0000
0000
2000
3000
0010
1000
0010
0000
,
0100
0000
0000
0001
1001
0000
1000
0000
0001
0010
0100
1000
1001
0000
0000
0000
,
0201
0000
0000
0000
0000
0000
0000
0000
0000
0000
0000
0000
0000
0000
0000
0000
0000
0000
0000
0000
0000
0000
0000
0000
0000
0000
0000
0000
0000
0000
0000
0000
0000
0000
0000
0000
1000
0000
0000
0000
0000
0000
0000
0000
0000
0000
0000
0000
0000
0000
0000
0000
0000
0000
0000
0000
0000
0000
0000
0000
0000
0000
0000
0000
0000
0000
0000
0000
0000
0000
0000
0000
0010
0000
0000
0000
0000
0300
0000
0000
0000
0000
0000
0000
0000
0000
0000
0000
0000
0000
0000
0000
0000
0000
0000
0000
0100
0000
0000
0000
0000
0000
0000
0000
0000
0000
0000
0000
0000
0000
0000
0000
0000
0000
0000
0000
0000
0000
0000
0000
0001
0000
0000
0000
0000
0000
0000
0000
0000
0000
0000
0000
0000
0000
0000
0000
0000
0000
0000
0000
0000
0000
0000
0000
0010
0000
0000
0000
0000
0000
0000
0000
0000
0000
0000
0000
0000
0000
0000
0000
0000
0000
0000
0000
0000
0000
0000
0000
0000
0000
0000
0000
0000
0000
0000
0000
0000
0000
0000
0000
0000
0000
0000
0000
0000
0000
0000
0000
0000
0000
0000
0000
,
0100
0000
0010
0001
0100
0000
0010
1000
0001
1000
0100
0010
0001
0000
0100
0000
,
1000
0000
0100
0010
1000
0000
0100
0010
0100
1000
0010
0100
0001
0000
0010
0000
,
1000
0000
0010
0001
0100
0000
0010
1000
0001
0100
0010
1000
0100
0000
0010
0000
,
0001
0000
0000
0000
1000
0000
0010
0000
0100
0000
0000
0000
0001
0000
0000
0000
0101
0000
0000
0000
0101
0000
0000
0000
0001
1000
0000
0000
0001
1000
0000
0000
,
0001
0000
0010
0100
1000
0000
0001
1000
0000
0100
0010
0000
0001
0000
0100
0000
,
0010
0000
1000
0001
0010
0000
0001
0100
0000
0010
1000
0000
1001
0000
0000
0000
,
0001
1000
0100
0010
0001
0000
0100
0000
0010
1000
0001
1000
0100
0010
0001
0100
,
0010
1000
0100
0010
0001
1000
0001
0100
0010
1000
0010
0100
0001
0010
0100
1000
,
0001
0000
1000
0010
0100
0000
0001
0100
0010
1000
0001
0010
0001
0000
1000
0000
,
0010
0000
0100
0001
1000
0000
0100
0010
0100
1000
0001
0010
0001
0000
0100
0000
,
0010
0000
1000
0001
0010
0000
0100
1000
0010
0100
0001
1000
0001
0000
0010
0000
,
0001
0000
0000
0000
0100
0000
0010
0000
1000
0000
0000
0000
0001
0000
0000
0000
0011
0000
0000
0000
0011
0000
0000
0000
0010
0100
0000
0000
0010
0100
0000
0000
,
0010
0000
0001
0100
0010
0000
1000
0001
0000
1000
0010
0000
0100
0000
0001
0000
,
0010
0000
0001
1000
0010
0000
0100
0001
0000
1000
0100
0000
0110
0000
0000
0000
,
0010
0001
0010
0001
0200
0300
0010
2000
3000
0001
0020
0030
0100
1000
0100
1000
,
0020
0030
0100
0001
0100
0010
0100
0010
1000
0100
1000
0100
0010
0001
0010
0001
,
0011
0000
0001
1000
0010
0000
0110
0000
0100
0001
1000
0000
1100
0000
0100
0010
,
0001
0000
1001
0000
1000
0010
0100
0000
0101
0000
1010
0000
0001
1000
0100
0010
,
0011
0000
0001
0100
0010
0000
1010
0000
1000
0100
0010
0000
0110
0000
1000
0001
,
0100
0000
0101
0000
0001
1000
0010
0000
0100
0001
0100
1000
0100
0000
0000
0000
,
0101
0000
0001
1000
0100
0000
0110
0000
0010
0001
0100
0000
0110
0000
0010
1000
,
0100
0000
1100
0000
1000
0001
0010
0000
0110
0000
1001
0000
1000
0010
0100
0001
,
1001
0000
0001
0010
0100
0000
0110
0000
0010
0001
0100
0000
0110
0000
2002
0000
,
0000
0000
0000
0000
0000
0000
0000
0000
0000
0000
0000
0000
0000
0000
0000
0000
0000
0000
0000
0000
0000
0000
0000
0000
0000
3003
0000
0000
0000
0000
0001
0000
0000
1000
0000
0000
0001
0000
0000
1000
0000
0000
0001
0000
0000
1000
0000
0000
,
0002
0000
0000
0000
0100
0000
0000
0000
1000
0000
0000
0000
0020
0003
0000
0000
0100
0000
0000
0000
1000
0000
0000
0000
0002
0030
0000
0000
0100
0000
0000
0000
,
1000
0000
0000
0000
0010
0003
0000
0000
0001
0000
0000
0000
1000
0000
0000
0000
0100
0000
0000
0000
1000
0000
0010
0000
0100
0000
0001
0000
0010
0000
0001
0000
,
2000
0000
0000
0000
0100
0000
0000
0000
0010
0000
0000
0000
0002
3000
0000
0000
0100
0000
0000
0000
0010
0000
0000
0000
2000
0003
0000
0000
0100
0000
0000
0000
,
0010
0000
0000
0000
0001
3000
0000
0000
1000
0000
0000
0000
0010
0000
0100
0000
0010
0000
0000
0000
1000
0000
0001
0000
0010
0000
0100
0000
1000
0000
0001
0000
,
0200
0000
0000
0000
0010
0000
0000
0000
1000
0000
0000
0000
0002
0300
0000
0000
0010
0000
0000
0000
1000
0000
0000
0000
0200
0003
0000
0000
0010
0000
0000
0000
,
1000
0000
0000
0000
0001
0300
0000
0000
0100
0000
0000
0000
0010
0000
1000
0000
0100
0000
0000
0000
0010
0000
0001
0000
0010
0000
0001
0000
0010
0000
0000
0000
,
0100
0000
0000
1000
0001
0000
0100
0000
0010
1000
0010
1000
0010
0000
0000
0000
,
0100
0000
0000
0001
1000
0100
0010
0001
0100
0010
1000
0100
0010
0001
0100
0001
,
2000
0000
0000
0000
0010
0000
0000
0000
0001
0000
0000
0000
0200
3000
0000
0000
0010
0000
0000
0000
0001
0000
0000
0000
2000
0300
0000
0000
0010
0000
0000
0000
,
0001
0000
0000
0000
0100
3000
0000
0000
1000
0000
0000
0000
0010
0000
0000
0000
0100
0000
0000
0000
0001
0000
0010
0000
0100
0000
0010
0000
0001
0000
1000
0000
,
0002
0000
0000
0000
1000
0000
0000
0000
0010
0000
0000
0000
0200
0003
0000
0000
1000
0000
0000
0000
0010
0000
0000
0000
0002
0300
0000
0000
1000
0000
0000
0000
,
0010
0000
0000
0000
0100
0003
0000
0000
0001
0000
1000
0000
0001
0000
0010
0000
0100
0000
1000
0000
0100
0000
0010
0000
0001
0000
0100
0000
0010
0000
1000
0000
,
0020
0000
0000
0000
1000
0000
0000
0000
0001
0000
0000
0000
0200
0030
0000
0000
1000
0000
0000
0000
0001
0000
0000
0000
0020
0300
0000
0000
1000
0000
0000
0000
,
0001
0000
0000
0000
0100
0030
0000
0000
0010
0000
0000
0000
1000
0000
0000
0000
0001
0000
0000
0000
0010
0000
0100
0000
0010
0000
0001
0000
1000
0000
0001
0000
,
0100
0000
0000
0010
1000
0000
0100
0000
0010
0001
0010
0001
0010
0000
0100
1000
,
0010
0000
0000
0100
0001
0000
1000
0001
0100
0010
1000
0001
0010
0001
1000
0100
,
1000
0000
0000
0000
;

//--------------- dance-double - forcednature ----------------
#NOTES:
     dance-double:
     forcednature:
     Easy:
     7:
     0,0,0,0,0:
00000000
00000000
00000000
00000000
,
00000000
00000000
00000000
00000000
,
00000000
00000000
00000000
00000000
,
00000000
00000000
00000000
00000000
,
00000000
00000000
00000000
00000000
,
00000000
00000000
00000000
00000000
,
00001000
00010000
00000100
00010000
,
00001000
00100000
00001000
00000000
,
00010000
00000000
00010000
00000000
,
00001000
00000000
00001000
00000000
,
01000000
00010000
10000000
00100000
,
10000000
00010000
01000000
00000000
,
00001000
00010000
00000100
00001000
,
00000100
00010000
00001000
00000000
,
00000010
00000001
00000100
00000010
,
00000100
00000001
00000010
00000000
,
00000100
00000000
00010000
00000000
,
00001000
00000000
00100000
00000000
,
00020000
00000000
10000000
00030000
,
02000000
00000000
00001000
03000000
,
00000200
00000000
00010000
00000300
,
00002000
00000000
00000001
00003000
,
00000020
00000000
00010000
00000030
,
00002000
00000000
00000001
00003000
,
00000100
00000000
00010000
00000000
,
00001000
00000000
00100000
00000000
,
00020000
01000000
01030000
00000000
,
02000000
00001000
03001000
00000000
,
00002000
00010000
00013000
00000000
,
00020000
00000100
00030100
00000000
,
00000200
00000010
00000310
00000000
,
00000020
00000001
00000031
00000000
,
00000001
00000000
00000100
00000000
,
00000010
00000000
00001000
00000000
,
00001001
00000000
00000000
00000000
,
00001000
00000100
00010000
00001000
,
00100000
00000000
00000000
00000000
,
00010000
01000000
00001000
00010000
,
00000010
00000000
00000000
00000000
,
00010000
00001000
00100000
00010000
,
10000000
00000000
00010000
00000000
,
02000000
00000000
00000000
00000000
00000000
03000000
00000000
00000000
,
00100000
10000000
00100000
01000000
,
00010000
00100000
00010000
01000000
,
00001000
00010000
00000100
00010000
,
00001000
00010000
00000100
00001000
,
00000010
00000100
00000001
00000010
,
00000001
00001000
00000001
00000100
,
00000010
00000010
00001000
00000000
,
00022000
00000000
00000000
00033000
,
00020000
00000100
00030100
00010000
,
00000200
00001000
00001300
00000100
,
00002000
00000001
00003001
00001000
,
00000002
00000100
00000103
00000001
,
00000200
00000010
00000310
00000100
,
00000020
00010000
00010030
00000010
,
00010000
00001000
00100000
00010000
,
10000000
00010000
01000000
00100000
,
20000000
01000000
31000000
11000000
,
02000000
00100000
03100000
01100000
,
00200000
00001000
00301000
00101000
,
00002000
00010000
00013000
00011000
,
00020000
00000010
00030010
00010010
,
00000020
00001000
00001030
00001001
,
00001000
00000001
00000010
00000100
,
00001000
00000001
00000100
00000010
,
00001000
00000000
00000000
00000001
00000000
00000000
00001000
00000000
,
00000000
00000001
00000000
00000000
00000001
00000000
00000000
00000000
,
00000100
00000000
00000000
00000010
00000000
00000000
00000100
00000000
,
00000000
00000010
00000000
00000000
00000010
00000000
00000000
00000000
,
00010000
00000000
00000000
00001000
00000000
00000000
00010000
00000000
,
00000000
00001000
00000000
00000000
00001000
00000000
00000000
00000000
,
00100000
00000000
00000000
01000000
00000000
00000000
00000000
20020000
,
00000000
00000000
00000000
00000000
00000000
30030000
00000000
00000000
,
10000000
00010000
01000000
00010000
,
00100000
00001000
00100000
00010000
,
01000000
00001000
00010000
00000010
,
00010000
00001000
00100000
00001000
,
00010000
00000100
00001000
00000010
,
00001000
00000100
00000010
00000001
,
00000100
00000001
00000010
00000001
,
00001000
00000001
00000100
00000010
,
00011000
00001000
00100000
00001000
,
00010000
00001000
01000000
00010000
,
10000000
00100000
10000000
00010000
,
10000000
01000000
00100000
00010000
,
01000000
00001000
00010000
00000010
,
00010000
00001000
01000000
00001000
,
00010000
00000100
00010000
00001000
,
00100000
00001000
00010000
00001000
,
00011000
00000000
00000000
00000000
;

//--------------- dance-double - forcednature ----------------
#NOTES:
     dance-double:
     forcednature:
     Medium:
     12:
     0,0,0,0,0:
00000000
00000000
00000000
00000000
,
00000000
00000000
00000000
00000000
,
00000000
00000000
00000000
00000000
,
00000000
00000000
00000000
00000000
,
00000000
00000000
00000000
00000000
,
00000000
00000000
00000000
00000000
,
00001000
00010000
00000100
00001000
,
00000001
00000000
00000100
00000010
00000000
00001000
00000001
00000000
,
00000010
00000000
00000010
00000000
00000100
00001000
00000010
00000000
,
00010000
00000000
00010000
00000000
00001000
00100000
00010000
00000000
,
10010000
10000000
00100000
01000000
,
00010000
00000000
00100000
01000000
00000000
10000000
00010000
00000000
,
01000000
00001000
00010000
00000100
,
00001000
00000000
00000001
00000100
00000000
00000010
00001000
00000000
,
00001001
00000001
00000010
00000100
,
00010000
00000000
00001000
00100000
00000000
00010000
10000000
00000000
,
00100000
00000000
01000000
00000000
00010000
00100000
00001000
00000000
,
00010000
00000000
00010000
00000000
00000010
00001000
00000001
00000000
,
00000200
00000000
00000000
00000000
00000301
00000100
00000010
00020000
,
00000000
00000000
00000000
00000000
00030000
00001000
00010000
01000000
,
20000000
00000000
00000000
00000000
00000000
30010000
10000000
00100000
,
01000000
00020000
00000000
00000000
10030000
00010000
00100000
00001000
,
00020000
00000000
00000000
00000000
00000000
00030100
00010000
00000020
,
00000000
00000000
00000000
00000000
00000030
00000100
00000001
00000000
,
00001000
00000000
00001000
00000000
00000100
00010000
00001000
00000000
,
00100000
00000000
00100000
00000000
01000000
10000000
00100000
00000000
,
02000000
00000000
00000000
00000000
03001000
00010000
00000100
00002000
,
00000000
00000000
00000000
00000000
00003000
00000001
00000100
00000010
,
00020000
00000000
00000000
00000000
00000000
00031000
00100000
01000000
,
10000000
00200000
00000000
00000000
01300000
00001000
00010000
00000100
,
00000020
00000000
00000000
00000000
00000000
00000031
00000100
00000020
,
00000000
00000000
00000000
00000000
00000030
00000100
00000001
00000000
,
00000010
00000000
00000010
00000000
00000100
00010000
00001000
00000000
,
01000000
00000000
01000000
00000000
00010000
00100000
01000000
00000000
,
10010000
00000000
00000000
00000000
00010000
00000000
00000000
00010000
01000000
00000000
00000000
00000000
10000000
00000000
00000000
10000000
,
01000000
00000000
00100000
00000000
00100000
00000000
10000000
00010000
,
01000000
00000000
00000000
00000000
00010000
00000000
00000000
00010000
00100000
00000000
00000000
00000000
00001000
00000000
00000000
00001000
,
00010000
00000000
00000000
00000000
00010000
00000000
00000000
00000000
00000100
00000000
00001000
00000000
00000010
00000100
00000000
00000000
,
00000001
00000000
00000001
00000000
00000010
00000100
00001000
00001000
,
00000010
00000000
00000010
00000000
00000100
00001000
00010000
00000000
,
01000000
01000000
01000000
00000000
00010000
00001000
00000100
00000000
,
00002002
00000000
00000000
00003003
,
00000001
00000000
00000000
00000100
00000000
00000000
00000001
00000000
00000010
00000000
00000000
00000000
00000110
00000000
00000000
00000000
,
00000100
00000000
00000000
00010000
00000000
00000000
00001000
00000000
00100000
00000000
00000000
00000000
10010000
00000000
00000000
00000000
,
00100000
00000000
00000000
10000000
00000000
00000000
00010000
00000000
01000000
00000000
00000000
00000000
01100000
00000000
00000000
00000000
,
00010000
00000000
00000000
10000000
00000000
00000000
00010000
00000000
01000000
00000000
00000000
00001000
00000000
00000000
00010000
00000000
,
00000000
00000000
00000000
00000000
00010000
00000000
00000100
00000000
00010000
00000000
00000000
00001000
00000000
00000000
00100000
00000000
,
00000000
00000000
00001000
00010000
00000000
00010000
00000010
00000000
,
00001000
00000000
00001000
00000000
00000001
00000100
00001000
00000000
,
00011000
00000000
00010000
00000000
01000000
10000000
00100000
00000000
,
02000000
00000000
00010000
00000000
03001000
00010000
00000100
00002000
,
00000010
00000000
00000100
00000000
00003001
00000010
00000100
00010000
,
00002000
00000000
00100000
00000000
01003000
00010000
10000000
00100000
,
01000000
00000000
00000000
00020000
00000000
00000000
10000000
00000000
00000000
00000000
00000000
00000000
00130000
00000000
00000000
00002000
00000000
00003000
00020000
00000000
00030000
00000200
00000000
00000300
,
00002000
00000000
00000001
00000000
00003010
00000100
00000001
00002000
,
00000100
00000000
00000001
00000000
00003100
00000010
00000001
00000000
,
00001000
00000001
00000100
00000000
00000010
00010000
00001000
00000000
,
00000010
00000001
00000100
00000000
00000010
00001000
00000001
00000000
,
00000200
00000000
00001000
00000000
00000301
00000010
00000100
00020000
,
00001000
00000000
01000000
00000000
00031000
00100000
00010000
01000000
,
00200000
00000000
00010000
00000000
10300000
00010000
01000000
00001000
,
00010000
00000000
00000000
00000020
00000000
00000000
00001000
00000000
00000000
00000000
00000000
00000000
00000130
00000000
00000000
00000002
00000000
00000003
00000020
00000000
00000030
00002000
00000000
00003000
,
00020000
00000000
01000000
00000000
00001000
00031000
00010000
00000020
,
00000100
00000000
00000001
00000000
00001030
00000010
00001000
00000000
,
00000100
00000000
00000000
00000000
00010000
00000000
00000000
00001000
00000000
00000000
01000000
00000000
00001000
00000000
00000000
00000000
,
00010000
00000000
00000000
00000100
00000000
00000000
00001000
00000000
00000001
00000000
00000000
00000000
00000100
00000000
00000000
00000000
,
00000110
00000000
00000000
00001100
00000000
00000000
00000101
00000000
,
00000000
00011000
00000000
00000000
00100000
00100000
00010000
00000000
,
01100000
00000000
00000000
11000000
00000000
00000000
01010000
00000000
,
00000000
00000000
10010000
00000000
00000000
00000000
00000000
00000000
00001000
00010000
00001000
00010000
00001000
00000000
00000000
00000000
,
00010100
00000000
00000000
00001001
00000000
00000000
00000110
00000000
,
00000000
00001100
00000000
00000000
00010000
01000000
00010000
00000000
,
00101000
00000000
00000000
00010100
00000000
00000000
00000000
00022000
,
00000000
00000000
00000000
00033000
,
00011000
00001000
00010000
00000100
00001000
00000000
00000001
00000000
,
00000100
00000010
00001000
00001000
00000100
00010000
00001000
00000000
,
01001000
01000000
00001000
00100000
00010000
00000000
01000000
00000000
,
00001000
00010000
00000100
00000100
00001000
00000001
00001000
00000000
,
00000101
00000001
00001000
00000100
00000010
00000000
00000001
00000000
,
00000100
00000010
00010000
00010000
00001000
01000000
00100000
00000000
,
10000000
00000000
10000000
00000000
00010000
00100000
01000000
00000000
,
00010000
00000000
00010000
00000000
00001000
00000100
00000001
00000000
,
00000010
00000100
00001000
00001000
00000001
00000100
00000110
00000000
,
00010000
00001000
00100000
00100000
00001000
01000000
00010000
00010000
,
10000000
01000000
00100000
00100000
01000000
10000000
10010000
00000000
,
01000000
00001000
00010000
00010000
00000100
00001000
00000001
00000001
,
00000100
00000010
00001000
00001000
00000100
00000010
00000011
00000000
,
00001000
00000010
00010000
00010000
00001000
00010000
00000100
00000100
,
00000010
00000000
00000010
00000000
00000001
00000100
00001000
00000000
,
00010000
00000000
00000000
00000000
00010000
00000000
00000000
00000000
01000000
00100000
01000000
00100000
01000000
00000000
00000000
00000000
,
10010000
00000000
00000000
00000000
;

//--------------- dance-double - forcednature ----------------
#NOTES:
     dance-double:
     forcednature:
     Hard:
     15:
     0,0,0,0,0:
00000000
00000000
00000000
00000000
,
00000000
00000000
00000000
00000000
,
00000000
00000000
00000000
00000000
,
00000000
00000000
00000000
00000000
,
00000000
00000000
00000000
00000000
,
00000000
00000000
00000000
00000000
,
00001000
00000000
00010000
00000000
00000100
00001000
00000001
00000000
,
00000100
00000000
00000010
00001000
00000001
00000100
00000001
00000000
,
00000010
00000000
00000000
00000100
00000000
00000000
00000010
00000000
00001000
00000000
00010000
00000000
00100000
00000000
00000000
00000000
,
01000000
00000000
00000000
00100000
00000000
00000000
01000000
00000000
00010000
00000000
10000000
00000000
01000000
00000000
00000000
00000000
,
00100000
00000000
00010000
01000000
00001000
00010000
00000100
00000000
,
00001000
00000000
00000001
00000010
00000000
00001000
00000010
00000000
,
00000100
00000000
00010000
00001000
01000000
00010000
10000000
00000000
,
00100000
00000000
00010000
00001000
00000000
00100000
00001000
00000000
,
00010000
00000000
00100000
10000000
01000000
00010000
00001000
00000000
,
00000100
00000000
00000001
00000010
00000000
00001000
00000010
00000000
,
00000001
00000000
00000000
00001000
00000000
00000000
00000001
00000000
00000010
00000000
00000100
00000000
00010000
00000000
00000000
00000000
,
00001000
00000000
00000000
00100000
00000000
00000000
00001000
00000000
00010000
00000000
01000000
00000000
10000000
00000000
00000000
00000000
,
00010000
01000000
00010000
00100000
01000000
10000000
00100000
00000000
,
00010000
00001000
00000100
00000010
00001000
00000100
00000010
00000000
,
00000001
00000100
00001000
00010000
00000100
00010000
01000000
00000000
,
00100000
00010000
01000000
10000000
01000000
00010000
00100000
00000000
,
00001000
00010000
00000010
00001000
00000100
00000010
00000001
00000000
,
00000010
00001000
00010000
00100000
00010000
00001000
00010000
00000000
,
01000000
00000000
00000000
10000000
00000000
00000000
01000000
00000000
00100000
00000000
00010000
00000000
00100000
00000000
00000000
00000000
,
00001000
00000000
00000000
00010000
00000000
00000000
00000010
00000000
00001000
00000000
00000100
00000000
00000010
00000000
00000000
00000000
,
00000001
00000100
00000001
00000010
00001000
00010000
00000010
00001000
,
00000100
00000001
00000100
00001000
00000010
00010000
00001000
01000000
,
00100000
00010000
00001000
00010000
01000000
10000000
00010000
01000000
,
00100000
10000000
01000000
00100000
00010000
01000000
10000000
01000000
,
00010000
00001000
00000010
00000001
00000010
00000100
00000001
00000010
,
00000100
00010000
00000100
00000010
00000001
00001000
00000010
00000100
,
00001000
00000000
00000000
00010000
00000000
00000000
01000000
00000000
00100000
00000000
00010000
00000000
01000000
00000000
00000000
00000000
,
00100000
00000000
00000000
10000000
00000000
00000000
00010000
00000000
01000000
00000000
00001000
00000000
00010000
00000000
00000000
00000000
,
00011000
00000000
00000000
00000000
00000100
00000000
00000000
00010000
00001000
00000000
00000000
00000000
01000000
00000000
00000000
00001000
,
00010000
00000000
00000100
00000000
00001000
00000000
00000001
00000000
00000100
00000000
00000010
00000000
00001000
00000001
00001000
00000000
,
00000010
00000000
00000000
00000000
00010000
00000000
00000000
00001000
00100000
00000000
00000000
00000000
00001000
00000000
00000000
00010000
,
00000010
00000000
00010000
00000000
00001000
00000000
00100000
00000000
00010000
00000000
01000000
00000000
00010000
10000000
00000000
00010000
,
10000000
01000000
00100000
01000000
10000000
01000000
00100000
00000000
,
00001000
00010000
00000100
00000010
00000100
00001000
00000002
00000003
,
00000100
00000100
00001000
00001000
00000100
00000100
00000010
00001000
,
00002002
00000000
00000000
00003003
,
00000001
00000000
00000000
00000100
00000000
00000000
00002000
00000000
00103000
00000000
00000000
01000000
00000000
00000000
20000000
00000000
,
30010000
00000000
00000000
01000000
00000000
00000000
00002000
00000000
00003100
00000000
00000000
00000010
00000000
00000000
00020000
00000000
,
00030100
00000000
00000000
00000010
00000000
00000000
00000002
00000000
00000013
00000000
00000000
00001000
00000000
00000000
00200000
00000000
,
00301000
00000000
00000000
00000100
00000000
00000000
00020000
00000000
01030000
00000000
00000000
00001000
00000000
00000000
00200000
00000000
,
01300000
00000000
00000000
00000000
10000000
00000000
00020000
00000000
01030000
00000000
00000000
00001000
00000000
00000000
00000200
00000000
,
00000310
00000000
00001000
00000200
00000300
00000200
00000310
00000000
,
00000001
00000000
00000000
00000100
00000000
00000000
00000010
00000000
00001000
00000000
00000100
00000000
00010000
00000000
00000000
00000000
,
00021000
00000000
00000000
00001000
00000000
00000000
01000000
00000000
00031000
00000000
00100000
00000000
01000000
00000000
00000000
00000000
,
10000000
00100000
00010000
00100000
00001000
00010000
00000100
00001000
,
00010000
00000100
00001000
00000001
00000010
00001000
00010000
00000010
,
00000100
00000001
00001000
00000100
00000010
00000001
00000100
00001000
,
00010000
00000000
00100000
00000000
00010000
00000000
00001000
00000000
00010000
00000000
01000000
00000000
10000000
00010000
10000000
00000000
,
01000000
00100000
00001000
00010000
00000010
00001000
00000100
00000010
,
00001000
00010000
01000000
00100000
10000000
00100000
00010000
00000000
,
01000000
00010000
01000000
00000000
00001000
00000000
00010000
00000000
00000100
00000000
00010000
00000000
00001000
00000000
00000000
00000000
,
00000010
00000000
00000001
00000000
00000100
00000000
00000010
00000000
00001000
00000000
00000001
00000000
00000100
00000010
00000100
00000000
,
00000001
00000010
00001000
00010000
01000000
00010000
00001000
00000100
,
00010000
00000100
00000010
00001000
00000100
00010000
01000000
00010000
,
00001000
00010000
00100000
10000000
01000000
00100000
10000000
00100000
,
00010000
00000000
00001000
00000000
00000100
00000000
00000001
00000000
00000100
00000000
00000010
00000000
00000001
00000100
00000001
00000000
,
00000010
00001000
00010000
00000100
00001000
00000001
00000100
00001000
,
00010000
00000100
00010000
01000000
00100000
00010000
01000000
00000000
,
00010000
00000000
00010000
00000000
00100000
00000000
00000000
00001000
00000000
00000000
00010000
00000000
00000100
00000000
00000100
00000000
,
00000010
00000000
00000000
00000001
00000000
00000000
00000100
00000000
00001000
00000000
00010000
00000000
01000000
00000000
10000000
00000000
,
00010000
00000000
00000000
00100000
00001000
00000000
00010000
00000000
00000000
00000100
00001000
00000000
00000001
00000000
00000000
00000010
,
00000100
00000000
00000010
00000000
00000000
00000001
00001000
00000000
00000100
00000000
00010000
00000000
00001000
00010000
00001000
00000000
,
01000000
00000000
00000000
00001000
00010000
00000000
00000100
00000000
00000000
00001000
00000001
00000000
00000100
00000000
00000000
00000001
,
00000100
00000000
00000010
00000000
00000000
00001000
00000010
00000000
00010000
00001000
00010000
00001000
00010000
00000000
00000000
00000000
,
00010000
00000000
00000000
00001000
00100000
00000000
01000000
00000000
00000000
10000000
00010000
00000000
00100000
00000000
00000000
00001000
,
00010000
00000000
00001000
00000000
00000000
00010000
00000100
00000000
00001000
00000000
00000001
00000000
00000100
00000001
00000100
00000000
,
00000001
00000000
00000000
00001000
00000100
00000000
00010000
00000000
00000000
00001000
00010000
00000000
00000010
00000000
00002000
00000000
,
00000000
00000000
00000000
00000000
00000000
00000200
00003300
00000000
,
00000100
00001000
00000001
00000100
00001000
00010000
00000100
00010000
,
01000000
00000000
00100000
00000000
00001000
00000000
00010000
00000000
00100000
00000000
10000000
00000000
01000000
00100000
01000000
00000000
,
10000000
00100000
00010000
00001000
00000010
00000100
00010000
00000010
,
00000100
00000000
00001000
00000000
00000001
00000000
00000010
00000000
00001000
00000000
00000001
00000000
00001000
00000100
00001000
00000000
,
00000010
00010000
00001000
00000100
00001000
00100000
00010000
01000000
,
00100000
10000000
01000000
00010000
00001000
01000000
00001000
00000010
,
00000100
00000000
00000000
00001000
00000000
00000000
00000001
00000000
00000100
00000000
00001000
00000000
00010000
00000000
00000000
00000000
,
00000010
00000000
00000000
00010000
00000000
00000000
00100000
00000000
00010000
00000000
00001000
00000000
00010000
00000000
00000000
00000000
,
01000000
10000000
00010000
01000000
00001000
00010000
00000100
00000010
,
00001000
00000001
00001000
00010000
00000100
00000010
00001000
00010000
,
01000000
00001000
00000100
00010000
00000010
00000100
00000001
00001000
,
00000100
00000000
00000010
00000000
00001000
00000000
00010000
00000000
00100000
00000000
01000000
00000000
00010000
10000000
00010000
00000000
,
01000000
10000000
01000000
00010000
00000100
00001000
00010000
00001000
,
00000010
00000100
00000001
00000100
00001000
00010000
00100000
00001000
,
00000100
00000000
00000000
00000001
00000000
00000000
00000010
00000000
00001000
00000000
00010000
00000000
01000000
00000000
00000000
00000000
,
10000000
00000000
00000000
00100000
00000000
00000000
00010000
00000000
00001000
00000000
00000100
00000000
00000001
00000000
00000000
00000000
,
00000011
00000000
00000000
00000000
;

//--------------- dance-double - forcednature ----------------
#NOTES:
     dance-double:
     forcednature:
     Challenge:
     18:
     0,0,0,0,0:
00000000
00000000
00000000
00000000
,
00000000
00000000
00000000
00000000
,
00000000
00000000
00000000
00000000
,
00000000
00000000
00000000
00000000
,
00000000
00000000
00000000
00000000
,
00000000
00000000
00000000
00000000
,
00011000
00010000
00000100
00000000
00000010
00000010
00000001
00000000
,
00001000
00000000
00000100
00000000
00010000
00000000
00001000
00010000
00001000
00000000
01000000
00010000
01000000
00010000
01000000
00000000
,
00100000
00000000
00000000
10000000
00100000
00000000
10000000
00000000
00010000
00100000
00010000
00100000
00010000
00000000
00000000
00000000
,
01000000
00000000
00000000
00010000
01000000
00000000
00001000
00000000
00010000
00000010
00010000
00000010
00010000
00000000
00000000
00000000
,
00001100
00000100
00010000
00000000
00001000
00001000
01000000
00000000
,
00100000
10000000
01000000
00100000
00000000
00001000
00011000
00000000
,
00010000
00000100
00001000
00000000
00000001
00000001
00000100
00000000
,
00001000
00000000
00010000
00000000
00000100
00000000
00010000
00001000
00010000
00000000
00100000
00000000
10000000
00000000
00000000
00000000
,
00110000
00010000
01000000
00000000
00001000
00001000
00000100
00000000
,
00000010
00000000
00001000
00000000
00000100
00000000
00000010
00000001
00000010
00000100
00001000
00000001
00001000
00000001
00001000
00000000
,
00000100
00000000
00000000
00001000
00000100
00000000
00010000
00000000
00001000
01000000
00001000
01000000
00001000
00000000
01000000
00010000
,
01000000
00000000
00000000
00100000
10000000
00000000
01000000
00100000
00010000
10000000
01000000
00000000
10000000
00000000
00010000
00000000
,
00200000
00000000
00000000
00000000
01000000
00000000
00000000
00000000
00010000
00000000
00000000
00000000
00000000
00000000
00000000
00000000
00001000
00300000
00000000
00000000
00101000
00000000
00000000
00000000
00021000
00000000
00000000
00000000
00000000
00000000
00000000
00000000
,
00000100
00000000
00000000
00000000
00000000
00000000
00000000
00000000
01000000
00000000
00000000
00000000
00000000
00000000
00000000
00000000
00001000
00030000
00000000
00000000
00011000
00000000
00000000
00000000
00010010
00000000
00000000
00000000
00000010
00000000
00000000
00000000
,
00000200
00000000
00000000
00000000
00000001
00000000
00000000
00000000
00001000
00000000
00000000
00000000
00000000
00000000
00000000
00000000
00000010
00000300
00000000
00000000
00000110
00000000
00000000
00000000
00001010
00000000
00000000
00000000
00001000
00000000
00000000
00000000
,
00000100
00000000
00000000
00000000
00020000
00000000
00000000
00000000
00100000
00000000
00000000
00000000
00000000
00000000
00000000
00000000
00001000
00030000
00000000
00000000
00011000
00000000
00000000
00000000
01001000
00000000
00000000
00000000
01000000
00000000
00000000
00000000
,
00200000
00000000
00000000
00000000
00010000
00000000
00000000
00000000
01000000
00000000
00000000
00000000
00000000
00000000
00000000
00000000
10000000
00300000
00000000
00000000
10100000
00000000
00000000
00000000
02100000
00000000
00000000
00000000
00000000
00000000
00000000
00000000
,
10000000
00000000
00000000
00000000
00000000
00000000
00000000
00000000
00010000
00000000
00000000
00000000
00001000
00000000
00000000
00000000
00000000
03000000
00000000
00000000
01000000
00000000
00010000
00000000
01000000
00000000
00010000
00000000
01000000
00000000
00000000
00000000
,
00001000
00000000
00000000
00010000
00001000
00000000
00000010
00000000
00000001
00000100
00000001
00000100
00000001
00000000
00000000
00000000
,
00000010
00000000
00000000
00000100
00000010
00000000
00000001
00000000
00001000
00000100
00001000
00000100
00001000
00000000
00000010
00000000
,
00010000
00000000
00001000
00100000
00010000
00000000
01000000
00100000
10000000
01000000
00100000
00010000
01000000
00000000
00010000
00000000
,
00100000
00000000
00001000
00010000
00000010
00000000
00001000
00000010
00000100
00000001
00000100
00000010
00001000
00000000
00000001
00000000
,
00000100
00000000
00001000
00010000
00000100
00000000
00010000
00001000
00100000
00001000
00010000
00000010
00010000
00000000
00001000
00000000
,
00100000
00000000
01000000
10000000
00100000
00000000
01000000
00001000
00010000
00000100
00010000
00001000
00100000
00000000
01000000
00000000
,
00010000
00000000
00000000
00001000
00010000
00000000
00000100
00000000
00000000
00001000
00000001
00000000
00000100
00000000
00000010
00000000
,
00001000
00000000
00000000
00000100
00010000
00000000
00001000
00000000
00000000
01000000
00010000
10000000
00010000
10000000
00010000
00000000
,
00100000
00000000
00000000
01000000
00100000
00000000
00001000
00000000
00010000
00000010
00010000
00000010
00010000
00000000
00000000
00000000
,
00000100
00000000
00000000
00001000
00000100
00010000
00000100
00010000
00001000
00010000
00001000
00010000
00001000
00100000
00001000
00100000
,
00010000
00000000
00000000
00000000
00010000
00000000
01000000
00010000
00000000
00000000
00000000
00000000
00010000
00000000
01000000
00010000
,
00000000
00000000
10000000
01000000
10000000
00000000
00010000
00100000
00010000
00000000
01000000
00010000
01000000
00001000
00010000
00000000
,
00000100
00000000
00000000
00000000
00001000
00000000
00000001
00001000
00000000
00000000
00000000
00000000
00001000
00000000
00000001
00001000
,
00000001
00000000
00001000
00000000
00000001
00000000
00001000
00000000
00000000
00000000
00000000
00000000
00000001
00000000
00000000
00000000
00000000
00000000
00000100
00000000
00000000
00000000
00000000
00000000
00000010
00000000
00000000
00010000
00000000
00000000
00001000
00000000
00000000
01000000
00000000
00000000
00010000
00000000
00000000
00100000
00000000
00000000
00000000
00000000
00000000
00100000
00000000
00000000
,
01000000
00000000
10000000
00000000
00010000
00000000
01000000
00000000
00001000
00000000
00010000
00000000
00000100
00001000
00000100
00001000
,
00000100
00000000
00000000
00000000
00000000
00000000
00000000
00000000
00000000
00000000
00000000
00000000
00000000
00000000
00000000
00000000
00000000
00000000
00000000
00000000
00000000
00000000
00000000
00000000
00000010
00000000
00000000
00000000
00000000
00000000
00000000
00000000
00000000
00000000
00000000
00000000
00000001
00000000
00000000
00000000
00000000
00000000
00000000
00000000
00000000
00000000
00000000
00000000
00000010
00000000
00000000
00000000
00000000
00000000
00000000
00000000
00000000
00000000
00000000
00000000
00000100
00000000
00000000
00000000
00000000
00000000
00000000
00000000
00000000
00000000
00000000
00000000
00001000
00000000
00000000
00000000
00000000
00000000
00000000
00000000
00000000
00000000
00000000
00000000
00000100
00000000
00000000
00000000
00000000
00000000
00000000
00000000
00000000
00000000
00000000
00000000
00010000
00000000
00000000
00000000
00000000
00000000
00000000
00000000
00000000
00000000
00000000
00000000
00001000
00000000
00000000
00000000
00000000
00000000
00000000
00000000
00000000
00000000
00000000
00000000
00100000
00000000
00000000
00000000
00000000
00000000
00000000
00000000
00000000
00000000
00000000
00000000
00010000
00000000
00000000
00000000
00000000
00000000
00000000
00000000
00000000
00000000
00000000
00000000
00200000
00000000
00000000
00000000
00000000
00000000
00000000
00000000
00000000
00000000
00000000
00000000
00000000
00000000
00000000
00000000
00000000
00000000
00000000
00000000
00000000
00000000
00000000
00000000
00000000
00000000
00000000
00000000
00000000
00300000
00000000
00000000
00000000
00000000
00000000
00000000
00000000
00000000
00000000
00000000
00000000
00000000
00000000
00000000
00000000
00000000
00000000
00000000
,
01000000
00000000
10000000
00010000
10000000
00000000
01000000
00000000
00010000
00001000
00010000
00001000
00010000
00000000
00000010
00000000
,
00001000
00000001
00001000
00000001
00001000
00000001
00001000
00000001
00001000
00000001
00001000
00000001
00001000
00000001
00001000
00000001
,
00000100
00000000
00000000
00001000
00010000
00000000
00000100
00000000
00010000
00000000
00000000
00001000
00100000
00000000
01000000
00000000
,
00010000
00000000
00000000
00001000
01000000
00000000
00001000
00000000
00000100
00000000
00000000
00000010
00001000
00000000
00000100
00001000
,
00000100
00000000
00000000
00010000
00001000
00000000
00100000
00010000
00100000
00000000
00000000
01000000
00010000
00000000
00001000
00000000
,
00000100
00000000
00000000
00000010
00001000
00000000
00000100
00000000
00000010
00000000
00000000
00001000
00010000
00000000
00100000
00000000
,
00010000
00000000
00000000
00000000
00010000
00000000
00001000
00000000
01000000
00000000
00000000
00010000
00100000
00000000
01000000
00000000
,
00010000
00000000
00000000
00000000
00010000
00000000
00001000
00000000
00000000
00000000
00000010
00000000
00001000
00010000
00001000
00000000
,
00000100
00000000
00000000
00000010
00010000
00000000
00001000
00000000
00010000
00000100
00010000
00001000
00100000
00000000
00000000
00000000
,
01010000
00000000
00000000
01000000
00000000
00000000
00001000
00000000
00100000
00000000
00001000
00000000
00000100
00000000
00000000
00000000
,
00000010
00000000
00001000
00000001
00000100
00000000
00000010
00001000
00000001
00001000
00000100
00010000
00001000
00000000
00100000
00000000
,
00010000
00000000
01000000
00100000
10000000
00000000
01000000
10000000
00100000
10000000
00010000
01000000
00001000
00000000
00010000
00000000
,
00000100
00000000
00001000
00000100
00000010
00000000
00000100
00001000
00000001
00000100
00000010
00010000
00001000
00000000
00100000
00000000
,
00001000
00000000
00000000
00000000
00010000
00000000
00100000
00000000
01000000
00000000
00000000
00000000
00010000
00000000
00000000
00000000
10010000
00000000
00000000
00000000
10010000
00000000
00000000
00000000
00010000
01000000
00000000
00000000
00010000
01000000
00000000
00000000
,
00001000
00000000
00010000
00000100
00001000
00000000
00000001
00000100
00000000
00000010
00001000
00000000
00000100
00000000
00000010
00000000
,
00001000
00000000
00010000
00001000
00100000
00000000
00010000
01000000
00000000
00001000
00010000
00000000
00010100
00000000
00000000
00000000
,
00000001
00001000
00000010
00000100
00000001
00000000
00001000
00000000
00000010
00010000
00001000
00010000
00001000
00100000
00010000
00100000
,
01000000
10000000
00010000
10000000
00100000
01000000
00010000
01000000
00001000
00010000
00000100
00001000
00000100
00010000
00001000
00100000
,
00001000
00000000
00100000
00010000
10000000
00000000
00010000
01000000
00001000
00010000
00000100
00010000
00001000
00000000
00000010
00000000
,
00000001
00000000
00000100
00000010
00001000
00000000
00000001
00000010
00000100
00001000
00000100
00010000
00001000
00000000
00100000
00000000
,
00010000
00000000
01000000
00010000
00100000
00000000
00001000
00010000
00000100
00001000
00000010
00000100
00000001
00000000
00000100
00000000
,
00000010
00000000
00000000
00000000
00010000
00000000
00001000
00000000
00100000
00000000
00000000
00000000
00001000
00000000
00000000
00000000
00011000
00000000
00000000
00000000
00011000
00000000
00000000
00000000
00010000
00000100
00000000
00000000
00010000
00000100
00000000
00000000
,
00010000
00000000
00000010
00001000
00000001
00000000
00000010
00000100
00000000
00001000
00000100
00000000
00010000
00000000
00001000
00000000
,
01000000
00000000
00010000
00100000
01000000
00000000
10000000
00010000
00000000
01000000
00010000
00000000
00110000
00000000
00000000
00000000
,
00001000
00010000
00001000
00010000
00000200
00000300
00001000
00000002
00000003
00000100
00000020
00000030
00001000
00000001
00001000
00000001
,
00000020
00000030
00000100
00000010
00000100
00001000
00000100
00001000
00000100
00010000
00000100
00010000
00001000
01000000
00001000
01000000
,
00010000
00000000
01000000
00100000
10000000
00000000
01000000
00000000
00100000
00010000
01000000
00000000
00100000
00000000
00010000
00001000
,
00100000
00000000
00001000
00000000
00010000
00000010
00001000
00000000
00000100
00000000
00000010
00000000
00001000
00010000
00001000
00010000
,
00000100
00000000
00010000
00001000
00100000
00000000
00010000
00000000
01000000
00100000
10000000
00000000
00010000
00000000
01000000
00001000
,
00010000
00000000
00100000
00000000
00010000
00001000
00000100
00000000
00001000
00010000
00001000
00010000
00001000
00000000
00000000
00000000
,
01000000
00000000
00001000
00010000
00000010
00000000
00010000
00000000
00001000
00100000
00010000
00000000
10000000
00000000
01000000
00010000
,
00001000
00000000
00010000
00000000
00000010
00001000
00000100
00000000
00000010
00000000
00000001
00000000
00000100
00000010
00000100
00000010
,
00000100
00000000
00000001
00000100
00000010
00000000
00001000
00000000
00000100
00010000
00001000
00000000
01000000
00000000
00002000
00000000
,
00000000
00000000
00000000
00000000
00000000
00000000
00000000
00000000
00000000
00000000
00013000
00001000
00010000
00001000
00010000
00001000
,
00020000
00000000
00000000
00000000
00000100
00000000
00000000
00000000
00001000
00000000
00000000
00000000
00000020
00030000
00000000
00000000
00000100
00000000
00000000
00000000
00001000
00000000
00000000
00000000
00020000
00000030
00000000
00000000
00000100
00000000
00000000
00000000
,
00001000
00000000
00000000
00000000
00000010
00030000
00000000
00000000
00010000
00000000
00000000
00000000
00001000
00000000
00000000
00000000
01000000
00000000
00000000
00000000
00100000
00000000
01000000
00000000
00010000
00000000
01000000
00000000
00001000
00000000
00010000
00000000
,
00002000
00000000
00000000
00000000
00010000
00000000
00000000
00000000
00100000
00000000
00000000
00000000
02000000
00003000
00000000
00000000
00010000
00000000
00000000
00000000
00100000
00000000
00000000
00000000
00002000
03000000
00000000
00000000
00010000
00000000
00000000
00000000
,
00100000
00000000
00000000
00000000
01000000
00003000
00000000
00000000
00001000
00000000
00000000
00000000
00010000
00000000
00000100
00000000
00010000
00000000
00000000
00000000
00000010
00000000
00001000
00000000
00000100
00000000
00000010
00000000
00000001
00000000
00000100
00000000
,
00000020
00000000
00000000
00000000
00001000
00000000
00000000
00000000
00000001
00000000
00000000
00000000
00000200
00000030
00000000
00000000
00001000
00000000
00000000
00000000
00000001
00000000
00000000
00000000
00000020
00000300
00000000
00000000
00001000
00000000
00000000
00000000
,
00000001
00000000
00000000
00000000
00000100
00000030
00000000
00000000
00000010
00000000
00000000
00000000
00001000
00000000
00000100
00000000
00010000
00000000
00000000
00000000
00001000
00000000
01000000
00000000
00001000
00000000
01000000
00000000
00001000
00000000
00000000
00000000
,
00010000
00000000
00000000
00001000
00010000
00000000
00100000
00000000
01000000
00010000
01000000
00010000
01000000
00000000
00000000
00000000
,
00001000
00000000
00000000
00010000
00001000
00100000
00001000
00010000
00000100
00001000
00000100
00000010
00000001
00001000
00000001
00000100
,
00000020
00000000
00000000
00000000
00000100
00000000
00000000
00000000
00000001
00000000
00000000
00000000
00002000
00000030
00000000
00000000
00000100
00000000
00000000
00000000
00000001
00000000
00000000
00000000
00000020
00003000
00000000
00000000
00000100
00000000
00000000
00000000
,
00000001
00000000
00000000
00000000
00001000
00000030
00000000
00000000
00000010
00000000
00000000
00000000
00010000
00000000
00000000
00000000
00001000
00000000
00000000
00000000
00100000
00000000
00010000
00000000
01000000
00000000
00001000
00000000
00010000
00000000
00001000
00000000
,
00200000
00000000
00000000
00000000
00010000
00000000
00000000
00000000
10000000
00000000
00000000
00000000
02000000
00300000
00000000
00000000
00010000
00000000
00000000
00000000
10000000
00000000
00000000
00000000
00200000
03000000
00000000
00000000
00010000
00000000
00000000
00000000
,
10000000
00000000
01300000
00000000
00100000
00010000
00100000
00001000
00010000
00001000
00010000
00000100
00010000
00000100
00001000
00000000
,
00000020
00000000
00000000
00000000
00001000
00000000
00000000
00000000
00010000
00000000
00000000
00000000
00000200
00000030
00000000
00000000
00001000
00000000
00000000
00000000
00010000
00000000
00000000
00000000
00000020
00000300
00000000
00000000
00001000
00000000
00000000
00000000
,
00010000
00000000
00000000
00000000
00000100
00000030
00000000
00000000
00000010
00000000
00000000
00000000
00001000
00000000
00000000
00000000
00000100
00000000
00000000
00000000
00010000
00000000
00001000
00000000
00100000
00000000
00010000
00000000
00100000
00000000
00001000
00000000
,
00010000
00000000
00000000
00001000
00010000
00000000
00100000
00000000
01000000
00010000
01000000
00010000
01000000
00000000
00010000
00100000
,
00001000
00000000
00000000
00010000
00001000
00000000
00010000
00000010
00010000
00001000
00010000
00001000
01000000
00001000
01000000
00010000
,
10000000
00000000
00000000
00000000
;
