#TITLE:You;
#SUBTITLE:;
#ARTIST:Tennyson;
#TITLETRANSLIT:;
#SUBTITLETRANSLIT:;
#ARTISTTRANSLIT:;
#GENRE:;
#CREDIT:;
#BANNER:You.png;
#BACKGROUND:You-bg.png;
#LYRICSPATH:;
#CDTITLE:;
#MUSIC:You.ogg;
#OFFSET:0.088407;
#SAMPLESTART:82.154884;
#SAMPLELENGTH:12.467529;
#SELECTABLE:YES;
#BPMS:0.000000=96.250000
,122.000000=48.125000
,127.000000=96.250000
;
#STOPS:
;
#BGCHANGES:;
#KEYSOUNDS:;
#ATTACKS:;

//---------------dance-single - ----------------
#NOTES:
     dance-single:
     :
     Hard:
     13:
     0.518176,0.535673,0.188747,0.073858,0.853466,442.000000,419.000000,23.000000,9.000000,0.000000,0.000000,0.518176,0.535673,0.188747,0.073858,0.853466,442.000000,419.000000,23.000000,9.000000,0.000000,0.000000:
0000
0000
0000
0000
,
0000
0000
0000
0000
,
0000
0000
0000
0000
,
0000
0000
0000
0000
,
0000
0000
0000
0000
,
0000
0000
0000
0000
0000
0000
1001
0000
0001
0000
0100
0001
0000
1000
0000
0000
,
0010
0000
1000
0000
0100
1000
0000
0001
0000
0010
0100
0000
1000
0000
0010
1000
,
0000
0001
0000
0000
0100
0000
0001
0000
0010
0001
0000
1000
0000
0010
0100
0000
,
0001
0000
0010
0001
0000
1000
0000
0000
0100
0000
1000
0000
0010
1000
0000
0001
,
0000
0010
0100
0000
1000
0000
0001
1000
0000
0010
0000
0000
0100
0000
0001
0000
,
0010
0001
0000
1000
0000
0010
0100
0000
0001
0000
0000
0001
0000
1000
0000
0000
,
0010
0000
1000
0000
0000
0001
0000
0200
0000
0301
0010
0000
0200
0000
1300
0010
,
0000
0100
0000
0000
0001
0000
0001
0000
0100
0010
0000
0010
0000
1000
0100
0000
,
0010
0000
0001
1000
0000
0100
0000
0000
0010
0000
0100
0000
1000
0001
0000
0100
,
0000
0010
0100
0000
0001
0000
1000
0010
0000
1000
0000
0001
0010
0000
0001
0000
,
1000
0100
0000
0100
0000
0010
0001
0000
1000
0000
0100
0010
0000
0010
0000
0100
,
1000
0000
1000
0000
0100
0010
0000
0001
0000
0100
0010
0000
1000
0000
0001
0100
,
0000
0100
0000
0001
0010
0000
0010
0000
0100
0100
1000
0010
0000
0100
0100
0001
,
0010
0000
0001
1000
0000
1000
0000
0001
0010
0000
0010
0000
0001
1000
0000
0010
,
0000
1000
0001
0000
0100
0000
0010
1000
0000
1000
0000
0010
0100
0000
0001
0000
,
0010
0010
0001
1000
0000
0010
0010
1000
0001
0000
1000
0100
1000
0010
0000
0100
,
0010
0100
0001
0000
0010
0001
0010
0100
0000
1000
0010
0000
1000
0000
0001
0100
,
0001
0010
0000
0100
0010
0100
1000
0000
0010
1000
0010
0100
0000
0001
0010
0000
,
0100
0000
0010
0001
1000
0100
0000
1000
0010
1000
0001
0000
0100
0001
1000
0010
,
0000
0100
0001
0000
0100
0000
0010
1000
0001
0100
0000
0001
0010
0001
1000
0000
,
0100
1000
0010
0100
0001
0010
0210
0000
1300
0000
0010
1000
0100
0010
0000
0100
,
0010
0001
0100
0000
0010
0100
0001
0020
0000
0130
1000
0000
0020
0000
0130
0001
,
0000
1000
0000
0001
0100
0010
1000
0000
0100
0010
0001
1000
0000
0010
0100
0000
,
0001
0000
0010
0001
0100
0010
0000
0100
0010
1000
0100
0000
0010
0100
0000
1000
,
0000
0010
0100
0000
0001
0000
1000
0001
1000
0010
0000
1000
0010
0100
0001
0000
,
0010
0100
0010
0001
0000
0010
0100
1000
0002
0000
0000
0000
0000
2003
0000
0000
,
0000
0000
3020
0000
0000
0000
0000
0230
0000
0000
0300
0000
1001
0000
1000
0100
,
0000
0011
0000
0001
1000
0010
0100
0000
0001
0100
0000
1010
0000
1000
0001
0010
,
0100
0000
0010
0001
0000
1100
0000
1000
0010
0000
0101
0000
0001
0010
0000
0110
,
0000
0100
1000
0001
0010
0000
0001
1000
0000
1010
0000
0010
1000
0001
0100
0000
,
0001
0010
0000
0011
0000
0001
1000
0100
0010
0000
0001
0010
0000
0110
0000
1000
,
0010
0000
0110
0000
0001
0010
0000
1100
0000
1000
0010
0100
0001
0000
0010
0001
,
0000
0011
0000
0001
0010
0100
1000
0000
0010
1000
0000
1010
0000
0010
1000
0001
,
0100
0000
0010
1000
0000
1001
0000
0001
0100
0010
1000
0000
0100
0010
0001
1000
,
0000
0001
0010
0100
1000
0000
0010
0100
0000
0101
0000
0001
0010
0000
1100
0000
,
1000
0100
0000
0011
0000
0010
0001
0000
1001
0000
0100
0010
0000
1001
0000
0010
,
0100
0000
1001
0000
0001
0100
0000
0100
0000
0010
1000
0000
1001
0000
1000
0100
,
0000
0001
0000
0100
1000
0000
0010
0000
1000
0001
0000
0001
0000
0010
0100
0000
,
1000
0000
0001
0100
0000
1000
0000
0100
0001
0000
1000
0000
0010
0100
0000
0010
,
0000
0100
0001
0000
1000
0000
0001
0010
0000
1000
0000
0010
0001
0000
0100
0000
,
0001
1000
0000
1000
0000
0010
0100
0000
0001
0000
1000
0010
0000
0001
0000
0010
,
1000
0000
0100
0000
0010
0001
0000
0001
0000
1000
0100
0000
0000
0000
0000
0000
;

//---------------dance-single - ----------------
#NOTES:
     dance-single:
     :
     Easy:
     4:
     0.139509,0.152434,0.041032,0.000000,0.209263,119.000000,114.000000,5.000000,0.000000,0.000000,0.000000,0.139509,0.152434,0.041032,0.000000,0.209263,119.000000,114.000000,5.000000,0.000000,0.000000,0.000000:
0000
0000
0000
0000
,
0000
0000
0000
0000
,
0000
0000
0000
0000
,
0000
0000
0000
0000
,
0000
0000
0000
0000
,
0000
0000
0000
0000
0000
0000
0000
0000
1000
0000
0000
0000
0000
0010
0000
0000
,
0000
0100
0000
0000
0000
0000
0001
0000
,
0000
0010
0000
0000
0000
0000
0100
0000
0000
0000
0000
0000
0000
0000
0000
0000
,
1000
0000
0000
0000
0000
0001
0000
0000
0000
0000
0100
0000
0000
0000
0000
0000
,
0000
0000
0000
0000
0001
0000
0000
0000
0000
1000
0000
0000
0000
0000
0100
0000
,
0000
0000
0000
0000
0000
0000
0000
0000
0010
0000
0000
0000
0000
0100
0000
0000
,
0000
0000
0010
0000
0000
0000
0000
0010
0000
0000
0000
0000
0010
0000
0000
0000
,
0000
0001
0000
0000
0000
0000
0100
0000
0000
0000
0000
0000
0000
0000
0000
0000
,
0010
0000
0000
0000
0000
1000
0000
0000
0000
0000
0100
0000
0000
0000
0000
0100
,
0000
0000
0000
0000
0100
0000
0000
0000
0000
0010
0000
0000
0000
0000
0001
0000
,
0000
0000
0000
0000
0000
0000
0000
0000
1000
0000
0000
0000
0000
1000
0000
0000
,
0000
0000
0001
0000
0000
0000
0000
0001
0000
0000
0000
0000
0010
0000
0000
0000
,
0000
0100
0000
0000
0000
0000
1000
0000
0000
0000
0000
1000
0000
0000
0000
0000
,
0010
0000
0000
0000
0000
0010
0000
0000
0000
0000
0100
0000
0000
0000
0000
0100
,
0000
0000
0000
0000
0001
0000
0000
0000
0000
1000
0000
0000
0000
0000
0010
0000
,
0000
0000
0000
0010
0000
0000
0000
0000
0100
0000
0000
0000
0000
0010
0000
0000
,
0000
0100
0000
0000
0000
0000
0001
0000
,
0000
1000
0000
0000
0000
0000
0001
0000
0000
0000
0000
0000
0000
0000
0000
0000
,
0010
0000
0000
0000
0000
0100
0000
0000
0000
0000
0010
0000
0000
0000
0000
0000
,
0000
0000
0000
0000
0100
0000
0000
0000
0000
1000
0000
0000
0000
0000
0001
0000
,
0000
0000
0000
0000
0000
0000
1001
0000
0000
0000
0000
0000
0000
1000
0000
0000
,
0000
0000
0010
0000
0000
0000
0000
0100
0000
0000
0000
0000
0100
0000
0000
0000
,
0000
0001
0000
0000
0000
0000
1000
0000
0000
0000
0000
0000
0000
0000
0000
0000
,
0001
0000
0000
0000
0000
1000
0000
0000
0000
0000
0010
0000
0000
0000
0000
0010
,
0000
0000
0000
0000
0010
0000
0000
0000
0000
0100
0000
0000
0000
0000
0001
0000
,
0000
0000
0000
0000
0000
0000
0000
0000
1000
0000
0000
0000
0000
0100
0000
0000
,
0000
0000
0010
0000
0000
0000
0000
0001
0000
0000
0000
0000
1001
0000
0000
0000
,
0000
1000
0000
0000
0000
0000
0100
0000
0000
0000
0000
0010
0000
0000
0000
0000
,
0001
0000
0000
0000
0000
0001
0000
0000
0000
0000
0001
0000
0000
0000
0000
0000
,
0000
0000
0000
0000
0001
0000
0000
0000
0000
0100
0000
0000
0000
0000
0010
0000
,
0000
0000
0000
1000
0000
0000
0000
0000
0100
0000
0000
0000
0000
0100
0000
0000
,
0000
0100
0000
0000
0000
0000
0010
0000
,
0000
0100
0000
0000
0000
0000
0010
0000
0000
0000
0000
0001
0000
0000
0000
0000
,
0100
0000
0000
0000
0000
0010
0000
0000
0000
0000
0100
0000
0000
0000
0000
0001
,
0000
0000
0000
0000
1000
0000
0000
0000
0000
0010
0000
0000
0000
0000
0100
0000
,
0000
0000
0000
0001
0000
0000
0000
0000
1000
0000
0000
0000
0000
1000
0000
0000
,
0000
1000
0000
0000
0000
0000
1000
0000
,
0000
1001
0000
0000
0000
0000
0000
0000
0000
0000
0000
0001
0000
0000
0000
0000
,
0010
0000
0000
0000
0000
0110
0000
0000
0000
0000
0000
0000
0000
0100
0000
0000
,
0000
0000
0000
0000
1000
0000
0000
0000
0000
1001
0000
0000
0000
0000
0000
0000
,
0000
0000
0000
0001
0000
0000
0000
0000
0100
0000
0000
0000
0000
0010
0000
0000
,
0000
0000
0100
0000
0000
0000
0000
0100
0000
0000
0000
0000
0000
0000
0000
0000
;

//---------------dance-single - ----------------
#NOTES:
     dance-single:
     :
     Medium:
     8:
     0.264950,0.267837,0.057445,0.073858,0.443146,226.000000,219.000000,7.000000,9.000000,0.000000,0.000000,0.264950,0.267837,0.057445,0.073858,0.443146,226.000000,219.000000,7.000000,9.000000,0.000000,0.000000:
0000
0000
0000
0000
,
0000
0000
0000
0000
,
0000
0000
0000
0000
,
0000
0000
0000
0000
,
0000
0000
0000
0000
,
0000
0000
0000
0000
0000
0000
0010
0000
1000
0000
0000
0001
0000
0001
0000
0000
,
0010
0000
0100
0000
0000
0000
0000
0010
0000
0000
0100
0000
1000
0000
0000
0010
,
0000
0010
0000
0000
0100
0000
0001
0000
0000
0000
0000
1000
0000
0000
0000
0000
,
0001
0000
0000
1000
0000
1000
0000
0000
0010
0000
0100
0000
0000
0000
0000
0010
,
0000
0000
0100
0000
0001
0000
0000
0010
0000
0010
0000
0000
0100
0000
1000
0000
,
0000
0000
0000
0010
0000
0000
0000
0000
1000
0000
0000
1000
0000
0001
0000
0000
,
0001
0000
1000
0000
0000
0000
0000
0010
0000
0000
1000
0000
0010
0000
0000
1000
,
0000
0001
0000
0000
0001
0000
1000
0000
0000
0000
0000
0100
0000
0000
0000
0000
,
0010
0000
0000
0010
0000
0100
0000
0000
0100
0000
0010
0000
0000
0000
0000
0001
,
0000
0000
0000
0000
1000
0000
0000
0000
0000
0010
0000
0000
0000
0000
1000
0000
,
0000
0000
0000
0100
0000
0000
0000
0000
0010
0000
0000
0001
0000
0100
0000
0000
,
0001
0000
1000
0000
0000
0001
0000
0100
0000
0000
0000
0000
0010
0000
0000
1000
,
0000
0100
0000
0000
1000
0000
0001
0000
0000
1000
0000
0100
0000
0000
0010
0000
,
0001
0000
0000
0010
0000
0001
0000
0000
0100
0000
0001
0000
0000
1000
0000
0001
,
0000
0000
0000
0000
1000
0000
0000
0100
0000
1000
0000
0000
0010
0000
1000
0000
,
0000
0001
0000
1000
0000
0000
0000
0000
0100
0000
0000
1000
0000
0100
0000
0000
,
0010
0000
0001
0000
0000
0000
0000
1000
0000
0000
0001
0000
0100
0000
0000
0001
,
0000
0100
0000
0000
0010
0000
1000
0000
0000
0000
0000
0001
0000
0000
0000
0000
,
0010
0000
0000
0001
0000
0010
0000
0000
0100
0000
1000
0000
0000
0000
0000
0010
,
0000
0000
1000
0000
0100
0000
0000
1000
0000
0010
0000
0000
0100
0000
0001
0000
,
0000
0000
0000
0000
0000
0000
1001
0000
1000
0000
0000
1000
0000
0010
0000
0000
,
0010
0000
0100
0000
0000
0000
0000
0101
0000
0000
0000
0000
1010
0000
0000
0000
,
0000
0010
0000
0000
0100
0000
0100
0000
0000
0000
0000
0001
0000
0000
0000
0000
,
0100
0000
0000
0100
0000
0010
0000
0000
1000
0000
0001
0000
0000
0000
0000
0010
,
0000
0000
0001
0000
1000
0000
0000
0100
0000
0100
0000
0000
0010
0000
0001
0000
,
0000
0000
0000
0100
0000
0000
0000
0000
0020
0000
0000
0000
0000
2030
0000
0000
,
0000
0000
3200
0000
0000
0000
0000
0320
0000
0000
0000
0000
0031
0000
0000
0001
,
0000
1000
0000
0000
1000
0000
0010
0000
0000
0010
0000
0100
0000
0000
0010
0000
,
0100
0000
0000
0100
0000
0001
0000
0000
0001
0000
1000
0000
0000
1000
0000
0010
,
0000
0000
1000
0000
0010
0000
0000
0010
0000
0100
0000
0000
0100
0000
0001
0000
,
0000
0010
0000
0001
0000
0000
0001
0000
1000
0000
0000
0100
0000
1000
0000
0000
,
1000
0000
0010
0000
0000
1000
0000
0001
0000
0000
0001
0000
0100
0000
0000
0100
,
0000
0010
0000
0000
0010
0000
1000
0000
0000
0100
0000
1000
0000
0000
0001
0000
,
1000
0000
0000
1000
0000
0100
0000
0000
0100
0000
0010
0000
0000
0000
0000
1001
,
0000
0000
0000
0000
0010
0000
0000
0001
0000
0100
0000
0000
0010
0000
0100
0000
,
0000
0010
0000
1000
0000
0000
0100
0000
0010
0000
0000
0000
0000
0011
0000
0000
,
0000
0000
2100
0000
0000
0000
0000
3001
0000
0000
0000
0000
1001
0000
0000
0001
,
0000
0020
0000
0000
0000
0000
0130
0000
0000
0100
0000
1000
0000
0000
0010
0000
,
1000
0000
0000
1000
0000
0002
0000
0000
0000
0000
0103
0000
0000
0100
0000
0010
,
0000
0000
0100
0000
0001
0000
0000
0001
0000
2000
0000
0000
0000
0000
3010
0000
,
0000
0010
0000
0100
0000
0000
0010
0000
1000
0000
0000
0001
0000
0200
0000
0000
,
0000
0000
0310
0000
0000
0010
0000
1000
0000
0000
0001
0000
0000
0000
0000
0000
;

//---------------dance-double - ----------------
#NOTES:
     dance-double:
     :
     Hard:
     13:
     0.504108,0.516542,0.188747,0.049238,0.808331,430.000000,407.000000,23.000000,6.000000,0.000000,0.000000,0.504108,0.516542,0.188747,0.049238,0.808331,430.000000,407.000000,23.000000,6.000000,0.000000,0.000000:
// measure 0
00000000
00000000
00000000
00000000
,  // measure 1
00000000
00000000
00000000
00000000
,  // measure 2
00000000
00000000
00000000
00000000
,  // measure 3
00000000
00000000
00000000
00000000
,  // measure 4
00000000
00000000
00000000
00000000
,  // measure 5
00000000
00000000
00000000
00000000
00000000
00000000
00011000
00000000
00010000
00000000
01000000
10000000
00000000
00100000
00000000
00000000
,  // measure 6
01000000
00000000
00010000
00000000
00100000
01000000
00000000
00100000
00000000
00001000
00010000
00000000
00000010
00000000
00001000
00000001
,  // measure 7
00000000
00000010
00000000
00000000
00000100
00000000
00001000
00000000
00000001
00000100
00000000
00000100
00000000
00000010
00010000
00000000
,  // measure 8
00001000
00000000
01000000
00010000
00000000
00100000
00000000
00000000
01000000
00000000
00100000
00000000
00001000
00010000
00000000
00000100
,  // measure 9
00000000
00010000
00001000
00000000
00000010
00000000
00000001
00001000
00000000
00000010
00000000
00000000
00001000
00000000
00000100
00000000
,  // measure 10
00000010
00000001
00000000
00000001
00000000
00000010
00000100
00000000
00001000
00000000
00000000
00002000
00000000
00003010
00000000
00000000
,  // measure 11
00000200
00000000
00000301
00000000
00001000
00000001
00000000
00000001
00000000
00000010
00001000
00000000
00010000
00000000
01000000
10000000
,  // measure 12
00000000
10000000
00000000
00100000
01000000
00000000
01000000
00000000
00001000
00100000
00000000
00100000
00000000
00010000
01000000
00000000
,  // measure 13
00100000
00000000
10000000
00010000
00000000
00100000
00000000
00000000
00001000
00000000
00010000
00000000
01000000
00010000
00000000
00001000
,  // measure 14
00000000
00000100
00000001
00000000
00000010
00000000
00000100
00010000
00000000
00001000
00000000
01000000
00010000
00000000
00100000
00000000
,  // measure 15
00001000
00010000
00000000
00000010
00000000
00001000
00000100
00000000
00010000
00000000
00000100
00000010
00000000
00000010
00000000
00000100
,  // measure 16
00001000
00000000
00001000
00000000
00000010
00000100
00000000
00000001
00000000
00000100
00000010
00000000
00010000
00000000
00000010
00000100
,  // measure 17
00000000
00000100
00000000
00001000
00010000
00000000
00010000
00000000
01000000
10000000
00100000
01000000
00000000
01000000
00100000
00010000
,  // measure 18
00001000
00000000
00100000
01000000
00000000
01000000
00000000
00100000
00010000
00000000
00010000
00000000
01000000
00100000
00000000
10000000
,  // measure 19
00000000
00100000
01000000
00000000
00001000
00000000
01000000
00100000
00000000
00100000
00000000
00010000
00001000
00000000
00001000
00000000
,  // measure 20
00000100
00000010
00001000
00000100
00000000
00000010
00000001
00000010
00000100
00000000
00010000
00001000
00010000
00001000
00000000
00010000
,  // measure 21
01000000
10000000
00100000
00000000
10000000
00100000
10000000
00100000
00000000
01000000
00010000
00000000
00100000
00000000
00001000
00010000
,  // measure 22
00001000
00010000
00000000
00001000
00000100
00000001
00000010
00000000
00000100
00000001
00000100
00000010
00000000
00000100
00010000
00000000
,  // measure 23
00001000
00000000
01000000
00100000
00010000
00001000
00000000
00010000
00000010
00010000
00001000
00000000
00010000
00000100
00000010
00000001
,  // measure 24
00000000
00000100
00001000
00000000
00010000
00000000
00000010
00000100
00001000
00010000
00000000
00001000
01000000
00001000
00010000
00000000
,  // measure 25
01000000
10000000
00100000
01000000
10000000
01000000
00001000
00000000
00011000
00000000
00010000
00001000
00010000
00000100
00000000
00000010
,  // measure 26
00000100
00000010
00000001
00000000
00000010
00000100
00000000
00010000
00000000
00001000
00000100
00000000
00000010
00000000
00010000
00001000
,  // measure 27
00000000
00010000
00000000
00000000
01000000
00000000
10000000
00000000
00010000
00100000
00000000
00100000
00000000
01000000
10000000
00000000
,  // measure 28
00100000
00000000
01000000
00010000
01000000
00001000
00000000
00010000
00000100
00010000
00001000
00000000
00000100
00000010
00000000
00001000
,  // measure 29
00000000
00000001
00000010
00000000
00000100
00000000
00010000
00001000
00010000
00001000
00000000
00100000
00010000
01000000
00100000
00000000
,  // measure 30
10000000
00010000
00000000
00010000
00000000
00100000
01000000
00000000
10000000
00000000
00000000
00000000
00000000
00010000
00000000
00000000
,  // measure 31
00000000
00000000
00000010
00000000
00000000
00000000
00000000
00001000
00000000
00000000
00000000
00000000
00010100
00000000
00010000
00001000
,  // measure 32
00000000
01010000
00000000
00010000
00100000
00000000
00010010
00000000
00000010
00001000
00000000
00110000
00000000
00100000
01000000
00000000
,  // measure 33
01100000
00000000
00100000
00010000
00000000
01000000
00000000
00100000
00010000
00000000
00001000
00000000
00000100
00000010
00000000
00001000
,  // measure 34
00000000
00000100
00000010
00000000
00010100
00000000
00000100
00001000
00000000
01010000
00000000
01000000
00001000
00000000
00010010
00000000
,  // measure 35
00000010
00001000
00000000
00110000
00000000
00100000
00001000
00000000
00010000
00000000
00001000
00000100
00000000
00001000
00000000
00010000
,  // measure 36
00100000
00000000
00100000
00000000
01000000
00010000
00000000
00100000
00000000
00001000
00010000
00000000
00011000
00000000
00001000
00000100
,  // measure 37
00000000
00000110
00000000
00000010
00001000
00000100
00010000
00000000
00001000
00100000
00000000
01100000
00000000
01000000
00100000
00001000
,  // measure 38
00010000
00000000
00001000
01000000
00000000
00001000
00000000
00010000
00100000
00010000
00001000
00000000
00001000
00000100
00001000
00010000
,  // measure 39
00000000
00001000
00010000
01000000
00100000
00000000
00001000
00010000
00000000
00001010
00000000
00010000
00001000
00000000
01010000
00000000
,  // measure 40
00010000
00100000
00000000
00110000
00000000
00100000
00001000
00000000
00011000
00000000
00010000
00000100
00010000
00000100
00000000
00100000
,  // measure 41
00001000
00100000
00001000
00000000
00010000
01000000
00000000
01000000
00000000
00100000
00010000
00000000
00000110
00000000
00000100
00001000
,  // measure 42
00000000
00000012
00000000
00000000
00001003
00000000
00001000
00000000
00000010
00000100
00000000
00000100
00000000
00001000
00010000
00000000
,  // measure 43
00001000
00000000
00010000
01000000
00000000
20100000
00000000
00000000
30100000
00000000
00100000
00000000
01000000
00001000
00000000
00001000
,  // measure 44
00000000
00010000
00000100
00000000
00001000
00000000
00000010
00000100
00000000
00000102
00000000
00000000
00000013
00000000
00000010
00000000
,  // measure 45
00000100
00010000
00000000
00010000
00000000
00001000
01000000
00000000
00100000
00000000
01000000
00010000
00000000
21000000
00000000
00000000
,  // measure 46
31000000
00000000
01000000
00000000
00100000
00010000
00000000
00010000
00000000
00001000
00000100
00000000
00000000
00000000
00000000
00000000
;
