#VERSION:0.83;
#TITLE:We No Speak Americano;
#SUBTITLE:;
#ARTIST:Yolanda Be Cool & DCUP;
#TITLETRANSLIT:;
#SUBTITLETRANSLIT:;
#ARTISTTRANSLIT:;
#GENRE:Electro Swing;
#CREDIT:;
#MUSIC:We No Speak Americano.ogg;
#BANNER:We No Speak Americano.png;
#BACKGROUND:We No Speak Americano-bg.png;
#CDTITLE:;
#SAMPLESTART:18.480;
#SAMPLELENGTH:11.880;
#SELECTABLE:YES;
#OFFSET:0.000;
#BPMS:0.000=125.000
,142.000=62.500
,150.000=125.000
,192.000=31.250
,200.000=125.000
;
#STOPS:205.000=2.640;
#WARPS:3.000=8.000,
46.500=8.000,
55.000=8.000,
94.500=8.000,
103.000=8.000,
151.000=8.000,
205.000=7.500,
213.000=8.000
;
#SPEEDS:0.000=1.000=0.000=0;
#SCROLLS:0.000=1.000;
#TICKCOUNTS:0.000=4;
#TIMESIGNATURES:0.000=4=4;
#LABELS:0.000=Song Start;
#COMBOS:0.000=1;
#DISPLAYBPM:125.000;
#ORIGIN:;
#PREVIEWVID:;
#JACKET:;
#CDIMAGE:;
#DISCIMAGE:;
#BGCHANGES:-4.000=bg.png=1.000=0=0=1=Default====,
1.000=bga.mp4=1.000=0=0=0=StretchNoLoop====,
99999.000=-nosongbg-=1.000=0=0=0=StretchNoLoop====
;
#FGCHANGES:;

//--------------- dance-double - Haley Halcyon ----------------
#NOTEDATA:;
#STEPSTYPE:dance-double;
#DESCRIPTION:Haley Halcyon;
#DIFFICULTY:Medium;
#METER:12;
#RADARVALUES:0,0,0,0,0,0,0,0,0;
#CHARTNAME:;
#CHARTSTYLE:;
#CREDIT:;
#NOTES:
00000000
00000000
00000000
M000000M
,
00010000
00001000
01000000
00000000
00100000
01000000
00100000
00010000
,
00001000
00000000
20000002
00000000
,
00010000
00001000
01000000
00000000
00100000
01000000
00100000
00010000
,
00001000
00010000
00000000
00010000
00001000
00000100
00000010
00000000
,
00001000
00000100
00001000
00000000
00000010
00000000
00010000
00000000
,
00001000
00000000
00000000
00001000
00100000
00010000
01000000
00000000
,
00100000
00000000
01000000
00010000
00100000
00000000
01000000
00100000
,
00020000
00000000
00030000
00000000
,
00100000
00000000
00001000
00010000
00000010
00000000
00001000
00000100
,
00010000
00000000
00000100
00010000
00001000
00000000
01000000
00001000
,
00010000
00000000
00011000
00000000
00000000
000M0000
00000000
00000000
,
00100000
00000000
00000010
00000000
01000000
00000000
00000100
00000000
00100000
00000000
00020010
00000100
00000000
00000000
00000000
00000000
,
00000000
00000000
00000000
0000M000
,
00100000
00000000
00000010
00000000
01000000
00000000
00000100
00000000
00100000
00000000
00000010
00000100
00002000
00000000
00000000
00000000
,
00000000
00000000
00000000
00000000
,
00100000
00000000
00000010
00000000
01000000
00000000
00000100
00000000
00100000
00000000
00000010
00000100
00000000
00000000
00000000
00000000
,
00000100
00000000
00000100
00000000
00000100
00000000
00000000
00000000
00000010
00000000
01000000
00000010
00000000
00000000
00000000
00000000
,
00000010
00000000
00100000
00000000
00000100
00000000
01000000
00000000
00000010
00000000
00100000
01000000
00000000
00000000
00000000
00000000
,
01000000
00000000
01000000
00000000
01000000
00000000
00000000
00000000
00100000
00000000
00000100
00100000
00000000
00000000
00000000
00000000
,
00100000
00000000
00000010
00000000
01000000
00000000
00000100
00000000
00100000
00000000
00000010
00000100
00000000
00000000
00000000
00000000
,
00000100
00000000
00000100
00000000
00000100
00000000
00000000
00000000
00000010
00000000
01000000
00000010
00000000
00000000
00000000
00000000
,
00000010
00000000
00100000
00000000
00000100
00000000
01000000
00000000
00000010
00000000
00100000
01000000
00000000
00000000
00033000
00000000
,
01100000
00000000
00101000
00000000
00011000
0M000000
00000000
00000000
,
00010000
00000000
00000100
00000000
00001000
00000000
00000010
00000000
00010000
00000000
00000100
00000010
00000000
00000000
00000000
00000000
,
02000010
00000000
00000000
00M00000
,
00010000
00000000
00000100
00000000
00001000
00000000
00000010
00000000
00010000
00000000
00000100
00000010
00200000
00000000
00000000
00000000
,
00000010
00000000
00000000
00000000
,
00010000
00000000
00000100
00000000
00001000
00000000
00000010
00000000
00010000
00000000
00000100
00000010
00000000
00000000
00000000
00000000
,
00000010
00000000
00000010
00000000
00000010
00000000
00000000
00000000
00000100
00000000
00010000
00001000
00000000
00000000
00000000
00000000
,
00010000
00000000
00000010
00000000
00001000
00000000
00000100
00000000
00010000
00000000
00000010
00000100
00000000
00000000
00000000
00000000
,
00000100
00000000
00000100
00000000
00000100
00000000
00000000
00000000
00000010
00000000
00010000
00001000
00000000
00000000
00000000
00000000
,
00010000
00000000
00000100
00000000
00001000
00000000
00000010
00000000
00010000
00000000
00000100
00000010
00000000
00000000
00000000
00000000
,
00000010
00000000
00000010
00000000
00000010
00000000
00000000
00000000
00000100
00000000
00010000
00001000
00000000
00000000
00000000
00000000
,
00010000
00000000
00000010
00000000
00001000
00000000
00000100
00000000
00010000
00000000
00000010
00000100
00000000
00000000
03300000
00000000
,
00000100
00000010
00010000
00001000
00011000
00000000
00001000
00010000
,
01000000
00100000
00010000
01000000
00100000
00010000
00001000
00000100
,
00000010
00001000
00000100
00100000
00000010
00000000
0M000M00
00000000
,
00001000
00000000
00100000
00000000
00000010
00000000
00010000
00000000
00001000
00000000
00100000
00010000
02000200
00000000
00000000
00000000
,
00000000
00000000
00000000
00000000
,
00001000
00000000
00100000
00000000
00000010
00000000
00010000
00000000
00001000
00000000
00100000
00010000
00000000
00000000
00000000
00000000
,
00100000
00000000
00100000
00000000
00100000
00000000
00000000
00000000
00000010
00000000
00010000
00001000
00000000
00000000
00000000
00000000
,
00010000
00000000
00000010
00000000
00100000
00000000
00001000
00000000
00010000
00000000
00000010
00001000
00000000
00000000
00000000
00000000
,
00000010
00000000
00000010
00000000
00000010
00000000
00000000
00000000
00100000
00000000
00001000
00010000
00000000
00000000
00000000
00000000
,
00001000
00000000
00100000
00000000
00000010
00000000
00010000
00000000
00001000
00000000
00100000
00010000
00000000
00000000
00000000
00000000
,
00100000
00000000
00100000
00000000
00100000
00000000
00000000
00000000
00000010
00000000
00010000
00001000
00000000
00000000
00000000
00000000
,
00010000
00000000
00000010
00000000
00100000
00000000
00001000
00000000
00010000
00000000
00000010
00001000
00000000
00000000
03000300
00000000
,
00000010
00001000
00000010
00001000
00000100
00010000
00001000
01000000
,
00200000
02300000
03010000
00200000
00302000
00023000
00030100
00000020
,
00000230
00000000
00001300
00000000
00002000
00000000
00003010
00000000
00000010
00010000
00000010
00000000
00010000
00001000
00100000
00000000
00200000
00000000
00310000
00000000
00020000
00000000
01030000
00000000
02000000
00000000
03001000
00000000
00002000
00000000
00013000
00000000
,
0M0110M0
00000000
00100000
00001000
00010000
00000000
00000010
00010000
,
00001000
00000000
02000200
00000000
03000300
01000000
00010000
01000000
,
00000100
00000000
01000000
00000000
00210000
00000100
00000000
00000000
00000000
00000000
00000000
00000000
00000000
00000000
00000000
00000000
,
00000000
00000000
00000000
00000000
01000000
00010000
01000000
00000100
,
01000000
00000000
00010000
00000100
00000020
00000000
00000000
00000000
00000000
00000000
00000000
00000000
00000000
00000000
00000000
00000000
,
00000000
00000000
00000000
00000000
01000000
00010000
01000000
00000100
,
00010000
00000000
00001000
00000100
00000000
00000000
00001000
00000000
01000000
00000000
00001000
00000000
00010000
00000000
00010000
00000000
,
00001000
01000000
00000100
00010000
00000100
00001000
00000100
01000000
,
00001000
00000000
00010000
01000000
00000000
00000000
00000000
00000000
00010000
00000000
01000000
00000000
00010000
00000000
00001000
00000000
,
00000100
00000000
00001000
00010000
00000000
00000000
00000000
00000000
00000100
00000000
00001000
00000000
00000100
00000000
01000000
00000000
,
00001000
00000000
00010000
01000000
00000000
00000000
00010000
00000000
00000100
00000000
00010000
00000000
00001000
00000000
00001000
00000000
,
00010000
00000100
01000000
00001000
01000000
00010000
01000000
00000100
,
00010000
00000000
00001000
00000100
00000000
00000000
00300030
00000000
00001000
00000000
00010000
00000000
00000100
00000000
01000000
00000000
,
00011000
00000000
00000000
00000000
00010000
00000100
00001000
00000010
,
00010000
00000000
00011000
00000000
00001000
00100000
00010000
01000000
,
00001000
00000000
00011000
00000000
00100000
01000000
00010000
00001000
,
00000100
00000110
00010010
00101000
,
00011000
30100103
00000000
00000000
;

//--------------- dance-double - Haley Halcyon ----------------
#NOTEDATA:;
#STEPSTYPE:dance-double;
#DESCRIPTION:Haley Halcyon;
#DIFFICULTY:Hard;
#METER:14;
#RADARVALUES:0,0,0,0,0;
#NOTES:
00000000
00000000
00000000
M000000M
,
00000000
00000000
00000000
00000000
,
00000000
00000000
20000002
00000000
,
00010000
00000000
00001000
00010000
00000100
00000000
00001000
00000000
00000010
00000000
00000100
00000000
00000010
00000000
00010000
00000000
,
00001000
00000000
00000000
00010000
00000100
01000000
00001000
00000000
,
00010000
00000000
00001000
00010000
00100000
00000000
01000000
00000000
00010000
00000000
00100000
00000000
01000000
00000000
00010000
00000000
,
00001000
00000000
00000000
00000000
00000000
00010000
00000000
00010000
00000010
00000000
00100000
00000000
00001000
00000000
00000000
00000000
,
00010000
00001000
00010000
00000100
00000010
00000100
00001000
00000010
,
00020000
00000000
00030000
00000000
,
00001000
01000000
00010000
00100000
01000000
00100000
00010000
01000000
,
00001000
00010000
00001000
00000100
00000010
00000100
00001000
00010000
,
01000000
00000000
01100000
00000000
00000000
0000M0M0
00000M00
00000000
,
00M00000
00000000
000M0000
0M000000
00M00000
00000000
0M000000
000M0000
00M00000
00000000
00000000
0M000000
00000000
00000000
00000000
00000000
,
00000000
00000000
00000000
00002020
00000000
00000000
00000M00
00000000
,
00000000
00000000
00000000
00000000
,
00000000
00000000
00000200
00000000
,
00100000
00000000
00010000
01000000
00100000
00000000
01000000
00010000
00100000
00000000
00000000
02000000
00000000
00000000
03000000
00000000
,
00100000
00000000
00100000
00000000
00100000
00000000
00000000
00000000
01000000
00000000
00100000
00010000
00000000
00000000
00000000
00000000
,
00100000
00000000
00010000
01000000
00100000
00000000
01000000
00010000
00100000
00000000
00000000
02000000
00000000
00000000
03000000
00000000
,
00100000
00000000
00100000
00000000
00100000
00000000
00000000
00000000
01000000
00000000
00100000
00010000
00000000
00000000
01000000
00200000
,
00000000
00300000
01000000
00010000
00100000
00000000
00010000
01000000
00100000
00000000
00000000
00020000
00000000
00000000
00030000
00000000
,
00100000
00000000
00100000
00000000
00100000
00000000
00000000
00000000
01000000
00000000
00010000
01000000
00000000
00000000
00000000
00000000
,
00100000
00000000
01000000
00010000
00100000
00000000
00010000
01000000
00100000
00000000
00000000
00020000
00000000
00000000
00003330
00000000
,
00100000
00000000
00000010
00000000
00031000
0M0M0000
00M00000
00000000
,
000000M0
00000000
0000M000
00000M00
000000M0
00000000
00000M00
0000M000
000000M0
00000000
00000000
00000M00
00000000
00000000
00000000
00000000
,
00000000
00000000
00000000
02020000
00000000
00000000
00M00000
00000000
,
00000000
00000000
00000000
00000000
,
00000000
00000000
00200000
00000000
,
00000010
00000000
00001000
00000100
00000010
00000000
00000100
00001000
00000010
00000000
00000000
00000200
00000000
00000000
00000300
00000000
,
00000010
00000000
00000010
00000000
00000010
00000000
00000000
00000000
00000100
00000000
00000010
00001000
00000000
00000000
00000000
00000000
,
00000010
00000000
00001000
00000100
00000010
00000000
00000100
00001000
00000010
00000000
00000000
00000200
00000000
00000000
00000300
00000000
,
00000010
00000000
00000010
00000000
00000010
00000000
00000000
00000000
00000100
00000000
00000010
00001000
00000000
00000000
00000100
00000020
,
00000000
00000030
00000100
00001000
00000010
00000000
00001000
00000100
00000010
00000000
00000000
00002000
00000000
00000000
00003000
00000000
,
00000010
00000000
00000010
00000000
00000010
00000000
00000000
00000000
00000100
00000000
00001000
00000100
00000000
00000000
00000000
00000000
,
00000010
00000000
00000100
00001000
00000010
00000000
00001000
00000100
00000010
00000000
00000000
00002000
00000000
00000000
03330000
00000000
,
00000010
00000000
00000000
00000000
00100000
00000000
00000000
00000000
0M0130M0
00000000
00000000
00000000
00010000
00000100
00000020
00000000
,
00000030
00000100
00001000
00000100
00010000
00001000
02000000
00000000
03000000
00100000
01000000
00100000
00010000
00001000
00000020
00000000
,
00000030
00000100
00001000
00000100
00000010
00001000
00010000
00100000
01000000
00000000
00000000
00000000
00M000M0
00000000
00000000
00000000
,
0000M000
00000000
0M000000
00000000
000M0000
00000000
0M000000
00000000
0000M000
00000000
000M0000
0M000000
00000000
00000000
00000000
00000000
,
00000000
00000000
00200020
00000000
,
00001000
00000000
01000000
00000000
00010000
00000000
01000000
00000000
00001000
00000000
00010000
02000000
00000000
00000000
03000000
00000000
,
01000000
00000000
01000000
00000000
01000000
00000000
00000000
00000000
00010000
00000000
00001000
00010000
00000000
00000000
00000000
00000000
,
00010000
00000000
00000100
00000000
00001000
00000000
00000100
00000000
00010000
00000000
00001000
00000200
00000000
00000000
00000300
00000000
,
00000100
00000000
00000100
00000000
00000100
00000000
00000000
00000000
00001000
00000000
00010000
00001000
00000000
00000000
00010000
00002000
,
00000000
00003000
01000000
00000000
00010000
00000000
01000000
00000000
00001000
00000000
00010000
02000000
00000000
00000000
03000000
00000000
,
01000000
00000000
01000000
00000000
01000000
00000000
00000000
00000000
00010000
00000000
00000100
00010000
00000000
00000000
00000000
00000000
,
00010000
00000000
00000100
00000000
00001000
00000000
00000100
00000000
00010000
00000000
00001000
00000200
00000000
00000000
00300330
00000000
,
00001000
00000100
00001000
00010000
00001000
00000100
00000010
00010000
,
00002000
00003000
00020000
00030000
01000000
00000000
00200000
00300000
00002000
00003000
00020000
00030000
00000010
00000000
00000200
00000300
,
00000020
00000000
00000000
00000000
00001030
00000000
00000000
00000000
00020000
00000000
00000000
00000000
00031000
00000000
00000000
00000000
00100000
00000000
00010000
00000000
01000000
00100000
00000000
01000000
00000000
00001000
00000000
00010000
00002000
00000000
00003000
00000000
00020000
00000000
00000100
00000000
00031000
00000000
00000000
00000000
00002000
00000000
01000000
00000000
00013000
00000000
00000000
00000000
00020000
00000000
00000010
00000000
00031000
00000000
00000000
00000000
00002000
00000000
00100000
00000000
00013000
00000000
00000000
00000000
,
00000000
00001000
00000000
00001000
00100000
00000000
01000000
00000000
00010000
00001000
00000000
00001000
01000000
00000000
00100000
00000000
,
00010000
00000000
00020020
00030030
0M0M0000
00M00000
00000000
0000M000
,
00000M00
00000000
000000M0
00000000
00000M00
00000000
0000M000
00000000
000000M0
00000M00
00000000
00000000
00000000
00000000
02020000
00000000
,
00000000
00M00000
00000000
00000000
,
00000000
00000000
00000000
00000000
,
00200000
00000000
00000000
00000000
00001000
00000100
00000010
00000100
,
00001000
00000000
00000010
00000200
00000000
00000000
00001300
00000000
00000100
00000000
00000010
00000000
00001000
00000100
00001000
00000100
,
00001000
00001000
00000100
00000100
00001000
00000100
00000010
00000100
,
00001000
00000000
00000010
00000200
00000000
00000000
00000300
00000000
00001000
00000000
00001000
00000000
00000100
00000000
00000100
00000000
,
00000020
00000000
00001030
00000100
00000000
00000000
00000010
00000200
00000000
00000000
00001300
00000000
00000010
00000000
00001000
00000000
,
00000100
00000000
00001000
00000020
00000000
00000000
00000130
00000000
00001000
00000000
00000100
00000000
00000010
00000100
00000010
00000100
,
00000010
00000010
00001000
00001000
00000100
00000010
00000100
00001000
,
00000100
00000000
00000010
00002000
00000000
00000000
03333000
00000000
00000010
00000000
00001000
00000000
00010000
00000000
00001000
00000000
,
00011000
00000000
00000000
00000000
00001000
00000000
00010000
00000000
00000100
00010000
00001000
00000000
00100000
00000000
00001000
02000000
,
00000000
00000000
03000000
00000000
00001000
00000000
00010000
00000000
00000010
00010000
00001000
00000000
01000000
00000000
00001000
00200000
,
00000000
00000000
00300000
00000000
00001000
00000000
00010000
00000000
00000100
00010000
00001000
00000000
00100000
00000000
00010000
00000000
,
01100000
00011000
00000110
00011000
,
01100000
30000113
00000000
00000000
;

//--------------- dance-double - Haley Halcyon ----------------
#NOTEDATA:;
#STEPSTYPE:dance-double;
#DESCRIPTION:Haley Halcyon;
#DIFFICULTY:Challenge;
#METER:16;
#RADARVALUES:0.68474,0.98647,0.369867,0.505737,0.898249,635,578,49,67,6,7,0,0,6,0.68474,0.98647,0.369867,0.505737,0.898249,635,578,49,67,6,7,0,0,6;
#BPMS:0.000=125.000
,53.000=500.000
,55.500=125.000
,58.750=375.000
,59.500=125.000
,66.750=375.000
,67.500=125.000
,74.750=375.000
,75.500=125.000
,82.750=375.000
,83.500=125.000
,84.000=250.000
,86.000=500.000
,87.500=125.000
,90.750=375.000
,91.500=125.000
,98.750=375.000
,99.500=125.000
,106.750=375.000
,107.500=125.000
,114.750=375.000
,115.500=125.000
,118.500=187.500
,120.000=125.000
,127.000=62.500
,128.000=125.000
,130.750=375.000
,131.500=125.000
,138.750=375.000
,139.500=125.000
,146.750=375.000
,147.500=125.000
,154.750=375.000
,155.500=125.000
,160.000=15.625
,162.000=31.250
,166.000=125.000
,174.000=500.000
,175.500=125.000
,178.750=375.000
,179.500=125.000
,181.000=250.000
,182.000=500.000
,184.000=125.000
,186.750=375.000
,187.500=125.000
,190.000=250.000
,190.500=125.000
,194.750=375.000
,195.500=125.000
,197.000=250.000
,198.000=500.000
,200.000=125.000
,202.750=375.000
,203.500=125.000
,206.000=250.000
,206.500=125.000
,222.000=500.000
,223.000=125.000
;
#STOPS:54.000=0.600
,54.750=0.150
,55.500=0.150
,59.500=0.240
,67.500=0.240
,75.500=0.240
,83.500=0.240
,84.000=0.240
,85.000=0.240
,86.000=0.240
,86.750=0.150
,87.500=0.150
,91.500=0.240
,99.500=0.240
,107.500=0.240
,115.500=0.240
,118.500=0.080
,119.000=0.080
,119.500=0.080
,120.000=0.240
,120.500=0.240
,121.000=0.240
,121.500=0.240
,122.000=0.240
,122.500=0.240
,123.000=0.240
,123.500=0.240
,124.000=0.240
,124.500=0.240
,125.000=0.240
,125.500=0.240
,126.000=0.240
,126.500=0.240
,127.000=0.480
,131.500=0.240
,139.500=0.240
,147.500=0.240
,155.500=0.240
,174.000=2.640
,174.750=0.150
,175.500=0.150
,181.000=0.060
,181.250=0.060
,181.500=0.060
,181.750=0.060
,182.000=0.180
,182.500=0.180
,183.000=0.180
,183.500=0.180
,187.500=0.240
,197.000=0.060
,197.250=0.060
,197.500=0.060
,197.750=0.060
,198.000=0.180
,198.500=0.180
,199.000=0.180
,199.500=0.180
,203.500=0.240
,222.250=0.360
;
#DELAYS:179.500=0.240,
190.500=0.120,
195.500=0.240,
206.500=0.120
;
#WARPS:3.000=16.000,
127.000=0.500,
171.000=3.000
;
#SPEEDS:58.750=0.750=0.250=0,
59.500=1.000=0.500=0,
66.750=0.750=0.250=0,
67.500=1.000=0.500=0,
74.750=0.750=0.250=0,
75.500=1.000=0.500=0,
82.750=0.750=0.250=0,
83.500=1.000=0.500=0,
90.750=0.750=0.250=0,
91.500=1.000=0.500=0,
98.750=0.750=0.250=0,
99.500=1.000=0.500=0,
106.750=0.750=0.250=0,
107.500=1.000=0.500=0,
114.750=0.750=0.250=0,
115.500=1.000=0.500=0,
118.000=0.500=2.000=0,
126.000=1.000=1.000=0,
130.750=0.750=0.250=0,
131.500=1.000=0.500=0,
138.750=0.750=0.250=0,
139.500=1.000=0.500=0,
146.750=0.750=0.250=0,
147.500=1.000=0.500=0,
154.750=0.750=0.250=0,
155.500=1.000=0.500=0,
160.500=0.000=0.125=0,
160.625=1.000=0.000=0,
161.500=0.000=0.125=0,
161.625=1.000=0.000=0,
163.563=2.000=0.063=0,
163.688=1.000=0.000=0,
178.750=0.750=0.250=0,
182.000=0.875=0.030=1,
182.500=1.000=0.030=1,
183.000=1.125=0.030=1,
183.500=1.250=0.030=1,
186.750=0.750=0.250=0,
187.500=1.000=0.500=0,
190.000=0.250=0.125=0,
190.500=1.000=0.125=0,
194.750=0.750=0.250=0,
195.500=1.000=0.500=0,
198.000=0.875=0.030=1,
198.500=1.000=0.030=1,
199.000=1.125=0.030=1,
199.500=1.250=0.030=1,
202.750=0.750=0.250=0,
203.500=1.000=0.500=0,
206.000=0.250=0.125=0,
206.500=1.000=0.500=0
;
#SCROLLS:0.000=1.000,
55.500=0.500,
56.000=1.000,
87.500=0.500,
88.000=1.000,
175.500=0.500,
176.000=1.000
;
#TICKCOUNTS:0.000=4;
#TIMESIGNATURES:0.000=4=4;
#LABELS:0.000=Song Start;
#ATTACKS:TIME=48.976:LEN=6.720:MODS=*1 4x;
#COMBOS:0.000=1;
#DISPLAYBPM:125.000;
#CHARTNAME:Center Double;
#CHARTSTYLE:;
#CREDIT:Akira Sora;
#NOTES:
00000000
00000000
00000000
M000000M
,
00010000
00000000
00000100
00001000
00000010
00000000
00000100
00000000
00001000
00000000
00010000
00000000
01000000
00000000
00100000
00000000
,
00000000
00000000
00000000
00000000
,
20000002
00000000
00000000
00000000
,
00000000
00000000
00000000
00000000
,
00010000
00000000
00000100
00001000
00000010
00000000
00000100
00000000
00001000
00000000
00010000
00000000
01000000
00000000
00100000
00000000
,
00010000
00000000
00000000
00000000
00000000
00000000
01000000
00000000
00000000
00000000
00000000
00000000
00000000
00000000
00000000
00000000
00010000
00000000
00000000
00000000
00000000
00010000
00000000
00000000
00100000
00000000
00000000
00001000
00000000
00000000
00010000
00000000
00000000
00000010
00000000
00000000
00001000
00000000
00000000
00000000
00000000
00000000
00000000
00000000
00000000
00000000
00000000
00000000
,
00000100
00000000
00000000
00000000
00000000
00000000
00000010
00000000
00000000
00000100
00000000
00000000
00020000
00000000
00000000
00000000
00000000
00000000
00030000
00000000
00000000
00001000
00000000
00000000
02000000
00000000
00000000
00000000
00000000
00000000
03200000
00000000
00000000
00000000
00000000
00000000
00320000
00000000
00000000
00000000
00032000
00000000
00000000
00000000
00203000
00000000
00000000
00000000
,
00000000
00000000
00000000
00000000
01300000
00000000
00000000
00000000
00000000
00000000
00000000
00000000
00000000
00000000
00000000
00000000
00010000
00000000
00000000
00000000
00000000
00010000
00000000
00000000
00000100
00000000
00000000
00001000
00000000
00000000
00000010
00000000
00000000
00000100
00000000
00000000
00001000
00000000
00000000
00000000
00000000
00000000
00000000
00000000
00000000
00000000
00000000
00000000
,
02000000
00000000
03010000
00100000
00001000
00000000
00010000
00000000
00000200
00000000
00000320
00000000
00002030
00000000
00023000
00000000
,
00230000
00000000
00000000
00300000
02000000
00000000
00000000
00000000
00000000
00000000
00000000
00000000
03000000
00000000
00000000
00000000
00000000
00000000
00000000
00000000
00000000
00000000
00000000
00000000
,
02000000
03000000
00001000
00010000
00002000
00000000
00203000
00000000
00300020
00000000
00000230
00000000
00002300
00000000
01003000
00000000
,
01000000
00000000
00000000
00000000
00100000
00000000
00000000
00000000
00000000
01000000
00000000
00000000
00010000
00000000
00000000
00100000
00000000
00000000
01000000
00000000
00000000
00010000
00000000
00000000
00001000
00000000
00000000
00000000
00000100
00000000
00000000
00000000
00000000
00000010
00000000
00000000
00001000
00000000
00000000
00000100
00000000
00000000
00000010
00000000
00000000
00001000
00000000
00000000
,
00010000
00011000
00000000
00000000
,
00100MM0
00001000
01000MM0
00010000
00100MM0
00001000
01000MM0
00010000
00100MM0
00001000
01000MM0
00200000
00000MM0
00000000
00300MM0
00000000
,
01100000
00000000
01010000
00000000
00011000
00000000
00000000
00000000
00100000
00001000
00010000
00000010
00000000
00000000
00000000
00000000
,
0MM00010
00010000
0MM00100
00001000
0MM00010
00010000
0MM00100
00001000
0MM00010
00010000
0MM00100
00000020
0MM00000
00000000
0MM00030
00000000
,
00000110
00000000
00001100
00000000
00011000
00000000
00000000
00000000
00010000
01000000
00100000
00010000
00000000
00000000
00010000
02000000
,
03000MM0
00001000
00100MM0
00010000
01000MM0
00001000
00100MM0
00010000
01000MM0
00001000
00100MM0
02000000
00000MM0
00000000
03000000
00000000
,
01100000
00000000
00110000
00000000
00011000
00000000
00000000
00000000
00001000
00100000
00000010
00010000
00000000
00000000
00000000
00000000
,
0MM00100
00010000
0MM00010
00001000
0MM00100
00010000
0MM00010
00001000
0MM00100
00010000
0MM00010
00000200
0MM00000
00000000
0MM00300
00000000
,
00000110
00010010
00011000
00000000
,
0M100M00
00000010
0M010M00
00001000
0M100M00
00000010
0M010M00
00001000
0M100M00
00000010
0M010M00
00200000
0M000M00
00000000
0M300M00
00000000
,
00110000
00000000
01100000
00000000
00011000
00000000
00000000
00000000
01000000
00001000
00010000
00000010
00000000
00000000
00000000
00000000
,
0M000M10
00100000
0M001M00
00010000
0M000M10
00100000
0M001M00
00010000
0M000M10
00100000
0M001M00
00000020
0M000M00
00000000
0M000M30
00000000
,
00001010
00000000
00000110
00000000
00011000
00000000
00000000
00000000
00000100
00010000
00001000
00100000
00000000
00000000
00001000
02000000
,
03M000M0
00000100
00M100M0
00001000
01M000M0
00000100
00M100M0
00001000
01M000M0
00000100
00M100M0
02000000
00M000M0
00000000
03M000M0
00000000
,
01010000
00000000
01100000
00000000
00011000
00000000
00000000
00000000
00100000
00001000
00010000
00000100
00000000
00000000
00000000
00000000
,
00M001M0
01000000
00M010M0
00010000
00M001M0
01000000
00M010M0
00010000
00M001M0
01000000
00M010M0
00000200
00M000M0
00000000
00M003M0
00000000
,
00000100
00000000
00000010
00010000
00000000
00001000
01000000
00000000
00001000
00000000
00010000
00000000
00010000
00000000
00010000
00000000
,
0M0020M0
00023000
02030000
03200000
00320000
00032000
00003200
00000320
,
00002030
00023000
00230000
02300000
03000200
00200300
00000020
00300030
,
001MM000
00000010
010MM000
00000100
001MM000
00000010
010MM000
00000100
001MM000
00000010
01000000
00020000
00000000
00000000
00030000
00000000
,
01010000
00000000
00011000
00000000
00001100
00000000
00000000
00000000
00000100
00100000
00000010
01000000
00000000
00000000
00000000
00000000
,
000MM010
00100000
000MM100
01000000
000MM010
00100000
000MM100
01000000
000MM010
00100000
00000100
00002000
00000000
00000000
00003000
00000000
,
00001100
00000000
00011000
00000000
01010000
00000000
00000000
00000000
01000000
00000010
00100000
00000100
00000000
00000000
00000100
02000000
,
030MM000
00000100
001MM000
00000010
010MM000
00000100
001MM000
00000010
010MM000
00000100
00100000
00020000
00000000
00000000
00030000
00000000
,
00110000
00000000
00011000
00000000
00001010
00000000
00000000
00000000
00000010
01000000
00000100
00100000
00000000
00000000
00000000
00000000
,
000MM100
01000000
000MM010
00100000
000MM100
01000000
000MM010
00100000
000MM100
01000000
00000010
00002000
00000000
00000000
00003000
00000000
,
00000100
00000000
00001000
00000000
00000010
00000000
00100000
00000000
00010000
00000000
01000000
01000000
00001000
00010000
00000100
01000000
,
00MMMM20
00000000
00000030
00000000
00002000
00000000
00003000
00000000
00010100
00000000
00000000
00000000
02000000
00000000
03000000
00000000
00020000
00000000
00030000
00000000
00200000
00000000
00300000
00000000
00001010
00000000
00000000
00000000
00020000
00000000
00030000
00000000
0M0002M0
00000000
00000000
00000000
00010300
00000000
00000000
00000000
02000000
00000000
00000000
00000000
03001000
00000000
00000000
00000000
01000000
00000000
00010000
00000000
00100000
00000100
00000000
00001000
00000000
00000010
00000000
00020000
00031000
00000000
00000000
00000000
,
02000000
00000100
03001000
00000000
00000020
01000000
00010030
00000000
00200000
00000100
00301000
00000000
00000200
01000000
00010300
00000000
0M0000M0
00000000
00010000
00000000
00000000
00000000
00000100
00000000
00001000
00000000
00000010
00000000
00000100
00000000
00001000
00000000
,
00010000
00001000
00000000
00010000
01000000
00100000
00010000
01000000
00100000
00000000
00000000
00000000
02000200
00000000
00000000
00000000
,
00000000
00000000
03000300
00000000
02000200
03000300
00000000
00000000
,
00001MM0
00010000
01000MM0
00100000
00001MM0
00010000
01000MM0
00100000
00001MM0
00010000
01000MM0
00002000
00000000
00000000
00003100
00000000
,
00000010
00000000
00000100
00000000
00010000
00001000
00010000
00001000
00010000
00000000
00001010
00000000
00011000
00000000
00001100
00000000
,
0MM10000
00001000
0MM00100
00000010
0MM10000
00001000
0MM00100
00000010
0MM10000
00001000
0MM00100
00020000
00000000
00000000
00030000
00000000
,
00010000
00000000
01000000
00000000
00001000
00000000
00100000
00000000
02000000
03000000
00100000
00010000
00000000
00000000
00010000
02000000
,
03000MM0
00001000
00100MM0
00010000
01000MM0
00001000
00100MM0
00010000
01000MM0
00001000
00100MM0
02000000
00000000
00000000
03100000
00000000
,
00010000
00000000
00100000
00000000
00001000
00010000
00001000
00010000
00001000
00000000
00110000
00000000
00001000
00000000
01010000
00000000
,
00000010
00010000
00000100
00001000
00000010
00010000
00000100
00001000
00000010
00010000
00000100
00000020
00000000
00000000
00000030
00000000
,
00000100
00010000
00000010
00100000
00022000
00033000
00000010
00010000
,
00000100
00000010
00001000
00000010
00000100
00001000
00000010
00010000
00001000
00100000
00010000
02000000
00000000
00000000
03000000
00000000
,
01000000
00010000
00100000
01000000
00100000
00010000
01000000
00001000
00010000
00000100
00001000
00000020
00000000
00000000
00000030
00000000
,
00100000
00001000
01000000
00000100
00010000
00000010
01000000
00001000
00100000
00000000
00000000
00000000
01010000
00000000
00000000
00000000
,
00011000
00001100
00011000
30100013
;
