#VERSION:0.83;
#TITLE:Veritas;
#SUBTITLE:;
#ARTIST:Nhato & Taishi;
#TITLETRANSLIT:;
#SUBTITLETRANSLIT:;
#ARTISTTRANSLIT:;
#GENRE:;
#CREDIT:;
#MUSIC:Veritas.ogg;
#BANNER:Tower of Eight Panels.png;
#BACKGROUND:Tower of Eight Panels-bg.png;
#CDTITLE:;
#SAMPLESTART:64.099;
#SAMPLELENGTH:14.204;
#SELECTABLE:YES;
#OFFSET:-0.005;
#BPMS:0.000=135.000
,90.500=130.000
,91.000=120.000
,91.500=110.000
,92.000=100.000
,92.500=95.000
,93.000=90.000
,93.500=85.000
,94.000=75.000
,94.500=69.232
,95.000=67.500
,109.000=60.026
,110.000=63.500
,111.000=67.500
,111.750=73.636
,112.250=57.857
,112.750=73.636
,113.250=62.308
,113.750=73.636
,114.250=67.500
,114.750=70.435
,115.250=64.800
,115.750=73.636
,116.250=70.435
,116.750=60.000
,116.792=55.000
,116.833=50.000
,116.875=45.000
,116.917=40.000
,116.958=35.000
,117.000=30.000
,117.042=25.000
,117.083=20.000
,117.125=15.000
,117.167=10.000
,117.208=4.980
,117.250=135.000
;
#STOPS:;
#SCROLLS:109.000=1.125,
110.000=1.063,
111.000=1.000,
111.750=0.917,
112.250=1.167,
112.750=0.917,
113.250=1.083,
113.750=0.917,
114.250=1.000,
114.750=0.958,
115.250=1.042,
115.750=0.917,
116.250=0.958,
116.750=1.000
;
#DISPLAYBPM:67.500:135.000;
#BGCHANGES:;
#FGCHANGES:;

//--------------- dance-double - Brother Mojo ----------------
#NOTEDATA:;
#CHARTNAME:Center of Balance;
#STEPSTYPE:dance-double;
#DESCRIPTION:;
#DIFFICULTY:Hard;
#METER:15;
#RADARVALUES:0,0,0,0,0;
#CREDIT:Brother Mojo;
#NOTES:
00000000
00000000
00000000
00000000
,
00000000
00000000
00000000
00000000
,
00000000
00000000
00000000
00000000
,
00000000
00000000
00000000
00000000
,
00001000
00010000
00000100
00000000
00001001
00000000
00000010
00000000
,
00010100
00001000
01001000
00100000
,
10010000
00001000
00101000
00010000
,
00010010
00000000
00000000
00000000
00000001
00000000
00001000
00000000
00000010
00000000
00000000
00000000
00000100
00001000
00000000
00010000
,
00000000
00200000
00000000
00000000
10300000
00000000
00000000
10000000
01000000
00000000
00000000
00000000
00100000
00000000
00010000
00100000
,
00001000
00000000
00000000
00000000
00010000
00000000
00000000
00010000
00000010
00000000
00000000
00000000
00000100
00000001
00001000
00000100
,
00001000
00000000
00000000
00000000
00000010
00000000
00000000
00000010
00010000
00000000
00000000
00000000
00001000
00000000
00100000
00001000
,
00010000
00000000
02000000
00000000
13000000
00000000
00010000
10000000
00100000
00000000
00000000
00000000
10000000
01000000
00000000
00010000
,
00000000
00002000
00000000
00000000
00003010
00000000
00000000
00000010
00000001
00000000
00000000
00000000
00000100
00000000
00000010
00000100
,
00000001
00000000
00000000
00000000
00001000
00000000
00000000
00001000
00000100
00000000
00000000
00000000
00010000
00001000
01000000
00010000
,
01000000
00000000
00000000
00000000
00100000
00000000
00000000
00100000
10000000
00000000
00000000
00000000
00010000
00000000
00100000
00010000
,
10000000
00000000
02000000
00000000
03020000
00000000
00000000
00000000
00031000
00010000
00000010
00001000
00000010
00000100
00001000
00010000
,
00100000
01000000
00010000
10000000
01000000
00000000
00000000
00100000
00010000
01000000
00001000
00000000
00010000
00000000
00000000
00010000
,
00000000
00000000
00000000
00000000
00000010
00000000
00000000
00001000
00000000
00000000
00000000
00000000
00000100
00000010
00000100
00001000
,
00000000
00000001
00000100
00000010
00010000
00000000
00000000
00001000
01000000
00100000
10000000
00000000
01000000
00000000
00000000
01000000
,
00000000
00000000
00000000
00000000
00100000
00000000
00000000
00010000
00000000
00000000
00000000
00000000
10000000
00100000
10000000
00010000
,
00000000
10000000
01000000
00100000
00001000
00000000
00000000
00010000
00000100
00000010
00000001
00000000
00001000
00000000
00000000
00001000
,
00000000
00000000
00000000
00000000
00000010
00000000
00000000
00000100
00000000
00000000
00000000
00000000
00000001
00000000
00000000
00000001
,
00000000
00001000
00000010
00010000
00001000
00000000
00000000
00100000
00010000
01000000
00002000
00000000
00000000
00000000
00000000
00000000
,
00000000
00000000
00000000
00203000
,
00000000
00000000
01300000
00010000
00002000
00000000
00000000
00000000
00000000
00000000
00003100
00001000
00020000
00000000
00030200
00000000
,
00000320
00002030
00203000
00000000
00320000
00000000
02030000
03200000
,
00320000
00030020
00002030
00000000
00003200
00000000
00000320
00000032
,
00000203
00000000
00000000
00000000
00002300
00000000
00000000
00000000
00023000
00000000
00000000
00000000
00000000
00000000
00000000
00000000
00230000
00000000
00000000
00000000
00000000
00000000
00000000
00000000
10300000
00100000
10000000
00000000
01000000
10000000
01000000
00000000
,
00100000
01000000
00100000
00000000
00010000
00100000
00010000
00000000
01000000
00010000
01000000
00000000
00001000
01000000
00001000
00000000
00010000
00001000
00010000
00000000
00000100
00010000
00000100
00000000
00001000
00000100
00001000
00000000
00000010
00001000
00000010
00000000
,
00010000
00000000
00000000
00000000
00000000
00000000
00000010
00000000
00000000
00000000
00000000
00000000
00010000
00000000
00000000
00000000
00000000
00000000
00000000
00000000
00000000
00000000
00000000
00000000
00001000
00000000
00000000
00000000
00000000
00000000
00010000
00000000
00000000
00000000
00000000
00000000
00002000
00000000
00000000
00000000
00000000
00000000
00000000
00000000
00000000
00000000
00000000
00000000
00000000
00000000
00000000
00000000
00000000
00000000
00000000
00000000
00000000
00000000
00000000
00003000
01000000
00000000
00000000
00000000
00000000
00000000
00000000
00000000
00000000
00000000
00000000
00000000
00100000
00000000
00000000
00000000
00000000
00000000
00000000
00000000
00000000
00000000
00000000
00000000
00010000
00000000
00000000
00000000
00000000
00000000
00000000
00000000
00000000
00000000
00000000
00000000
00002000
00000000
00000000
00000000
00000000
00000000
00000000
00000000
00000000
00000000
00000000
00000000
00000000
00000000
00000000
00000000
00000000
00000000
00000000
00000000
00000000
00000000
00000000
00000000
00000000
00000000
00000000
00000000
00000000
00000000
00000000
00000000
00000000
00000000
00000000
00000000
00000000
00000000
00000000
00000000
00000000
00000000
00000000
00000000
00000000
00000000
00000000
00000000
00003000
00000000
00000000
00000000
00000000
00000000
00000000
00000000
00000000
00000000
00000000
00000000
00000000
00000000
00000000
00000000
00000000
00000000
00000000
00000000
00000000
00000000
00000000
00000000
00100000
00000000
00000000
00000000
00000000
00000000
00000000
00000000
00000000
00000000
00000000
00000000
01000000
00000000
00000000
00000000
00000000
00000000
00000000
00000000
00000000
00000000
00000000
00000000
,
00020000
00000000
00031000
00000020
00000000
00000130
00020000
00000000
00030010
00001000
00000020
00000000
00000000
00000000
00000000
00000000
,
00000030
00010000
00000100
00010000
00001000
01000000
00100000
00010000
00002000
00000000
00000000
00000000
00003000
00000000
00100000
01000000
,
00020000
00000000
00031000
00000020
00000000
00001030
00010000
00000000
00001000
00100000
00002000
00000000
00000000
00000000
00000000
00000000
,
00000000
00000000
00003000
01000000
00010000
00001000
00000010
00010000
00000100
00001000
00000200
00000000
00000300
00000000
00000010
00001000
,
00020000
00000000
00030100
00000020
00000000
00001030
00020000
00000000
00030010
00001000
00000020
00000000
00000030
00000000
00000100
00001000
,
00020000
00000000
01030000
00020000
00000000
00031000
00200000
00000000
00310000
01000000
00020000
00000000
00000000
00000000
00130000
01000000
,
00010000
00001000
00020000
00000000
00000000
00000000
00030010
00000100
00001000
00010000
00002000
00000000
00000000
00000000
00000000
00000000
,
00000000
00000000
00000000
00000000
00003000
00100000
00010000
00001000
00000200
00000000
00000000
00000000
00000300
00000000
00010000
00001000
,
00000200
00000000
00001300
02000000
00000000
03010000
00200000
00000000
00301000
00010000
00002000
00000000
00000000
00000000
00000000
00000000
,
00003000
01000000
00010000
01000000
00100000
00010000
00001000
00000100
00000020
00000000
00000000
00000000
00000030
00000000
00010000
00001000
,
00000020
00000000
00001030
00200000
00000000
00301000
00010000
00100000
02000000
00000000
00000000
00000000
03000000
00001000
00010000
00000010
,
00020000
00000000
00030000
00001000
00100000
00010000
00001000
00000100
00010000
00000010
00020000
00000000
00030000
00000000
00000100
00000010
,
00002000
00000000
00013000
00000020
00000000
00000130
00002000
00000000
00013000
00100000
00020000
00000000
00030000
00000000
00001000
01000000
,
00020000
00000000
00130000
02000000
00000000
03010000
00002000
00000000
00103000
00010000
00200000
00000000
00300000
00000000
00001000
00010000
,
00000010
00001000
00000020
00000000
00000000
00000000
00000130
00001000
00010000
01000000
00020000
00000000
00000000
00000000
00031000
00100000
,
00002000
00000000
00000000
00000000
00003000
01000000
00001000
00010000
00100000
10000000
02000000
00000000
00000000
00000000
00000000
00000000
,
00000000
03020000
00030200
00000000
,
00200300
00300020
00002030
00000000
,
00000000
00000000
00003001
00000100
00002000
00000000
00000000
00000000
,
00023000
00000000
00000000
00030200
00000000
00000000
00000320
00000000
00001030
00010000
01000000
00000000
00100000
00000000
00010000
00000000
,
01000000
00100000
00010000
00001000
00000100
00000010
00010000
00001000
,
00020000
00000000
00000000
00230000
00000000
00000000
00310000
00000000
00010000
00001000
00000100
00000010
00001000
00000010
00010000
00001000
,
00100000
00010000
00100000
00001000
00010000
00000010
00001000
00000010
00000100
00001000
00010000
00100000
10000000
00010000
00100000
01000000
,
00010000
00001000
00000010
00000001
00001000
00000000
00000000
00000000
00000100
00000000
00000000
00000100
00000000
00000000
00000000
00000000
,
00010000
00000000
00000000
00010000
00000000
00000000
00000000
00000000
00001000
00000000
00000000
00001000
00000000
00000000
00000000
00000000
,
00100000
00010000
00000000
00010000
00000000
00000000
00000000
00000000
10000000
00000000
00000000
10000000
00000000
00000000
00000000
00000000
,
00100000
00000000
00000000
00100000
00000000
00000000
00000000
00000000
01000000
00000000
00000000
01000000
00000000
00000000
00000000
00000000
,
00001000
00010000
00000000
00000100
00000000
00000010
00001000
00000000
00010000
00000000
00000000
00010000
00000100
00000000
00000000
00000000
,
00001000
00000000
00000000
00001000
01000000
00000000
00000000
00000000
00010000
00000000
00000000
00010000
00000010
00000000
00000000
00000000
,
00001000
00000000
00000000
00001000
00100000
00000000
00000000
00000000
00010000
00000000
00000100
00000000
00001000
00000000
00000010
00010000
,
00001000
00100000
00010000
01000000
00001000
00000000
00010000
00000000
00001100
00000000
00000000
00010010
00000000
00000000
01010000
00000000
,
00000000
00101000
00000000
00000000
02000020
00000000
00000000
03000030
01000000
00000000
00000000
01000000
00010000
00000000
00000000
00000000
,
10000000
00000000
01000000
10000000
00010000
00000000
00000000
00000000
01000000
00000000
00000000
01000000
00001000
00000000
00000000
00000000
,
00010000
00001000
00100000
00010000
00100000
00000000
00000000
00000000
00001000
00000000
00000000
00001000
00010000
00000000
00000000
00000000
,
00000010
00000000
00001000
00000010
00000100
00000000
00002000
00000000
00013000
00000000
00000000
00010000
00000100
00000000
00000000
00000000
,
00000010
00000001
00000000
00000100
00000000
00001000
00010000
00000000
00001000
00000000
00000000
00001000
00100000
00000000
00000000
00000000
,
00010000
00000000
10000000
00010000
01000000
00000000
00000000
00000000
00001000
00000000
00000000
00001000
00010000
00000000
00000000
00000000
,
00000010
00001000
00000001
00000010
00000001
00000000
00000000
00000000
00001000
00000000
00000000
00001000
00000010
00000000
00000000
00000000
,
00010000
00000000
00001000
00010000
00000100
00000000
00002000
00000000
00003020
00000000
00000000
00000000
00000130
00001000
00010000
00100000
,
01000000
00010000
00001000
00000010
00010000
00000000
00001000
00000000
02000200
00000000
00000000
00000000
00000000
00000000
00000000
00000000
,
00000000
00000000
00000000
00000000
,
00000000
00000000
03000300
00000000
;
