#VERSION:0.83;
#TITLE:Upshift (Yunosuke Remix);
#SUBTITLE:;
#ARTIST:Iriss;
#TITLETRANSLIT:;
#SUBTITLETRANSLIT:;
#ARTISTTRANSLIT:;
#GENRE:;
#CREDIT:;
#MUSIC:Upshift (Yunosuke Remix).ogg;
#BANNER:Upshift (Yunosuke Remix).png;
#BACKGROUND:Upshift (Yunosuke Remix)-bg.png;
#CDTITLE:;
#SAMPLESTART:56.955;
#SAMPLELENGTH:14.999;
#SELECTABLE:YES;
#OFFSET:0.525;
#BPMS:0.000=167.000;
#STOPS:;
#BGCHANGES:;
#FGCHANGES:;

//--------------- dance-double - Talkion ----------------
#NOTEDATA:;
#STEPSTYPE:dance-double;
#DIFFICULTY:Easy;
#METER:11;
#RADARVALUES:0,0,0,0,0;
#CREDIT:Talkion;
#NOTES:
00000000
00000000
00000000
00000000
,
00000000
00000000
00000000
00000000
,
00000000
00000000
00000000
00000000
,
00000000
00000000
00000000
00000000
,
00000000
00000000
00000000
00000000
,
00000000
00000000
00000000
00000000
,
00000000
00000000
00000000
00000000
,
00000000
00000000
00000000
00000000
,
00000000
00000000
00000000
00000000
,
00010000
00000000
00000000
00000000
00010010
00000000
00000000
00000000
00000000
00000000
00000010
00000000
00000100
00000000
00000000
00000010
,
00000000
00000010
00001000
00000000
00000100
00000100
00010000
00000000
,
00001000
00000000
00000000
00000000
00101000
00000000
00000000
00000000
00000000
00000000
00100000
00000000
01000000
00000000
00000000
00100000
,
00000000
00100000
00010000
00000000
01000000
00001000
00010000
00001000
,
01000000
00000000
00000000
00000000
01010000
00000000
00000000
00000000
00000000
00000000
00010000
00000000
00100000
00000000
00000000
00001000
,
00000000
00001000
00010000
00000000
00000010
00000010
00001000
00000000
,
00000100
00000000
00000000
00000000
00001100
00000000
00000000
00000000
00000000
00000000
00001000
00000000
00000010
00000000
00000000
00010000
,
00000000
00010000
00001000
00000000
01000000
01000000
00200000
00000000
,
00310000
00001000
00000010
00001000
,
00010000
00100000
00010000
00001000
,
00000200
00000300
00001000
00000000
00010000
00000000
01000000
00000000
,
00010000
00000000
00001000
00000000
00000100
00000000
00002000
00003000
,
00010000
00001000
01000000
00001000
00010000
00001000
00100000
00001000
,
00020000
00030020
00000230
00002300
,
00013000
00000000
00000000
00000000
,
00000100
00000000
00000100
00000000
00000100
00010000
00010100
00000000
,
01001000
00000000
01000000
00000000
00100000
01000000
00002000
00000000
,
00013000
00000000
00100000
00000000
02000000
03002000
00013000
00000000
,
00010100
00000000
00000100
00000000
00000020
00000000
00001030
00010000
,
00000200
00000000
00010300
00001000
01000000
00000000
01001000
00000000
,
00010100
00000000
00000000
00000000
00000100
00000000
00000000
00000000
00000010
00000000
00000000
00000010
00000000
00000000
00000100
00000000
,
00010000
00000000
00000000
00000000
00000010
00000000
00000000
00000000
00000100
00000000
00000000
00000100
00000000
00000000
00000010
00000000
,
00010000
00000000
00010000
00000000
00010000
00000000
00001000
01000000
,
00100000
00000000
01000000
00000000
00002000
00013000
00010010
00000000
,
00101000
00000000
00100000
00000000
01000000
00100000
00002000
00000000
,
00013000
00000000
01000000
00000000
00200000
00302000
00013000
00000000
,
00010010
00000000
00000010
00000000
00000200
00000000
00001300
00010000
,
00000010
00010000
00001000
00000000
00200000
00000000
00301000
01000000
,
01100000
00000000
00000000
00000000
00100000
00000000
00000000
00000000
01000000
00000000
00000000
01000000
00000000
00000000
00001000
00000000
,
00010000
00000000
00000000
00000000
00100000
00000000
00000000
00000000
01000000
00000000
00000000
01000000
00000000
00000000
00001000
00000000
,
00020000
00000000
00000000
00000000
00000100
00000000
00000000
00000000
00001000
00000000
00000000
00001000
00000000
00000000
00031000
00000000
,
01000000
00000000
00100000
00000000
01000000
01000000
00001000
00000000
,
00020000
00000010
00001000
00100000
,
00031000
00010000
00000100
00000000
00010000
00000100
00000010
00000100
,
00020000
00000100
00001000
01000000
,
00031000
00010000
00000010
00000000
00001000
00001000
00000010
00010000
,
00002000
01000000
00010000
00000100
,
00013000
00001000
01000000
00000000
00001000
01000000
00100000
01000000
,
00002000
00000000
00003100
00000010
00010000
00000100
00000010
00000000
,
00002000
00023000
01030000
00010000
,
00000200
00020300
01000000
00001000
,
00030010
00010000
00001000
00000000
00010000
00000010
00000100
00000010
,
00020000
00001000
00100000
00001000
,
00030100
00010000
00001000
00000000
01000000
01000000
00001000
00010000
,
00000020
00000000
00000100
00000000
00010030
00000010
00001000
00000000
,
00000010
00001000
00010000
00000000
00001000
00010000
01000000
00000000
,
00200000
00000000
00000000
00000000
,
00000000
00000000
00000000
00000000
,
01300000
00001000
00000100
00010000
,
01000000
00001000
00000200
00000320
,
00010030
00001000
00000010
00010000
,
00100000
00001000
00000020
00000230
,
00010300
00001000
00000100
00010000
,
01000000
00001000
00000200
00000320
,
00010030
00001000
00000010
00010000
,
00100000
00001000
00000020
00000230
,
00020300
00000010
00032000
01000000
,
00013000
00001000
02000000
03002000
,
00023000
00000100
00032000
00100000
,
00013000
00001000
00200000
00302000
,
00013000
00000100
00000010
00000100
,
00010000
00001000
01000000
00001000
,
00010000
00000010
00001000
00000010
00010000
00000100
00001000
00000100
,
00010000
00000000
00000000
00010000
00000000
00000000
00001000
00000000
00000000
00001000
00000000
00000000
01000000
00000000
00000000
00000000
;

//--------------- dance-double - Talkion ----------------
#NOTEDATA:;
#STEPSTYPE:dance-double;
#DIFFICULTY:Medium;
#METER:15;
#RADARVALUES:0,0,0,0,0;
#CREDIT:Talkion;
#NOTES:
00000000
00000000
00000000
00000000
,
00000000
00000000
00000000
00000000
,
00000000
00000000
00000000
00000000
,
00000000
00000000
00000000
00000000
,
00000000
00000000
00000000
00000000
,
00000000
00000000
00000000
00000000
,
00000000
00000000
00000000
00000000
,
00000000
00000000
00000000
00000000
,
00000000
00000000
00000000
00000000
,
00001000
00000000
00000000
00010000
00000000
00000000
00000010
00000000
00000000
00000100
00000000
00000000
00000010
00000000
00000000
00010000
,
00000000
00000000
00001000
00000000
00000000
01000000
00000000
00000000
00100000
01000000
00100000
00000000
01000000
00000000
00001000
00010000
,
00001000
00000000
00000000
00010000
00000000
00000000
00000100
00000000
00000000
00000010
00000000
00000000
00000100
00000000
00000000
00010000
,
00000000
00000000
00001000
00000000
00000000
00100000
00000000
00000000
01000000
00100000
01000000
00000000
00010000
00000000
00001000
00010000
,
00001000
00000000
00000000
01000000
00000000
00000000
00001000
00000000
00000000
00010000
00000000
00000000
00000100
00000000
00000000
00010000
,
00000000
00000000
00001000
00000000
00000000
01000000
00000000
00000000
00001000
00010000
00001000
00000000
00010000
00000000
00000100
00000010
,
00000100
00000000
00000000
00010000
00000000
00000000
00001000
00000000
00000000
00100000
00000000
00000000
00001000
00000000
00000000
00010000
,
00000000
00000000
00000010
00000000
00000000
00010000
00000000
00000000
00001000
01000000
00010000
00000000
02000000
00000000
00000000
00000000
,
03100000
01001000
00000100
00010010
,
00100000
01001000
00000100
00010010
,
00020000
00030000
01100000
00000000
00001000
00000000
00000110
00000000
,
00010000
00001000
01000000
00001000
00010000
00000100
00000110
00000040
,
00001030
00001000
00010000
00001000
01000000
01000000
00010000
01000000
,
00400000
04000000
00000000
00000000
00000000
00000000
00000000
00000000
00000000
00000000
00000000
00000000
00000000
00000000
00000000
00300000
,
03001000
00000000
00000000
00000000
,
00010000
00000000
00010000
00000000
00010000
00001000
01000100
00000000
,
00011000
00000000
00000000
00000000
00010000
00000000
00000100
00000000
00000020
00000000
00001000
00000000
00010030
00000000
00000010
00001000
,
00000010
00000100
00010000
00001000
02000000
00010000
03001000
00000000
,
00011000
00000000
00000000
00000000
00010000
00000000
00000100
00000000
00010000
00000000
00001000
01000000
00001000
00000000
01000000
00000000
,
00200000
00000000
00000000
00000000
00301000
00000000
00000010
00000000
00000100
00000000
00000000
00000100
00001000
00000000
00010000
00000000
,
00011000
00000000
00000000
00000000
00001000
00000000
00100000
00000000
01000000
00000000
00000000
00001000
00000000
00000000
00000100
00000000
,
00000010
00000000
00000000
00000000
00001000
00000000
00100000
00000000
00010000
00000000
00000000
01000000
00000000
00000000
00001000
00000000
,
00000100
00000000
00000100
00000000
00000100
00000000
00000010
00010000
,
00001000
00000000
00000000
00000000
00100000
00001000
00010000
00001000
04000000
00000000
03001000
00000000
00010000
00000000
00000000
00000000
,
00011000
00000000
00000000
00000000
00001000
00000000
00100000
00000000
02000000
00000000
00010000
00000000
03001000
00000000
01000000
00010000
,
01000000
00100000
00001000
00010000
00000020
00001000
00010030
00000000
,
00011000
00000000
00000000
00000000
00001000
00000000
00100000
00000000
00001000
00000000
00010000
00000010
00010000
00000000
00000010
00000000
,
00000100
00010000
01000000
00010000
00000200
00000000
00000310
00010000
,
00011000
00000000
00000000
00000000
00001000
00000000
00100000
00000000
01000000
00000000
00000000
00001000
00000000
00000000
00000100
00000000
,
00000010
00000000
00000000
00000000
00001000
00000000
00100000
00000000
00010000
00000000
00000000
01000000
00000000
00000000
00001000
00000000
,
00040000
00004000
00000000
00000000
00000000
00000000
00000000
00000000
00000000
00000000
00000000
00000000
00000000
00000000
00000000
00030000
,
01003000
00000000
00000000
00000000
00001000
00000000
00000000
00000000
00010000
00000010
00001000
00000010
00010000
00000000
00000000
00000000
,
00001000
01000000
00100000
00001000
00000010
00010000
00100000
00001000
,
00000010
00000100
00000010
00010000
00001000
01000000
00100000
00000000
,
00010000
00000100
00000010
00010000
00100000
00001000
00000010
00010000
,
00100000
01000000
00100000
00001000
00010000
00000100
00000010
00000000
,
00001000
01000000
00100000
00010000
00000010
00001000
00100000
00010000
,
00000010
00000100
00000010
00010000
00001000
00000010
00001000
00010000
,
00000020
00001000
00200030
00010000
00300020
00001000
00100030
00001000
,
00010000
00000100
00000010
00001000
00010000
00000000
00101000
00000000
,
00200000
00000000
01300000
00001000
00000100
00010000
01000000
00001000
,
00000100
00000010
00000100
00010000
00001000
00100000
01000000
00000000
,
00010000
00000010
00000100
00010000
01000000
00001000
00000100
00010000
,
01000000
00100000
01000000
00001000
00010000
00000010
00000100
00000000
,
00010000
00100000
01000000
00001000
00000100
00000010
00010000
00100000
,
01000000
00001000
00000100
00000010
00001000
00010000
00100000
00010000
,
00002000
00000000
00000000
00000000
00000000
00000000
00000000
01003000
,
00001000
00010000
00001000
00010000
00001000
00010000
00001000
00010000
00000200
00000000
00000000
00000000
00000320
00000000
00000000
00000000
,
00001030
00000000
00000000
00000000
00010000
00000000
00001000
00000000
01000000
00000000
00100000
01000000
00000000
00000000
00001000
00000000
,
00010000
00000000
00000100
00000010
00000000
00000000
00000100
00000000
00020000
00000000
00000000
00000000
00030020
00000000
00000000
00000000
,
02000030
00000000
00000000
00000000
03001000
00000000
00010000
00000000
00000010
00000000
00000100
00000010
00000000
00000000
00010000
00001000
,
00010000
00001000
00001000
01000000
00002000
00000000
00203000
00000000
,
00300200
00000000
00010300
00000100
00001000
00000000
00000010
00000000
,
00010000
00000100
00001000
00000100
00020000
00000000
00030020
00000000
,
02000030
00000000
03001000
01000000
00010000
01000000
00001000
00010000
,
00000000
00000000
00000100
00001000
00000100
00000000
00010000
00000000
00002000
00000000
00000000
00000000
00203000
00000000
00000000
00000000
,
00300200
00000320
00002030
00203000
,
00301000
00100000
00010000
00100000
00002000
00000000
02003000
00000000
,
03000020
00000230
00002300
02003000
,
03001000
01000000
00010000
01000000
00002000
00000000
00203000
00000000
,
00300100
00000100
00000010
00000010
,
00001000
00000000
00001000
00000000
00010000
00000000
00010000
00004000
,
01003000
00001000
00000100
00001000
01000000
00001000
00000100
00001000
,
01000000
00000000
00000000
01000000
00000000
00000000
00010000
00000000
00000000
00010000
00000000
00000000
00000100
00000000
00000000
00000000
;

//--------------- dance-double - Talkion ----------------
#NOTEDATA:;
#STEPSTYPE:dance-double;
#DIFFICULTY:Hard;
#METER:17;
#RADARVALUES:0,0,0,0,0;
#CREDIT:Talkion;
#NOTES:
00000000
00000000
00000000
00000000
,
00000000
00000000
00000000
00000000
,
00000000
00000000
00000000
00000000
,
00000000
00000000
00000000
00000000
,
00000000
00000000
00000000
00000000
,
00000000
00000000
00000000
00000000
,
00000000
00000000
00000000
00000000
,
00000000
00000000
00000000
00000000
,
00000000
00000000
00000000
00000000
,
00010000
00000000
00000000
00001000
00000000
00000000
01000000
00000000
00000000
00100000
00000000
00000000
01000000
00000000
00000000
00001000
,
00000000
00000000
00010000
00000000
00000000
00000010
00000000
00000010
00010000
00001000
00010000
00000010
00001000
00000010
00010000
00001000
,
01000000
00000000
00000000
00001000
00000000
00000000
00100000
00000000
00000000
01000000
00000000
00000000
00100000
00000000
00000000
00001000
,
00000000
00000000
00010000
00000000
00000000
00000100
00000000
00000100
00010000
00001000
00010000
00000100
00001000
00000100
00010000
00001000
,
00100000
00000000
00000000
01000000
00000000
00000000
00010000
00000000
00000000
00001000
00000000
00000000
01000000
00000000
00000000
00001000
,
00000000
00000000
00010000
00000000
00000000
00000010
00000000
00000010
00010000
00001000
00010000
00000010
00001000
00000000
00000010
00010000
,
00001000
00000000
00000000
01000000
00000000
00000000
00100000
00000000
00000000
00010000
00000000
00000000
00100000
00000000
00000000
01000000
,
00000000
00000000
00001000
00000000
00000000
00010000
00000000
00010000
00000100
00001000
00000100
00010000
00001000
00000000
00010000
00001000
,
02000000
03000000
0MMMMMM0
00000000
00000200
00000300
0MMMMMM0
00000000
,
00200000
00300000
0MMMMMM0
00000000
00000020
00000030
0MMMMMM0
00000000
,
02000000
03000000
0MMMMMM0
00000000
00000200
00000300
0MMMMMM0
00000000
,
01000000
00000000
00000000
00001000
00000000
00000000
00010000
00000000
00000000
00001000
00000000
00000000
01000000
00000000
00000000
00100000
00000000
00000000
0MMMMMM0
00000000
00000000
00100000
01000000
00100000
,
01000000
00001000
00010000
00000100
00000010
00001000
00010000
00000010
,
00000100
00000010
00001000
00000010
00000100
00000010
00001000
00000010
00010000
00001000
01000000
00001000
00010000
00001000
01000000
00010000
,
00100000
00000000
00000000
00000000
,
00001000
00000000
00001000
00000000
00001000
00010000
01000100
00000000
,
00011000
00000000
00000000
00000000
00010000
00000000
00000100
00010000
00002000
00000000
00013000
00001000
02000000
00000000
03010000
0M010000
,
00001000
00000000
00010000
00000010
00000100
00000000
00000010
00000100
00001000
00000000
00020000
00000000
00030100
00000000
00000010
00000000
,
00000110
00000000
00000000
00000000
00000100
00000000
00020000
00000000
00031000
00010000
0001M000
01000000
00001000
00000000
00010000
00000000
,
00000020
00000000
00000000
00000000
00000130
00000000
00010000
00000000
01000000
00000000
00000000
01000000
00001000
00000000
00010000
00000000
,
00011000
00000000
00000000
00000000
00001000
00000000
00100000
00000000
01000000
00000000
00010000
00001000
00000000
00000010
00001000
00000000
,
00010000
00000000
00001000
00000000
01000000
00000000
00100000
00000000
01000000
00000000
00001000
00010000
00000000
00000010
00000100
00000000
,
00000010
00000000
00100000
00000000
00000010
00000000
00100000
00200000
,
00301000
00000000
00000000
00000000
00010000
00000100
00000010
00001000
00040000
00000000
00031000
00010000
00000100
00000000
00000000
00000000
,
00011000
00000000
00000000
00000000
00001000
00000000
00100000
00001000
00020000
00000000
00031000
00010000
00000020
00000000
00001030
000010M0
,
00010000
00000000
00001000
01000000
00100000
00000000
01000000
00100000
00010000
00000000
00002000
00000000
00103000
00000000
01000000
00000000
,
01100000
00000000
00000000
00000000
00100000
00000000
00002000
00000000
00013000
00001000
000M1000
00000010
00010000
00000000
00001000
00000000
,
02000000
00010000
03001000
00000200
00000320
00000000
00010030
00001000
,
00011000
00000000
00000000
00000000
00010000
00000000
00000100
00000000
00000010
00000000
00001000
00010000
00000000
01000000
00010000
00000000
,
00001000
00000000
00010000
00000000
00000010
00000000
00000100
00000000
00000010
00000000
00010000
00001000
00000000
01000000
00100000
00000000
,
01000000
00001000
01000000
00010000
01000000
00001000
00010000
00000100
00001000
00000100
00010000
00000100
00001000
00000010
00010000
00001000
,
02000000
00000000
00000000
00000000
03100000
00000000
01000000
00100000
00010000
00100000
01000000
00001000
00010000
00000010
00000100
00000010
,
00020000
00000000
00000000
00000000
00030200
00000000
00001000
00000010
00000000
00000000
00000010
00001000
00000000
00000000
00001000
00000010
,
00000300
00000000
00001000
00000000
00010000
00000000
00100000
00010000
00000000
00010000
00001000
00000000
01000000
00000000
00100000
01000000
,
00002000
00000000
00000000
00000000
02003000
00000000
00010000
00100000
00000000
00000000
00100000
00010000
00000000
00000000
00010000
00100000
,
03000000
00000000
00010000
00000000
00001000
00000000
00000010
00001000
00000000
00001000
00010000
00000000
00000100
00000000
00000010
00000100
,
00020000
00000000
00000000
00000000
00032000
00000000
00010000
00000100
00000000
00000000
00000010
00010000
00000000
00000000
00010000
00000100
,
00003000
00000000
00000010
00000000
00010000
00000000
00001000
00010000
00000000
00010000
01000000
00000000
00010000
00000000
00001000
00000010
,
00000100
00000000
00000010
00000000
00001000
00000000
00010000
00001000
00000000
00001000
01000000
00000000
00100000
00000000
01000000
00001000
,
00020000
00000100
00032000
01000000
00013000
00000000
01001000
00000000
,
02000000
00000000
00000000
00000000
03200000
00000000
01000000
00010000
00000000
00000000
00001000
00010000
00000000
00000000
01000000
00010000
,
00300000
00000000
00001000
00000000
00010000
00000000
00000010
00000100
00000000
00000100
00001000
00000000
00010000
00000000
00000010
00010000
,
00000200
00000000
00000000
00000000
00000320
00000000
00000100
00001000
00000000
00000000
00010000
00001000
00000000
00000000
00000100
00001000
,
00000030
00000000
00010000
00000000
00001000
00000000
00100000
01000000
00000000
01000000
00010000
00000000
00001000
00000000
00100000
00010000
,
02000000
00000000
00000000
00000000
03002000
00000000
00010000
00000010
00000000
00000000
00000010
00000100
00000000
00000000
00010000
00000100
,
00000000
00000000
00000100
00000010
00000000
00000000
00010000
00000010
00000000
00000000
00000010
00000100
00000000
00000000
00013000
00001000
,
02000000
00000000
00000000
00000000
00000000
00000000
00000000
00000000
00000000
00000000
00000000
00000000
00000000
00000000
03100000
00010000
,
00100000
01000000
00001000
00010000
00001000
01000000
00001000
00010000
00000100
00000010
00000100
00010000
00000010
00001000
00000010
00010000
,
00002000
00000000
00000000
00000000
01003000
00000000
00001000
00000000
00010000
00000000
00000010
00000100
00000010
00000000
00010000
00000000
,
00001000
00000000
00100000
01000000
00100000
00000000
00001000
00000000
00022000
00000000
00033000
00000000
00200200
00000000
00300300
00000000
,
02000020
00000000
03000030
00000000
00000010
00000000
00010000
00000000
00001000
00000000
01000000
00100000
01000000
00000000
00001000
00010000
,
00000100
00000010
00000010
00001000
00022000
00033000
02000020
03000030
,
00200200
00300300
00000100
00010000
00000020
00000000
00002030
00000000
,
00003100
00010000
00000010
00010000
00022000
00033000
00200200
00300300
,
02000020
03000030
01000000
00001000
00100000
01000000
00100000
00001000
,
00010000
00000000
00000010
00001000
00000010
00000000
00010000
00000000
00022000
00000000
00033000
00000000
02000020
00000000
03000030
00000000
,
00100200
00010000
02000300
00001000
03000200
00010000
02000300
00001000
,
03000100
01000000
00000100
00010000
00022000
00033000
00200200
00300300
,
01000020
00010000
00200030
00001000
00300020
00010000
00200030
00001000
,
00300010
00100000
00000010
00010000
00022000
00033000
02000020
03000030
,
00100100
00000100
00000010
00001000
,
00010000
00000000
00000000
00000000
00000000
00000000
00100000
00000000
00000000
00000000
00000000
00000000
00010000
00000000
00000000
00000000
00000000
00000000
00001000
00000000
00000000
00010000
00001000
00010000
,
00001000
01000000
00010000
01000000
00001000
00010000
00000010
00001000
00000010
00010000
00001000
01000000
00010000
01000000
00001000
00010000
,
00000010
00000000
00000000
00000010
00000000
00000000
00000100
00000000
00000000
00000100
00000000
00000000
00010000
00000000
00000000
00000000
;
