#TITLE:Undercover;
#SUBTITLE:;
#ARTIST:Hommarju;
#TITLETRANSLIT:;
#SUBTITLETRANSLIT:;
#ARTISTTRANSLIT:;
#GENRE:;
#CREDIT:;
#MUSIC:Undercover.ogg;
#BANNER:Undercover.png;
#BACKGROUND:Undercover-bg.png;
#CDTITLE:./CDTITLES/DANCERUSH.PNG;
#SAMPLESTART:62.769;
#SAMPLELENGTH:15.000;
#SELECTABLE:YES;
#OFFSET:0.000;
#BPMS:0.000=130.000;
#STOPS:;
#BGCHANGES:;
#FGCHANGES:;

//--------------- dance-double - t7r ----------------
#NOTES:
     dance-double:
     t7r:
     Hard:
     12:
     0,0,0,0,0:
00000000
00000000
00000000
00000000
,
00000000
00000000
00000000
00000000
,
00000000
00000000
00000000
00000000
,
00000000
00000000
00000000
00000000
,
00000000
00000000
00000000
00000000
,
20000000
00000000
32000000
00000000
,
03020000
00000000
00000000
00000000
,
00032000
00000000
00003020
00000000
,
00000032
00000000
00000000
00000000
,
00000103
00000100
00000100
00000000
,
10001000
00000000
01000100
00000000
,
10001000
01000100
10001000
00000000
,
00100010
00000000
00010001
00000000
,
00100010
00010001
00100010
00000000
,
01000100
00000000
00100010
00000000
,
01000100
00100010
01000100
00000000
,
00100100
00000000
01000010
00000000
,
00100100
01000010
00100100
00000000
,
00011000
00000000
00000000
00001000
00000000
00001000
01000000
00000000
00100000
10000000
00000000
00010000
,
01000000
00000000
00001000
00100000
00000000
00001000
00010000
00000000
00010000
00000010
00000000
00000100
,
00000010
00000000
00000000
00001000
00000000
00001000
00000100
00000000
00010000
00000100
00000000
00010000
,
00001000
00000000
01000000
00100000
00000000
10000000
00100000
00000000
00100000
01000000
00000000
00001000
,
00100000
00000000
00000000
00010000
00000000
00010000
00000010
00000000
00000001
00000100
00000000
00001000
,
00000100
00000000
00000010
00001000
00000000
00010000
00100000
00000000
00100000
01000000
00000000
10000000
,
01000000
00000000
00000000
11000000
00000000
01000000
00010000
00000000
00001000
00000010
00000000
00000001
,
00000100
00000000
00000100
00001000
00000000
00001000
01000000
00000000
01000000
00100000
00000000
00100000
,
10000000
10001000
10000000
10001000
,
01000000
01000100
01000000
01000100
,
00100000
00100010
00100000
00100010
,
00010000
00010001
00010000
00010001
,
00000001
00000000
00000001
00000010
00000000
00000010
00001000
00000000
00001000
00010000
00000000
00010000
,
10000000
00000000
10000000
00100000
00000000
00100000
00010000
00000000
00010000
00001000
00000000
00001000
,
00000010
00000000
00000100
00000010
00000000
00010000
00000010
00000000
00000000
00100010
00000000
00000000
,
01000100
00000000
00000000
00100100
00000000
00000000
01000010
00000000
00000000
00011000
00000000
00001000
,
01000000
00100000
10000000
00010000
00000000
10000000
01000000
00010000
00001000
00000100
00000000
00000010
,
00001000
00000100
00000010
00000001
00000000
00000100
00000010
00001000
00010000
00100000
00000000
00010000
,
01000000
00100000
10000000
00010000
00000000
10000000
00100000
00010000
00001000
00000010
00000000
00000001
,
00000100
00000010
00001000
00010000
00000000
01000000
00100000
10000000
01000000
00010000
00001000
00010000
,
00000010
00000100
00000001
00001000
00000000
00000010
00001000
00010000
00100000
01000000
00000000
00100000
,
00010000
10000000
01000000
00010000
00000000
00001000
00000010
00000001
00000100
00000010
00010000
00001000
,
00012000
01003000
00021000
00030100
,
00100100
00000000
00000000
01000010
00000000
00000000
00011000
00000000
00000000
00001000
00000000
00001000
,
00020000
00000000
00000000
00031000
,
10000100
10000100
10000100
00000000
,
00100010
00000000
00100010
00000000
,
00100001
00100001
00100001
00000000
,
01000100
00000000
01000100
00000000
,
01000001
01000001
01000001
00000000
,
00100010
00000000
00100010
00000000
,
10000010
10000010
10000010
00000000
,
10000000
00000000
01000000
00100000
00000000
01000000
00100000
00000000
01000000
00100000
00000000
00000000
,
00000010
00000000
00000100
00000001
00000000
00000100
00000001
00000000
00000100
00000001
00000000
00000000
,
00000100
00000000
00000010
00001000
00000000
00000010
00001000
00000000
00000010
00001000
00000000
00000000
,
01000000
00000000
00100000
00001000
00000000
00001000
00010000
00000000
00010000
00001000
00000000
00001000
,
01000000
00010000
01000000
00100000
00000000
10000000
00010000
00000000
00010000
00001000
00000000
00000000
,
00000010
00000100
00000010
00001000
00000000
00000001
00001000
00000000
00001000
00010000
00000000
00010000
,
00100000
00001000
00100000
01000000
00000000
01000000
10000000
00000000
01000000
00100000
00000000
00000000
,
00100010
00000000
00000000
01000100
00000000
00000000
01000001
00000000
00000000
00011000
00000000
00001000
,
01000000
00100000
10000000
00010000
00000000
00001000
00000001
00000010
00000100
00001000
00000000
00010000
,
10000000
00100000
01000000
00010000
00000000
00001000
00000100
00000001
00000100
00000010
00000001
00001000
,
00000001
00000100
00000010
00001000
00000000
00010000
01000000
00100000
10000000
00010000
00000000
10000000
,
01000000
00010000
00001000
00000010
00000000
00000001
00000100
00001000
00010000
00100000
00010000
10000000
,
00010000
01000000
10000000
01000000
00000000
00010000
00001000
00000010
00000001
00000010
00000000
00001000
,
00010000
01000000
10000000
01000000
00010000
00001000
00000010
00000001
00000100
00001000
00010000
00100000
,
00010000
00011000
01000000
01000100
,
00100010
00000000
00000000
01000010
00000000
00000000
00100100
00000000
00000000
00011000
00000000
00001000
,
00020000
00000000
00000000
00000000
,
00030000
00000000
00000000
00000000
;
