#VERSION:0.83;
#TITLE:The Question is What is the Question;
#SUBTITLE:;
#ARTIST:Scooter;
#TITLETRANSLIT:;
#SUBTITLETRANSLIT:;
#ARTISTTRANSLIT:;
#GENRE:;
#ORIGIN:;
#CREDIT:;
#BANNER:The Question is What is the Question.png;
#BACKGROUND:The Question is What is the Question-bg.png;
#PREVIEWVID:;
#JACKET:The Question is What is the Question-jacket.png;
#CDIMAGE:;
#DISCIMAGE:;
#LYRICSPATH:;
#CDTITLE:;
#MUSIC:The Question is What is the Question.ogg;
#OFFSET:0.000000;
#SAMPLESTART:78.168999;
#SAMPLELENGTH:15.000000;
#SELECTABLE:YES;
#BPMS:0.000=142.000;
#STOPS:;
#DELAYS:;
#WARPS:;
#TIMESIGNATURES:0.000=4=4;
#TICKCOUNTS:0.000=4;
#COMBOS:0.000=1;
#SPEEDS:0.000=0.600=0.000=0,
16.000=0.250=1.000=0,
17.000=1.000=3.000=0,
44.000=0.800=1.000=0,
45.000=1.000=1.000=0,
46.000=0.800=1.000=0,
47.000=1.000=1.000=0,
48.000=0.800=1.000=0,
49.000=1.000=1.000=0,
50.000=0.800=1.000=0,
51.000=1.000=1.000=0,
52.000=0.400=2.000=0,
54.000=0.600=2.000=0,
84.000=0.250=1.000=0,
85.000=1.000=3.000=0,
120.000=0.400=1.000=0,
121.000=1.000=3.000=0,
132.000=1.200=1.000=0,
133.000=1.000=1.000=0,
134.000=1.200=1.000=0,
135.000=1.000=1.000=0,
152.000=0.600=4.000=0,
180.000=0.500=1.000=0,
181.000=0.600=1.000=0,
182.000=0.500=1.000=0,
183.000=0.600=1.000=0,
184.000=0.500=1.000=0,
185.000=1.000=3.000=0,
191.000=0.750=1.000=0,
192.000=1.000=1.000=0,
193.000=0.750=1.000=0,
194.000=1.000=1.000=0,
200.000=0.750=1.000=0,
201.000=1.000=1.000=0,
202.000=0.750=1.000=0,
203.000=1.000=1.000=0,
207.000=0.750=1.000=0,
208.000=1.000=1.000=0,
209.000=0.750=1.000=0,
210.000=1.000=1.000=0,
220.000=2.000=0.500=0,
223.000=1.000=4.000=0;
#SCROLLS:0.000=1.000;
#FAKES:;
#LABELS:0.000=Song Start;
#BGCHANGES:;
#KEYSOUNDS:;
#ATTACKS:
;

//---------------dance-double - ----------------
#NOTEDATA:;
#CHARTNAME:;
#STEPSTYPE:dance-double;
#DESCRIPTION:;
#CHARTSTYLE:;
#DIFFICULTY:Challenge;
#METER:14;
#RADARVALUES:0.534317,0.672055,0.414483,0.078949,0.266454,379.000000,337.000000,42.000000,8.000000,0.000000,0.000000,0.000000,0.000000,0.000000,0.534317,0.672055,0.414483,0.078949,0.266454,379.000000,337.000000,42.000000,8.000000,0.000000,0.000000,0.000000,0.000000,0.000000;
#CREDIT:NewbStepper;
#NOTES:
// measure 0
00000000
00000000
00000000
00000000
,  // measure 1
00000000
00000000
00000000
00000000
,  // measure 2
00000000
00000000
00000000
00000000
,  // measure 3
00000000
00000000
00000000
00000000
,  // measure 4
00000000
00000000
00000000
00000000
,  // measure 5
00011000
00000000
00010000
00000100
00001000
00000000
00000010
00000000
00010000
00000000
00001000
00000000
00000010
00000000
00001000
00000000
,  // measure 6
00011000
00000000
00010000
00100000
01000000
00000000
00010000
00110000
,  // measure 7
00000000
00100000
00001000
00001000
00000100
00000000
00000010
00001000
,  // measure 8
00000100
00000110
00000000
00000010
00001000
00010000
00022000
00000000
,  // measure 9
00000000
00000000
00033000
00000000
00000000
00000000
00010000
00000000
00001000
00100000
00001000
00000000
00010000
00000010
00010000
00000000
,  // measure 10
00011000
00000000
01001000
00000000
00011000
00000000
00010100
00000100
,  // measure 11
00001100
00001010
00011000
01010000
,  // measure 12
00110000
00101000
00010010
00011000
,  // measure 13
00022000
00000000
00000000
00033000
,  // measure 14
00010000
00000000
00000000
00001000
00010000
00000000
00000000
00100000
,  // measure 15
00010000
00000000
00000000
00000010
00010000
00000000
00000000
00001000
00010000
00000000
00000000
00000100
00010000
00000000
00001000
00000000
,  // measure 16
00000100
00000000
00000000
00000010
00001000
00000000
00000000
00000100
,  // measure 17
00000010
00000000
00000000
00000010
00001000
00000000
00000000
00001000
00010000
00000000
00000000
00010000
00100000
00000000
01000000
00000000
,  // measure 18
00001000
00000000
00000000
00010000
00001000
00000000
00000000
00000010
,  // measure 19
00001000
00000000
00000000
00100000
00001000
00000000
00000000
00010000
00001000
00000000
00000000
01000000
00001000
00000000
00010000
00000000
,  // measure 20
01000000
00000000
00000000
00100000
00010000
00000000
00000000
01000000
,  // measure 21
00001000
00000000
00000000
00000000
,  // measure 22
00011000
00000000
00000000
00010000
00100000
00000000
01000000
00100000
01000000
00000000
00001000
00000000
00010000
00000000
01000000
00000000
,  // measure 23
00010000
00000000
00000000
00001000
00010000
00000000
00000000
00100000
00010000
00000000
00000000
00000010
00010000
00000000
00001000
00000000
,  // measure 24
00000010
00000000
00000000
00000100
00000010
00000000
00001000
00000000
00010000
00000000
00000010
00000000
00000100
00000000
00000010
00000000
,  // measure 25
00010000
00000000
00000000
00010000
00100000
00000000
00000000
00100000
01000000
00000000
00000000
01000000
00001000
00000000
00010000
00000000
,  // measure 26
00011000
00000000
00000000
00001000
00000010
00000000
00000100
00000010
00000100
00000000
00010000
00000000
00001000
00000000
00000100
00000000
,  // measure 27
00001000
00000000
00000000
00010000
00001000
00000000
00000000
00000010
00001000
00000000
00000000
00100000
00001000
00000000
00010000
00000000
,  // measure 28
00100000
00000000
00000000
01000000
00100000
00000000
00010000
00000000
00001000
00000000
00100000
00000000
01000000
00000000
00100000
00000000
,  // measure 29
00001000
00000000
00000000
00001000
00010000
00000000
00000000
00010000
00000010
00000000
00010000
00000000
00100000
00000000
00010000
00000000
,  // measure 30
00011000
00000000
00000000
00000000
,  // measure 31
00011000
00000000
00001000
01000000
00010000
00000000
00100000
00000000
00001000
00000000
00010000
00000000
00100000
00000000
00010000
00000000
,  // measure 32
00011000
00001000
00010100
00000000
00010000
00001000
00000010
00001000
,  // measure 33
00011000
00000000
00100010
00000000
01000100
00000000
00011000
00010000
,  // measure 34
01000000
00000000
00100000
00010000
01000000
00100000
00010000
00022000
,  // measure 35
00000000
00000000
00033000
00000000
00000000
00000000
00001000
00000000
00010000
00000100
00010000
00000000
00001000
01000000
00001000
00000000
,  // measure 36
00010000
00001000
00010000
00000000
00000100
00000000
00010000
00000000
00011000
00000000
00000000
00000000
00101000
00000000
00100000
00000000
,  // measure 37
00110000
00000000
01010000
00000000
00010000
00100000
01000000
00010000
,  // measure 38
00011000
00010100
01001000
00011000
,  // measure 39
00010000
00001000
00000000
00000010
00000100
00000010
00000000
00001000
,  // measure 40
00010000
00001000
00000100
00000010
00000100
00001000
00010000
00001000
,  // measure 41
00100000
00010000
00000000
01000000
00100000
01000000
00000000
00010000
,  // measure 42
00100000
00001000
00010000
00100000
00010000
00001000
00000010
00001000
,  // measure 43
00010000
00001000
00000000
00000100
00000010
00000100
00000000
00001000
,  // measure 44
00010000
00001000
00000010
00000100
00000010
00001000
00010000
00001000
,  // measure 45
01000000
00100000
00010000
00001000
,  // measure 46
00000100
00000010
00000100
00001000
,  // measure 47
00011000
00000000
00000000
00010000
00100000
00000000
01000000
00100000
01000000
00000000
00010000
00000000
00100000
00000000
00001000
00010000
,  // measure 48
00100000
00000000
00010000
00001000
00100000
00000000
00001000
00010000
00000010
00000000
00010000
00001000
00000010
00000000
00000100
00001000
,  // measure 49
00000010
00000000
00000000
00000010
00010000
00000000
00001000
00010000
00001000
00000000
00000010
00000000
00001000
00000000
00010000
00000000
,  // measure 50
00001000
00000000
00100000
00010000
01000000
00000000
00100000
00010000
00001000
00000000
00100000
00010000
01000000
00000000
00100000
00010000
,  // measure 51
00001000
00000000
00000000
00001000
00000010
00000000
00000100
00000010
00000100
00000000
00001000
00000000
00000010
00000000
00010000
00001000
,  // measure 52
00000010
00000000
00001000
00010000
00000010
00000000
00010000
00001000
00100000
00000000
00001000
00010000
00100000
00000000
01000000
00010000
,  // measure 53
00100000
00000000
00000000
00100000
00001000
00000000
00010000
00000000
01000000
00000000
00010000
00000000
00001000
00000000
00000100
00000000
,  // measure 54
00001000
00011000
00010010
00101000
,  // measure 55
00022000
00000000
00000000
00000000
,  // measure 56
00000000
00000000
00000000
00033000
;
