#TITLE:THESE BOOTS ARE MADE FOR WALKING;
#SUBTITLE:;
#ARTIST:BARCODE BROTHERS;
#TITLETRANSLIT:;
#SUBTITLETRANSLIT:;
#ARTISTTRANSLIT:;
#GENRE:EURO HOUSE;
#CREDIT:;
#BANNER:thesebootsaremadeforwalking-bn.jpg;
#BACKGROUND:thesebootsaremadeforwalking-bg.jpg;
#LYRICSPATH:;
#CDTITLE:cdtitle.png;
#MUSIC:thesebootsaremadeforwalking.ogg;
#OFFSET:-0.008570;
#SAMPLESTART:77.204002;
#SAMPLELENGTH:13.536000;
#SELECTABLE:YES;
#BPMS:0.000000=164.000000
;
#STOPS:
;
#BGCHANGES:;
#KEYSOUNDS:;
#ATTACKS:;

//---------------dance-double - ----------------
#NOTES:
     dance-double:
     :
     Hard:
     10:
     0.477049,0.572266,0.264405,0.166477,0.000000,341.000000,314.000000,27.000000,17.000000,0.000000,0.000000,0.477049,0.572266,0.264405,0.166477,0.000000,341.000000,314.000000,27.000000,17.000000,0.000000,0.000000:
// measure 0
00000000
00000000
00000000
00000000
,  // measure 1
00000000
00000000
00000000
00000000
,  // measure 2
00000000
00000000
00000000
00000000
,  // measure 3
00000000
00000000
00000000
00000000
,  // measure 4
02000200
00000000
00000000
00000000
,  // measure 5
03000300
00000000
00000000
00000000
,  // measure 6
01000000
00000000
00001000
00100000
00000000
00100000
00001000
00000000
,  // measure 7
00010000
00000000
00001000
00010000
00000000
00010000
00001000
00000000
,  // measure 8
00010000
00000000
00000100
00010000
00000000
00010000
00000100
00000000
,  // measure 9
00000020
00000000
00000000
00000030
,  // measure 10
00000001
00000000
00001000
00000000
00000010
00001000
00010000
00000000
,  // measure 11
10000000
00000000
00010000
00000000
00100000
00010000
00001000
00000000
,  // measure 12
00000100
00000000
00000010
00000000
00000001
00001000
00000001
00000000
,  // measure 13
00000001
00000100
00001000
00010000
01000000
10000000
00010000
00000000
,  // measure 14
10000000
00000000
00100000
00000000
01000000
00010000
00001000
00000000
,  // measure 15
00000001
00000000
00000010
00000000
00000100
00001000
00010000
00000000
,  // measure 16
10000000
00000000
00101000
00011000
,  // measure 17
00010010
00000000
00000000
00000000
,  // measure 18
00000001
00000000
00000010
00000000
00000001
00000100
00000010
00000000
,  // measure 19
00010000
00000000
00001000
00000000
00010000
01000000
00100000
00000000
,  // measure 20
00010000
00000000
10000000
00000000
00100000
01000000
00100000
00000000
,  // measure 21
10000000
00100000
00010000
00001000
00000010
00000001
00001000
00000000
,  // measure 22
00000001
00000000
00000100
00000000
00001000
00010000
00001000
00000000
,  // measure 23
00010000
00000000
01000000
00000000
10000000
00010000
10000000
00000000
,  // measure 24
00010000
00000000
00101000
00011000
,  // measure 25
00010010
00000000
00000000
00001000
,  // measure 26
00000001
00000000
00000000
00000011
00000000
00000010
00001000
00010000
,  // measure 27
01000000
00000000
00000000
10010000
00000000
10000000
00100000
00010000
,  // measure 28
00100000
00000000
00000000
10100000
00000000
00100000
00010000
00001000
,  // measure 29
00000100
00000000
00000000
00001001
00000000
00000001
00000010
00001000
,  // measure 30
00000010
00000100
00010000
00001000
,  // measure 31
02000000
00000000
03000200
00000000
,  // measure 32
00200300
00000000
00310000
00000000
,  // measure 33
10000000
00100000
10000000
00100000
00010000
00100000
00010000
00100000
,  // measure 34
00010000
00001000
00010000
00001000
00000100
00001000
00000100
00001000
,  // measure 35
00000100
00000001
00000100
00000001
00001000
00000001
00001000
00000001
,  // measure 36
00000010
00000200
02000000
03000300
,  // measure 37
01010000
00000000
10010000
00000000
10000000
00100000
00000000
00000000
,  // measure 38
00011000
00000000
00001010
00000000
00000010
00000100
00000000
00000000
,  // measure 39
00000001
00001000
00000001
00000100
00001000
00010000
01000000
00000000
,  // measure 40
10000000
00010000
10000000
01000000
00010000
00001000
00000100
00000000
,  // measure 41
00000101
00000000
00001001
00000000
00000001
00000010
00000000
00000000
,  // measure 42
00011000
00000000
00110000
00000000
00100000
01000000
00000000
00000000
,  // measure 43
10000000
00100000
10000000
01000000
00010000
00001000
00000100
00000000
,  // measure 44
00000001
00000010
00000001
00000100
00001000
00010000
01000000
00000000
,  // measure 45
00200000
00000000
00001000
00000000
00301000
00010000
00000000
00010000
,  // measure 46
00002000
00000000
00000100
00000000
00003100
00000001
00000000
00001000
,  // measure 47
00000001
00000010
00001000
00010000
00100000
10000000
00010000
00000000
,  // measure 48
10000000
01000000
00010000
00001000
00000100
00000001
00001000
00000000
,  // measure 49
00000020
00000000
00010000
00000000
00010030
00001000
00000000
00001000
,  // measure 50
00020000
00000000
01000000
00000000
01030000
10000000
00000000
00010000
,  // measure 51
10000000
00100000
00010000
00001000
00000010
00000001
00001000
00000000
,  // measure 52
00000001
00000100
00001000
00010000
01000000
10000000
00010000
00000000
,  // measure 53
10010000
00000000
00000000
10100000
00000000
00100000
00010000
00001000
,  // measure 54
00000100
00000000
00000000
00000101
00000000
00000001
00000010
00001000
,  // measure 55
00000010
00000000
00000000
00000011
00000000
00000010
00001000
00010000
,  // measure 56
01000000
00000000
00000000
11000000
00000000
10000000
00100000
00010000
,  // measure 57
00100000
01000000
00001000
00010000
,  // measure 58
00000200
00000000
02000300
00000000
,  // measure 59
03000020
00000000
00001030
00000000
,  // measure 60
00000001
00000000
00000010
00000100
00000000
00010000
00001000
00010000
,  // measure 61
01000000
00000000
10000000
00010000
00000000
00010000
10000000
00100000
,  // measure 62
10000000
00000000
00100000
01000000
00000000
00001000
00010000
00001000
,  // measure 63
00000100
00000000
00000001
00001000
00000000
00001000
00000001
00000010
,  // measure 64
00000001
00000000
00000010
00001000
00010000
01000000
00100000
00000000
,  // measure 65
00010000
10000000
00100000
10000000
00010000
00000000
10010000
00000000
,  // measure 66
10100000
00000000
00100000
00010000
00001000
00000100
00000010
00000000
,  // measure 67
00001000
00000001
00000010
00000001
00001000
00000000
00000010
00000000
,  // measure 68
00200020
00000000
00000000
00300030
;
