#TITLE:Strange Attraktor;
#SUBTITLE:;
#ARTIST:schwarzekugel;
#TITLETRANSLIT:;
#SUBTITLETRANSLIT:;
#ARTISTTRANSLIT:;
#GENRE:;
#CREDIT:Telperion;
#BANNER:Strange Attraktor.png;
#BACKGROUND:Strange Attraktor-bg.png;
#LYRICSPATH:;
#CDTITLE:;
#MUSIC:Strange Attraktor.ogg;
#OFFSET:-0.366000;
#SAMPLESTART:81.469002;
#SAMPLELENGTH:26.483000;
#SELECTABLE:YES;
#BPMS:0.000000=145.000000
;
#STOPS:
;
#BGCHANGES:3.000=Strange Attraktor.avi=1.000=0=0=0=StretchNoLoop==CrossFade_Fastest==,
99999=-nosongbg-=1.000=0=0=0 // don't automatically add -songbackground-
;
#KEYSOUNDS:;
#ATTACKS:;

//---------------dance-double - Telperion----------------
#NOTES:
     dance-double:
     Telperion:
     Hard:
     14:
     0.784779,0.747553,0.000000,0.148855,0.903762,775.000000,775.000000,0.000000,21.000000,0.000000,0.000000,0.784779,0.747553,0.000000,0.148855,0.903762,775.000000,775.000000,0.000000,21.000000,0.000000,0.000000:
00000000
00000000
00000000
00000000
,
00000000
00000000
00000000
00000000
,
00000000
00000000
00000000
00000000
,
00000000
00000000
00000000
00000000
,
00000000
00000000
00000000
00000000
,
00020000
00000000
00000000
00000010
00000000
00000000
00031000
00000000
00000000
00000000
00010000
00000000
00000000
00000000
00000010
00000000
,
00002000
00000000
00000000
00000100
00000000
00000000
00003001
00000000
00000000
00000000
00001000
00000000
00000000
00000000
00000100
00010000
,
00002000
00000000
00000000
00100000
00000000
00000000
00013000
00000000
00000000
00000000
00001000
00000000
00000000
00000000
00100000
00000000
,
00020000
00000000
00000000
01000000
00000000
00000000
10030000
00000000
00010000
00000000
01000000
00000000
00002000
00000000
00000000
00000000
,
00103000
00000000
00010000
00000000
10000000
00000000
00100000
10000000
00100000
00000000
01000000
00000000
00010000
10000000
00000000
10000000
,
01000000
00000000
00100000
00001000
00100000
00000000
00010000
01000000
00010000
00000000
00100000
00000000
00001000
00010000
00000010
00000000
,
00001000
00000000
00000001
00000100
00000001
00000000
00000010
00000000
00000100
00001000
00000100
00000000
00000010
00000000
00000001
00001000
,
00000100
00000000
00000000
00010000
00000000
00000000
00001000
00000000
00010000
00000000
00000010
00000000
00000200
00000000
00000000
00000000
,
00000301
00000000
00001000
00000010
00001000
00000000
00000100
00010000
00000100
00000000
00000000
00000100
00001000
00000000
00000010
00000000
,
00010000
00001000
00010000
00001000
00100000
00000000
00010000
01000000
00010000
00000000
00000000
00010000
00100000
00000000
01000000
10000000
,
00010000
00000000
01000000
00000000
00001000
00000000
00010000
00000000
00000100
00001000
00000100
00001000
00000100
00001000
00000100
00001000
,
00000001
00000000
00000000
00000000
00020000
00000000
00032000
00000000
01003000
00010000
01000000
00010000
00200000
00000000
00000000
00000000
,
01300000
00000000
10000000
01000000
00100000
00000000
00010000
00000000
01000000
00000000
00001000
00000000
01000000
00000000
00010000
00100000
,
00000000
00100000
01000000
00000000
10000000
00000000
00010000
00000000
01000000
00001000
01000000
00000000
00010000
00000000
00100000
00000000
,
00001000
00000000
00010000
00000100
00001000
00000000
00000010
00000000
00000100
00000000
00000001
00000000
00000100
00000000
00000010
00001000
,
00000000
00001000
00000100
00000000
00010000
00000000
00000010
00000000
00001000
00000001
00000010
00000000
00000100
00000000
00001000
00000100
,
00001000
00000000
00000001
00000100
00000010
00000000
00001000
00000000
00000100
00000000
00010000
00000000
00000100
00000000
00001000
00000010
,
00000000
00000010
00000100
00000000
00000001
00000000
00001000
00000000
00000100
00010000
00000100
00000000
00001000
00000000
00000010
00000000
,
00010000
00000000
00001000
01000000
00010000
00000000
00100000
00000000
01000000
00000000
10000000
00000000
01000000
00000000
00100000
00010000
,
00000000
00010000
01000000
00000000
00001000
00000000
00100000
01000000
10000000
01000000
00100000
00000000
00010000
01000000
00001000
00000000
,
00020000
00000000
00030010
00001000
00000010
00000000
00010000
00000000
00001000
00000000
00100000
00000000
00010000
01000000
00100000
10000000
,
00000000
00000000
10000000
00000000
01000000
00000000
00100000
00001000
00010000
00001000
00100000
00000000
00010000
00000000
01000000
00000000
,
00002000
00000000
00103000
00010000
00100000
00000000
00001000
00000000
00010000
00000000
00000010
00000000
00001000
00000100
00000010
00000001
,
00000000
00000000
00000001
00000100
00000010
00000000
00010000
00000000
00002000
00000000
00100000
00000000
00013000
00000100
00010000
00000000
,
00002000
00000000
01003000
00010000
01000000
00000000
00001000
00000000
00010000
00000000
00000100
00000000
00001000
00000010
00000100
00000001
,
00000000
00000000
00000001
00000000
00000010
00000000
00000100
00010000
00001000
00010000
00000100
00000000
00001000
00000000
00000010
00000000
,
00020000
00000000
00030100
00001000
00000100
00001000
00000001
00000000
00010000
00001000
00010000
00001000
00010000
00001000
00010000
00001000
,
00100000
00000000
01000000
00000000
10000000
00000000
00100000
01000000
00010000
01000000
00000000
01000000
00002000
00000000
00000000
00000000
,
00013000
00000010
00010000
00000010
00001000
00000000
00000100
00000000
00000010
00000001
00000010
00000000
00001000
00000000
00000000
00000000
,
00010000
00000000
00001000
00000000
01000000
00010000
01000000
00000000
00100000
10000000
00100000
00000000
00010000
00000000
00000000
00000000
,
00001000
00000000
01000000
00010000
01000000
00010000
00100000
00000000
00001000
00010000
00000000
00010000
00000010
00000000
00000100
00000001
,
00000100
00000000
00000010
00001000
00000000
00000100
00010000
00000000
00001000
00100000
00010000
00100000
01000000
00000000
00000000
00000000
,
10000000
00100000
10000000
00000000
00010000
01000000
00010000
00100000
00010000
00000000
10000000
01000000
00100000
00000000
00001000
00000000
,
00010000
00000010
00010000
00000010
00001000
00000000
00000100
00010000
00001000
01000000
00001000
00000000
00100000
00010000
00100000
00000000
,
00001000
00000000
00010000
00000000
00000010
00000100
00000001
00000000
00001000
00000100
00001000
00000010
00001000
00000000
00000000
00000000
,
00000001
00000100
00000001
00000000
00000010
00000100
00001000
00000100
00010000
00000000
00001000
01000000
00100000
00000000
00000000
00000000
,
10000000
00000000
00010000
00100000
00001000
00100000
00010000
00000000
10000000
01000000
10000000
01000000
00100000
00000000
00000000
00001000
,
00010000
00000010
00010000
00000000
00001000
00100000
00001000
00000000
00010000
00000100
00010000
00000100
00001000
00000000
00000000
00000000
,
00000001
00000100
00000001
00001000
00000010
00000000
00010000
00000000
00000100
00000000
00000010
00000100
00010000
00000000
00000000
00000000
,
00001000
00100000
00010000
00000000
10000000
00100000
01000000
00000000
00010000
00100000
01000000
00000000
00010000
00000000
00001000
00000000
,
00000010
00000100
00001000
00000100
00010000
00000000
00001000
00000000
00000100
00000010
00000100
00000000
00000001
00000000
00001000
00000100
,
00010000
00000000
00001000
00100000
00000000
00001000
00010000
00000000
00000100
00000000
00001000
00000010
00000100
00000000
00000000
00000000
,
00000001
00001000
00000000
00000100
00010000
00001000
00000000
00100000
00010000
10000000
00000000
00100000
01000000
00000000
00010000
00000000
,
10000000
00000000
00100000
01000000
00010000
01000000
00001000
00000000
00010000
00000100
00001000
00000100
00000010
00000000
00000000
00000000
,
00000001
00001000
00000001
00000100
00000000
00000100
00000010
00000000
00010000
00000000
00001000
00010000
00001000
00100000
00001000
00010000
,
00000000
00000010
00000000
00001000
00000000
00000000
00000001
00000000
00000010
00000100
00000010
00000100
00002000
00000000
00000000
00000000
,
00003001
00000100
00000001
00000010
00000000
00000010
00000100
00000000
00010000
00000000
00001000
00100000
00010000
00100000
00001000
00010000
,
00000000
00000010
00000000
00100000
00000000
00000000
00001000
00010000
00001000
00000000
00001000
00000000
00100000
00000000
00000000
00000000
,
00010000
10000000
01000000
10000000
00000000
00010000
01000000
00010000
00000000
00000000
10000000
01000000
10000000
00010000
01000000
00010000
,
00000000
00100000
00000000
00001000
00000000
00000000
00010000
00000000
01000000
00100000
01000000
00100000
00020000
00000000
00000000
00000000
,
01030000
00001000
00010000
00001000
00000000
00001000
00100000
00000000
00010000
00000000
00100000
00000000
00001000
00000000
01000000
00000000
,
00000100
00010000
00001000
00010000
00000000
00000000
00000010
00001000
00000010
00000000
00000100
00000001
00000020
00000000
00000000
00000000
,
00000130
00001000
00000100
00010000
00000000
00010000
00001000
00000000
00100000
00000000
00010000
00000000
01000000
00000000
00100000
00000000
,
10000000
00010000
00000000
00010000
00100000
00000000
00001000
00000000
01000000
00010000
00100000
00000000
01000000
10000000
00100000
00000000
,
01000000
00010000
01000000
00001000
00000000
00001000
00010000
00000000
00000010
00000000
00001000
00000000
00000100
00000000
00000010
00000000
,
00000001
00001000
00000000
00001000
00000000
00000000
00000100
01000000
00010000
00000000
00000000
00000000
00100000
00000000
00010000
10000000
,
00010000
00000000
00100000
01000000
00000000
10000000
01000000
00000000
00100000
00000000
00010000
01000000
00001000
00000000
00010000
00000010
,
00001000
00000000
00000100
00000010
00000000
00000001
00000100
00000001
00000000
00001000
00000010
00001000
00000000
00000100
00010000
00000000
,
00001000
00100000
00001000
00000000
00010000
00000010
00010000
00000000
00001000
00010000
00001000
00010000
00001000
00010000
00001000
00010000
,
00000010
00000000
00000100
00000000
00001000
00000000
00010000
00000000
00100000
00000000
10000000
01000000
00200000
00000000
00000000
00000000
,
00310000
00000000
01000000
00000000
00001000
00000000
00100000
00010000
00100000
00001000
00100000
00010000
10000000
00000000
00000000
00000000
,
00100000
01000000
00100000
01000000
00010000
00000000
00100000
00001000
00100000
00001000
00010000
00000000
01000000
00000000
00000000
00000000
,
10000000
00000000
00100000
10000000
00100000
00000000
01000000
00001000
01000000
00001000
00010000
00000000
00000010
00001000
00000010
00000000
,
00000100
00000000
00000001
00000000
00000000
00000000
00000001
00000000
00001000
00000100
00001000
00000000
00000010
00000000
00000000
00000000
,
00010000
00001000
00010000
00000000
00000010
00000000
00000100
00000001
00001000
00000001
00000010
00000000
00000100
00000000
00010000
00001000
,
00010000
00000010
00000000
00000010
00000100
00000000
00000001
00000000
00001000
00000100
00000010
00000000
00000100
00000000
00000000
00000000
,
00010000
00000010
00010000
00000000
00001000
00100000
00001000
00000000
00010000
00000100
00010000
00000100
00001000
00000000
00000010
00010000
,
00001000
00000000
00100000
00000000
00010000
01000000
00010000
00000000
10000000
00100000
01000000
00000000
00002000
00000000
00000000
00000000
,
00013000
00000010
00010000
00000000
00000100
00000000
00001000
00000000
00000001
00000010
00000001
00000000
00000100
00000000
00000000
00000000
,
00000010
00001000
00000010
00000000
00010000
00001000
00010000
00000000
00000100
00001000
00000100
00000000
00000010
00000000
00000000
00000000
,
00001000
00010000
00001000
00010000
00000010
00000000
00001000
00000100
00001000
00000100
00010000
00000000
00001000
00100000
00010000
00000000
,
01000000
00000000
00100000
00000000
10000000
00100000
01000000
00000000
00001000
00000000
00100000
00000000
00010000
00100000
01000000
00000000
,
10000000
00010000
01000000
00000000
00001000
00010000
00000100
00000000
00010000
00001000
01000000
00010000
00100000
00000000
00000000
01000000
,
10000000
00010000
01000000
00000000
00001000
00000000
00010000
00000000
00000100
00001000
00000001
00000000
00000010
00000000
00000000
00000000
,
00000100
00001000
00000010
00000000
00010000
00000000
00001000
00000000
00010000
00000010
00001000
00000000
00000100
00000010
00000001
00000000
,
00001000
00000000
00000010
00000000
00000100
00000001
00000100
00000000
00000010
00001000
00000010
00010000
00001000
00100000
00010000
00100000
,
02000000
03000000
00000000
00000000
00000000
00000000
00000000
00000000
;

//---------------dance-double - Telperion----------------
#NOTES:
     dance-double:
     Telperion:
     Challenge:
     17:
     0.682505,0.747553,0.070883,0.432388,0.598964,674.000000,664.000000,10.000000,61.000000,0.000000,0.000000,0.682505,0.747553,0.070883,0.432388,0.598964,674.000000,664.000000,10.000000,61.000000,0.000000,0.000000:
// measure 0
00000000
00000000
00000000
00000000
,  // measure 1
00000000
00000000
00000000
00000000
,  // measure 2
00000000
00000000
00000000
00000000
,  // measure 3
00000000
00000000
00000000
00000000
,  // measure 4
00000000
00000000
00000000
00000000
,  // measure 5
00020000
00000000
00000000
00000010
00000000
00000000
00031000
00000000
00000000
00000000
00100000
00000000
00000000
00000000
00010000
00000000
,  // measure 6
20000000
00000000
00000000
00100000
00000000
00000000
30010000
00000000
00000000
00000000
01000000
00000000
00000000
00000000
00001000
00010000
,  // measure 7
00002000
00000000
00000000
00100000
00000000
00000000
00013000
00000000
00000000
00000000
00000010
00000000
00000000
00000000
00001000
00000000
,  // measure 8
00000002
00000000
00000000
00000010
00000000
00000000
00002003
00000000
00003200
00000000
00000000
00000000
02000300
00000000
00000000
00000000
,  // measure 9
03020000
00000000
00000000
00001000
00000000
00000000
01000000
00000000
00000000
10000000
00000000
00000000
00130000
00000000
01000000
00000000
,  // measure 10
00020000
00000000
00000000
10000000
00000000
00000000
01000000
00000000
00000000
00001000
00000000
00000000
01030000
00100000
01000000
00000000
,  // measure 11
00002000
00000000
00000000
00010000
00000000
00000000
00000100
00000000
00000000
00000001
00000000
00000000
00003010
00000000
00000100
00000000
,  // measure 12
00002000
00000000
00000000
00000001
00000000
00000000
00000100
00000000
00000000
00010000
00000000
00000000
01003000
00000000
00000000
00010000
,  // measure 13
10000000
00000000
00000000
00000000
01000000
00000000
00010000
00001000
00000200
00000000
00000000
00000000
00001300
00000000
00010000
00000000
,  // measure 14
00000010
00001000
00000010
00001000
00000001
00000000
00000010
00000100
00020000
00000000
00000000
00000000
00031000
00000000
01000000
00001000
,  // measure 15
00010000
00000000
01000000
00000000
10000000
00000000
00100000
00000000
00010000
00001000
00010000
00100000
10000000
00010000
01000000
00001000
,  // measure 16
00010000
00000000
00000000
00000000
00000200
00000000
00000000
00000000
00001300
00000001
00001000
00000001
00000010
00000000
00000000
00000000
,  // measure 17
00000100
00000000
00010000
01000000
00010000
00000000
00001000
00000000
00100000
00000000
10000000
00000000
00100000
00000000
00010000
10000000
,  // measure 18
00000000
10000000
01000000
00000000
00010000
00000000
00000100
00000000
00001000
00000001
00000010
00000000
00001000
00000000
00010000
00000000
,  // measure 19
02000000
00000000
00000000
03001000
00000100
00000000
00010000
00000000
00000010
00000000
00000001
00000000
00000010
00000000
00001000
00000001
,  // measure 20
00000000
00000001
00000100
00000000
00001000
00000000
01000000
00000000
00010000
10000000
01000000
00000000
00010000
00000000
00001000
00000000
,  // measure 21
00000020
00000000
00000000
00010030
00100000
00000000
00001000
00000000
01000000
00000000
10000000
00000000
01000000
00000000
00010000
10000000
,  // measure 22
00000000
10000000
00100000
00000000
00010000
00000000
00000010
00000000
00001000
00000001
00000100
00000000
00001000
00000000
00010000
00000000
,  // measure 23
00200000
00000000
00000000
00301000
00000010
00000000
00010000
00000000
00000100
00000000
00000001
00000000
00000100
00000000
00001000
00000001
,  // measure 24
00000000
00000001
00000010
00000000
00001000
00000000
00100000
00010000
10000000
00000000
00100000
00000000
01000000
00001000
00010000
00000000
,  // measure 25
01000000
00000000
10000000
00100000
00010000
00000000
00001000
00000000
01000000
00000000
00000010
00000000
00010000
00000000
00100000
10000000
,  // measure 26
00000000
10000000
00010000
00000000
00100000
00000000
01000000
00000000
10000000
01000000
00010000
00000000
00001000
00000010
00000001
00000000
,  // measure 27
00000100
00000000
00000001
00000010
00001000
00000000
00010000
00000000
00000100
00000000
00100000
00000000
00001000
00000000
00000010
00000001
,  // measure 28
00000000
00000001
00001000
00000000
00000010
00000000
00000100
00000000
00000002
00000000
00010000
00000000
00000103
00001000
00010000
00000000
,  // measure 29
00100000
00000000
10000000
01000000
00010000
00000000
00001000
00000000
00100000
00000000
00000010
00001000
00000100
00000000
00010000
01000000
,  // measure 30
00000000
01000000
10000000
00000000
00010000
00000000
01000000
00000000
10000000
01000000
00100000
00010000
00001000
00000000
01000000
00000000
,  // measure 31
00010000
00000000
10000000
01000000
00010000
00001000
00100000
00000000
00000010
00010000
00001000
00000100
00000010
00001000
00000001
00000010
,  // measure 32
00000200
00000000
00000000
00000000
00000000
00000000
00000000
00000000
00000000
00000000
00010300
00000100
00010000
00000000
00000000
00000000
,  // measure 33
00001000
00100000
02000000
00000000
10000000
00000000
03010000
00000000
00001000
00000100
00000020
00000000
00000001
00000000
00000000
00000000
,  // measure 34
00001030
00000000
00000100
00000000
00010000
01000000
10000000
00000000
00100000
00010000
00001000
00000100
00000001
00000000
00000000
00000000
,  // measure 35
00020000
00000000
00000010
00000000
00031000
00000100
00000001
00000000
00000010
00001000
00000000
00001000
00010000
00000000
00000000
00000000
,  // measure 36
01000000
00000000
00000000
00001000
00000000
00000000
00000001
00000000
00000100
00001000
00010000
00100000
10000000
00000000
00000000
00000000
,  // measure 37
00002000
00000000
00100000
00000000
10003000
01000000
00010000
00000000
00001000
00000000
01000000
00100000
00020000
00000000
00000010
00000000
,  // measure 38
00030001
00000100
00001000
00000100
00000001
00000000
00010000
00000000
00000100
00000010
00001000
00000000
00010000
01000000
10000000
00000000
,  // measure 39
00200000
00000000
01000000
00000000
10300000
00100000
00010000
00000000
00001000
00000100
00000010
00010000
00000002
00000000
00000000
00000000
,  // measure 40
00000023
00000000
00000100
00000000
00000031
00000010
00001000
00000000
00010000
00000000
01000000
00000000
10010000
00000000
00000000
00000000
,  // measure 41
00002000
00000000
01000000
00000000
00013000
00100000
10000000
00000000
01000000
00010000
00001000
00000010
00000001
00000000
00000000
00000000
,  // measure 42
00000100
00001000
00010000
00000000
01000000
00010000
00001000
00000000
00000100
00001000
00010000
00100000
10000000
00000000
00000000
00000000
,  // measure 43
00010000
00000000
01000000
00001000
00000100
00000000
00000010
00000000
00001000
00000000
00000100
00010000
01000000
00000000
00000000
00000000
,  // measure 44
20000000
00000000
00010000
00000000
30100000
10000000
01000000
00000000
00010000
00001000
00000010
00000000
00000002
00000000
00000100
00000000
,  // measure 45
00001003
00000000
00000010
00010000
00100000
00000000
01000000
00000000
00010000
00100000
00001000
00000000
00000010
00000000
00000100
00010000
,  // measure 46
00001000
00000000
00000100
00001000
00000000
00010000
02000000
00000000
10000000
00000000
03010000
00001000
00000010
00000000
00000000
00000000
,  // measure 47
00000001
00000000
00000100
00001000
01000000
00001000
00010000
00000000
00100000
00010000
00000010
00010000
00001000
00000000
00000000
00000000
,  // measure 48
00100000
00000000
01000000
00010000
00000100
00010000
00001000
00000000
00000010
00001000
00010000
01000000
10000000
01000000
00100000
00010000
,  // measure 49
02000000
00100000
00000000
03002000
00000000
00000010
00000000
00023000
,  // measure 50
00000000
00000000
00100000
00000000
00000000
00000000
00032000
00000000
10003000
01000000
00100000
00001000
00010000
00000000
00000000
00000000
,  // measure 51
00000200
00000010
00000000
00020300
00000000
00100000
00000000
00032000
,  // measure 52
00000000
00000000
00000010
00000000
00000000
00000000
00023000
00000000
00030001
00000000
00000100
00000000
00001000
00010000
00100000
00000000
,  // measure 53
20000000
01000000
00000000
30002000
00000000
00100000
00000000
00023000
,  // measure 54
00000000
00000000
00000010
00000000
00000000
00000000
00031000
00000000
01000000
00100000
00010000
00001000
00000100
00000000
00000000
00000000
,  // measure 55
00000002
00000010
00000000
00020003
00000000
00000010
00000000
00032000
,  // measure 56
00000000
00000000
00100000
00000000
00000000
00000000
00013000
00001000
00100000
00000000
01000000
00000000
10010000
00000000
00000000
00000000
,  // measure 57
01000000
00001000
00000000
00010000
00000001
00001000
00000100
00000000
,  // measure 58
00010000
00000000
01000000
00000000
10000000
00000000
00100000
00000000
01000000
10000000
01000000
00100000
00010000
00001000
00000100
00000001
,  // measure 59
00000010
00000100
00000000
00100000
00001000
01000000
00000000
00000010
,  // measure 60
00010000
00000000
00000000
00000000
00000001
00000000
00001000
00000100
00000001
00000000
00001000
00000000
00010000
00000000
00100000
10000000
,  // measure 61
01000000
00000000
11000000
00000000
10010000
00000000
01010000
00001000
,  // measure 62
00101000
00000000
00011000
00000000
00010010
00000000
00001010
00000001
,  // measure 63
00000101
00000000
00000100
00000000
00000010
00000000
00001000
00000000
00000100
00000001
00000100
00000010
00001000
00010000
01000000
10000000
,  // measure 64
00100000
00000000
01000000
00000000
10000000
00000000
01000000
00000000
00100000
00000000
00010000
00001000
00000020
00000000
00000000
00000000
,  // measure 65
00000032
00000000
00000100
00000000
00001003
00000000
00000001
00000100
00001000
00010000
00100000
01000000
00010000
00000000
00000000
00000000
,  // measure 66
10000000
01000000
00010000
00001000
00100000
00000000
00000010
00010000
00001000
00000100
00000001
00000000
00000010
00000000
00000000
00000000
,  // measure 67
00000100
00000000
00000001
00000100
00001000
00000000
00010000
01000000
10000000
00000000
01000000
00000000
00010000
00100000
00010000
00000000
,  // measure 68
01000000
00000010
00000000
00010000
00000100
00100000
00001000
00000000
,  // measure 69
10000000
00010000
02000000
00000000
10000000
00000000
03100000
00010000
00001000
00010000
00000200
00000000
00000001
00000000
00000310
00001000
,  // measure 70
00010000
00000000
02000000
00000000
00100000
00000000
13000000
00000000
01000000
00010000
00001000
00000000
00000010
00000000
00000100
00000000
,  // measure 71
00020000
00000000
00100000
00000000
00032000
00000000
00000010
00000000
00013000
00100000
01000000
00000000
00001000
00000000
10000000
00100000
,  // measure 72
00020000
00000000
00001000
00000000
00130000
01000000
00010000
00000000
10000000
01000000
00010000
00001000
00000010
00000000
00000000
00000000
,  // measure 73
00000001
00000100
00002000
00000000
00010000
00000000
00003100
00000000
00000001
00000010
00001000
00000000
00010000
00000000
00000000
00000000
,  // measure 74
00002000
00000000
01000000
00000000
20003000
00000000
00100000
00000000
30001000
00010000
01000000
00000000
10000000
00000000
00000000
00000000
,  // measure 75
00100000
00010000
00001000
00010000
00000010
00000000
00001000
00000000
00000200
00000000
00010000
00000000
01000300
00000000
00000000
00000000
,  // measure 76
00100000
00000000
10000000
01000000
00010000
00001000
00100000
00000000
00010000
00000000
01000000
00000000
00001000
00010000
00100000
00000000
,  // measure 77
10000000
01000000
00020000
00000000
00001000
00000000
01030000
00000000
10000000
00100000
00010000
00000000
00001000
00000000
00000000
00000000
,  // measure 78
00020000
00000000
00000100
00000000
00030002
00000000
00000010
00000000
00010003
00001000
00000100
00000000
00000001
00000000
00000000
00000000
,  // measure 79
00000010
00001000
00010000
00001000
00100000
00000000
01000000
00000000
10000000
01000000
00010000
00000000
00001000
00000100
00000001
00000000
,  // measure 80
00000010
00000000
00000100
00000000
00001000
00000000
00000010
00000000
00000001
00000010
00000100
00001000
00010000
01000000
00100000
00010000
,  // measure 81
20000000
30000000
00000000
00000000
00000000
00000000
00000000
00000000
;
