#VERSION:0.83;
#TITLE:Step Back In Time;
#SUBTITLE:;
#ARTIST:Kylie Minogue;
#TITLETRANSLIT:;
#SUBTITLETRANSLIT:;
#ARTISTTRANSLIT:;
#GENRE:;
#ORIGIN:;
#CREDIT:;
#BANNER:banner.png;
#BACKGROUND:Step Back In Time-bg.png;
#PREVIEWVID:;
#JACKET:jacket.png;
#CDIMAGE:;
#DISCIMAGE:;
#LYRICSPATH:;
#CDTITLE:;
#MUSIC:Step Back In Time.ogg;
#OFFSET:-0.345820;
#SAMPLESTART:55.089771;
#SAMPLELENGTH:12.000000;
#SELECTABLE:YES;
#BPMS:0.000=122.257;
#STOPS:;
#DELAYS:;
#WARPS:;
#TIMESIGNATURES:0.000=4=4;
#TICKCOUNTS:0.000=4;
#COMBOS:0.000=1;
#SPEEDS:0.000=1.000=0.000=0;
#SCROLLS:0.000=1.000;
#FAKES:;
#LABELS:0.000=Song Start;
#BGCHANGES:;
#KEYSOUNDS:;
#ATTACKS:
;

//---------------dance-double - ----------------
#NOTEDATA:;
#CHARTNAME:;
#STEPSTYPE:dance-double;
#DESCRIPTION:;
#CHARTSTYLE:;
#DIFFICULTY:Easy;
#METER:6;
#RADARVALUES:0.231439,0.247511,0.124621,0.110774,0.000000,234.000000,216.000000,18.000000,16.000000,0.000000,0.000000,0.000000,0.000000,0.000000,0.231439,0.247511,0.124621,0.110774,0.000000,234.000000,216.000000,18.000000,16.000000,0.000000,0.000000,0.000000,0.000000,0.000000;
#CREDIT:;
#NOTES:
// measure 0
00000000
00000000
00000000
00000000
,  // measure 1
00000000
00000000
00000000
00000000
,  // measure 2
00000000
00000000
00000000
00000000
,  // measure 3
00000000
00000000
00000000
00000000
,  // measure 4
00001000
00000000
00010000
00000000
,  // measure 5
00001000
00000000
00001000
00000000
,  // measure 6
00100000
00000000
00001000
00000000
,  // measure 7
00010000
00000000
00010000
00000000
,  // measure 8
00000100
00000100
00001000
00000000
,  // measure 9
00000010
00000010
00001000
00000000
,  // measure 10
00010000
00100000
01000000
00000000
,  // measure 11
00100000
00100000
00001000
00000000
,  // measure 12
00011000
00001000
00010000
01000000
,  // measure 13
00010000
00001000
00000100
00001000
,  // measure 14
00010000
00010000
00001000
00000000
,  // measure 15
00100000
00100000
00001000
00000000
,  // measure 16
00011000
00001000
00000100
00001000
,  // measure 17
00010000
01000000
00010000
00001000
,  // measure 18
00010000
00000100
00000000
00000100
,  // measure 19
00000000
00001000
00000010
00000100
,  // measure 20
00011000
00000000
00000000
00022000
00000000
00000000
00033000
00000000
,  // measure 21
00001000
00000000
00010000
00100000
,  // measure 22
01010000
00000000
00000000
02020000
00000000
00000000
03030000
00000000
,  // measure 23
00010000
00000000
00001000
00000100
,  // measure 24
00000110
00000000
00000000
00000220
00000000
00000000
00000330
00000000
,  // measure 25
00001000
00000000
00010000
00100000
,  // measure 26
00011000
00000000
00000000
00022000
00000000
00000000
00033000
00000000
,  // measure 27
00010000
00000000
00001000
00001000
,  // measure 28
00010000
00100000
01000000
01000000
,  // measure 29
00010000
00001000
00000100
00000100
,  // measure 30
00001000
00100000
00001000
00000000
,  // measure 31
00001000
00000010
00000100
00000000
,  // measure 32
00000010
00001000
00000100
00001000
,  // measure 33
00010000
00100000
01000000
00000000
,  // measure 34
00100000
00010000
00001000
00000000
,  // measure 35
00001000
00010000
01000000
00000000
,  // measure 36
00001000
00001000
00010000
00000000
,  // measure 37
00010000
00010000
00001000
00000000
,  // measure 38
00100000
00001000
01000000
00000000
,  // measure 39
00010000
00001000
00000100
00000000
,  // measure 40
00000010
00000010
00000100
00000000
,  // measure 41
00000010
00010000
00001000
00000000
,  // measure 42
00100000
00010000
01000000
00000000
,  // measure 43
00001000
00010000
00000100
00010000
,  // measure 44
00001100
00000000
00000000
00022000
00000000
00000000
00033000
00000000
,  // measure 45
00001000
00000000
00100000
00010000
,  // measure 46
00110000
00000000
00000000
00020200
00000000
00000000
00030300
00000000
,  // measure 47
00000010
00000000
00010000
00001000
,  // measure 48
01001000
00000000
00000000
02200000
00000000
00000000
03300000
00000000
,  // measure 49
00010000
00000000
00100000
00001000
,  // measure 50
00101000
00000000
00000000
00022000
00000000
00000000
00033000
00000000
,  // measure 51
00010000
00010000
00001000
00001000
,  // measure 52
00010000
01000000
00010000
01000000
,  // measure 53
00010000
00001000
00010000
00001000
,  // measure 54
00000100
00001000
00000100
00001000
,  // measure 55
00010000
00001000
00010000
00000000
,  // measure 56
00001000
00000010
00001000
00000010
,  // measure 57
00001000
00010000
00001000
00010000
,  // measure 58
00100000
00010000
00100000
00010000
,  // measure 59
00001000
00010000
00001000
00000000
,  // measure 60
00010000
00010000
01000000
01000000
,  // measure 61
00010000
00010000
00001000
00001000
,  // measure 62
00000100
00000100
00001000
00001000
,  // measure 63
00010000
00010000
00001000
00000000
,  // measure 64
00010000
00010000
00100000
00100000
,  // measure 65
00010000
00010000
00000010
00000010
,  // measure 66
00010000
00010000
00001000
00001000
,  // measure 67
00010000
00001000
00010000
00000000
,  // measure 68
00010000
00010000
00100000
00010000
,  // measure 69
00001000
00001000
00000010
00001000
,  // measure 70
00010000
00001000
00000100
00001000
,  // measure 71
00010000
01000000
00010000
00000000
;

//---------------dance-double - ----------------
#NOTEDATA:;
#CHARTNAME:;
#STEPSTYPE:dance-double;
#DESCRIPTION:;
#CHARTSTYLE:;
#DIFFICULTY:Medium;
#METER:8;
#RADARVALUES:0.334301,0.379055,0.207702,0.131544,0.000000,338.000000,308.000000,30.000000,19.000000,0.000000,0.000000,0.000000,0.000000,0.000000,0.334301,0.379055,0.207702,0.131544,0.000000,338.000000,308.000000,30.000000,19.000000,0.000000,0.000000,0.000000,0.000000,0.000000;
#CREDIT:;
#NOTES:
00000000
00000000
00000000
00000000
,
00000000
00000000
00000000
00000000
,
00000000
00000000
00000000
00000000
,
00000000
00000000
00000000
00000000
,
00001000
00000000
00000000
00010000
00000000
00000000
00000100
00000000
,
00010000
00000000
00000000
00001000
00000000
00000000
00000000
00000000
,
01000000
00100000
01000000
00001000
00000000
00020000
00000000
00030000
,
00000100
00001000
00000100
00002000
00000000
00003000
00000010
00000000
,
00010000
00001000
00010000
01000000
00000000
00100000
00000000
00001000
,
00000000
00010000
00000000
00000010
00000000
00000100
00000000
00000010
,
00000000
00001000
00000000
00000100
00000000
00020000
00000000
00030000
,
00001000
00100000
00002000
00020000
00000000
00000000
00033000
00000000
,
00110000
00000000
00101000
00000000
00001000
00010000
00000100
00001000
,
00000010
00000000
00000100
00000000
00000010
00001000
00000100
00000000
,
00010000
00010000
00001000
00001000
,
00100000
00100000
00010000
00010000
,
01100000
00000000
01001000
00000000
00010000
00001000
00010000
00000000
,
00000100
00000000
00001000
00000000
00000010
00001000
00000010
00010000
,
00001000
00011000
00001000
00010000
,
00100000
00000000
01000000
01000000
00100000
00010000
00010000
00000000
,
00110000
00000000
00000000
00022000
00000000
00000000
00033000
00000000
,
00001000
00000000
00000000
00010000
00000100
00001000
00000010
00000000
,
00000110
00000000
00000000
00002020
00000000
00000000
00003030
00000000
,
00010000
00000000
00010000
00000000
00001000
00100000
00010000
00000000
,
01000000
01000000
00100000
00100000
,
01000000
00000000
00100000
00000000
00010000
00001000
00000100
00000000
,
00000010
00000010
00000100
00000100
,
00000010
00000000
00000010
00000000
00010000
00010000
00001000
00000000
,
00010000
00100000
00010000
00000000
00001000
00000000
00001000
00000000
,
00001000
00000100
00001000
00000000
00010000
00000000
00010000
00000000
,
00001000
00100000
00010000
00000000
01000000
00001000
00010000
00000000
,
00010000
00001000
00000100
00001000
00000000
00010000
00010000
00000000
,
00000010
00010000
00001000
00000000
00010000
00000000
00010000
00000000
,
00001000
00100000
00010000
00000000
01000000
00000000
01000000
00000000
,
00010000
00001000
00000100
00000000
00000100
00010000
00001000
00000000
,
00100000
01000000
00010000
00001000
00000000
00010000
00010000
00000000
,
00011000
00001000
00000100
00000010
00000000
00001000
00000000
00000100
,
00000000
00010000
00000000
00100000
00000000
01000000
00100000
00000000
,
01000000
01000000
00001000
00010000
00000000
00002000
00000000
00003000
,
00010000
00100000
00010000
00010000
00000000
00001000
00001000
00000000
,
00011000
00000000
00001000
00000000
00100000
01000000
00010000
00000000
,
00011000
00000000
00001000
00000000
00010000
00000010
00000100
00000000
,
00011000
00000000
00001000
00000000
01000000
00100000
00010000
00000000
,
00011000
00000000
00001000
00010000
00100000
00010000
00001000
00000000
,
00011000
00000000
00000000
00220000
00000000
00000000
00330000
00000000
,
01000000
00000000
00000000
00100000
00010000
00100000
00010000
00000000
,
00011000
00000000
00000000
00020200
00000000
00000000
00030300
00000000
,
00001000
00000000
00000000
00000000
00000010
00000100
00000010
00000000
,
00001000
00010000
00100000
00010000
,
00001000
00000000
00000010
00000000
00001000
00010000
00001000
00000000
,
00010000
00100000
00010000
00001000
,
00000010
00000000
00001000
00000000
00010000
01000000
01000000
00100000
,
00010000
00011000
00001000
00011000
,
00010000
00011000
00001000
00011000
,
00100000
00101000
00001000
00101000
,
00100000
00001000
00010000
00000200
00000000
00000000
00000300
00000000
,
00001000
00001100
00000100
00001100
,
00001000
00001100
00000100
00001100
,
00010000
00010100
00000100
00010100
,
00010000
00001000
01000000
00020000
00000000
00000000
00030000
00000000
,
01000000
00100000
01000000
00000000
00010000
00000000
00100000
00000000
,
00001000
00010000
00001000
00000000
00000100
00000000
00000010
00000000
,
00001000
00000010
00010000
00000000
00001000
00000000
00100000
00000000
,
00010000
01000000
00010000
00200000
00000000
00000000
00300000
00000000
,
00100000
00001000
00010000
00000000
00001000
00000000
00000100
00000000
,
00000010
00001000
00000100
00000000
00010000
00000000
00001000
00000000
,
00100000
00010000
01000000
00000000
00001000
00000000
00010000
00000000
,
00001000
00010000
00000010
00000200
00000000
00000000
00000300
00000000
,
00000010
00000010
00001000
00001000
,
00000100
00000100
00010000
00010000
,
00001000
00001000
00100000
00100000
,
01000000
00100000
00010000
02000000
00000000
00000000
00000000
00000000
,
00000000
00000000
00000000
00000000
,
03000000
00000000
00000000
00000000
;

//---------------dance-double - ----------------
#NOTEDATA:;
#CHARTNAME:;
#STEPSTYPE:dance-double;
#DESCRIPTION:;
#CHARTSTYLE:;
#DIFFICULTY:Hard;
#METER:10;
#RADARVALUES:0.432217,0.480137,0.214625,0.276935,0.038079,437.000000,406.000000,31.000000,40.000000,0.000000,0.000000,0.000000,0.000000,0.000000,0.432217,0.480137,0.214625,0.276935,0.038079,437.000000,406.000000,31.000000,40.000000,0.000000,0.000000,0.000000,0.000000,0.000000;
#CREDIT:;
#NOTES:
00000000
00000000
00000000
00000000
,
00000000
00000000
00000000
00000000
,
00000000
00000000
00000000
00000000
,
00000000
00000000
00000000
00000000
,
00010000
00001000
00010000
00100000
00010000
00000000
00011000
00000000
,
00001000
00010000
00001000
00000010
00001000
00000000
00011000
00000000
,
00100000
00010000
01000000
00001000
00000000
00020000
00000000
00030000
,
00001000
00010000
00000010
00000100
00000000
00000010
00001000
00000200
,
00000000
00010300
00001000
00200000
00000000
00310000
01000000
00002000
,
00000000
00013000
00000010
00000200
00000000
00000310
00001000
00000000
,
00000100
00010000
00001000
00200000
00000000
00010000
00310000
00000000
,
01000000
00000000
00010000
00000000
00100000
00000000
00001000
00000000
00010000
00001000
00010000
00000000
00001000
00010000
00001000
00000000
,
00101000
00000000
00011000
00000000
00001000
00010000
00000010
00000100
,
00000010
00000000
00001010
00000000
00001000
00000100
00010000
00001000
,
00200000
00310000
02000000
03001000
,
00020000
00030010
00002000
00003100
,
00000110
00000000
00010100
00000000
00000100
00010000
00001000
00100000
,
00010000
00000000
00000000
00000000
01010000
00000000
00000000
00000000
01000000
00000000
00001000
00000000
00100000
00000000
00000000
00100000
,
00002000
00010000
00013000
00000000
00011000
00000000
00010010
00000000
,
00001000
00000000
00000010
00000100
00001000
00010000
00010000
00000000
,
00021000
00100000
00001000
01000000
,
00031000
00000000
00001000
00010000
01000000
00010000
00001000
00000000
,
00012000
00000100
00010000
00000010
,
00013000
00000000
00001000
00000000
00010000
00010000
00001000
00000000
,
00100000
00001000
00010000
00000010
00010000
00001000
00100000
00001000
,
00010000
00000010
00010000
00001000
00020000
00001000
00031000
00000000
,
01000000
00001000
00010000
00000100
00010000
00001000
01000000
00001000
,
00010000
00000000
00000100
00000000
00010000
00000000
00001000
00000000
00010000
00001000
00010000
00000000
00001000
00010000
00001000
00000000
,
00100000
00001000
00010000
02000000
00000000
03100000
00000000
00100000
,
00010000
01000000
00001000
00020000
00000000
00001000
00031000
00000000
,
00100000
00001000
00010000
00000020
00000000
00001000
00001030
00000000
,
00001000
00000100
00001000
00000100
00000000
00010000
00010000
00000000
,
00011000
00100000
00010000
02000000
00000000
03100000
00000000
01000000
,
00010000
00100000
00001000
00020000
00000000
00000100
00030100
00000000
,
00001000
00000010
00000100
00002000
00000000
00010000
00013000
00000000
,
00010000
00000000
00000100
00000000
00010000
00000000
00000100
00000000
00010000
00001000
00000000
00000000
00100000
00010000
00000000
00000000
,
00100000
00010000
01000000
00002000
00000000
00013000
00000010
00000200
,
00000000
00000310
00001000
00000200
00000000
00010300
00000000
00000000
,
00010000
01000000
00100000
00001000
00000000
00020000
00000000
00030000
,
00010000
00001000
00000100
00000010
00000000
00001000
00001000
00000000
,
00011000
00000000
00011000
00000000
00001000
00100000
01000000
00000000
,
01000000
00100000
00010000
01000000
00001000
00010000
00000100
00000000
,
00001100
00000000
00001010
00000000
00000010
00010000
00001000
00000000
,
00001000
00010000
01000000
00100000
00001000
00001000
00010000
00000000
,
00102000
00010000
00000100
00010000
,
00103000
00000000
00100000
00001000
00010000
00000100
00001000
00000000
,
00020100
00001000
00100000
00001000
,
00030100
00000000
00000100
00000000
00001000
00000010
00010000
00000000
,
00010000
00001000
00000100
00000010
00001000
00000100
00010000
00001000
,
00100000
01000000
00010000
00001000
00000100
00000010
00001000
00000000
,
00001000
00000100
00010000
01000000
00100000
00010000
01000000
00001000
,
00010000
00000000
00000010
00000000
00001000
00000000
00000100
00000000
00010000
00001000
00010000
00000000
00001000
00010000
00001000
00000000
,
01000000
01100000
00010000
00110000
,
00100000
00101000
00001000
00011000
,
00010000
00010010
00000010
00000110
,
00000010
00001000
00000010
00002000
00000000
00000100
00003100
00000000
,
00010000
00010100
00001000
00011000
,
00100000
00101000
00001000
01001000
,
00100000
00110000
00010000
01010000
,
00010000
00100000
00010000
00200000
00000000
00001000
00301000
00010000
,
00001000
00000100
00000010
00020000
00000000
00031000
00000000
00001000
,
00010000
01000000
00100000
00020000
00000000
01000000
01030000
00000000
,
00100000
01000000
00001000
00020000
00000000
00001000
00031000
00000000
,
00100000
00001000
00010000
02000000
00000000
00100000
03100000
00000000
,
00100000
00001000
00010000
00000200
00000000
00001300
00000000
00001000
,
00000010
00010000
00000100
00002000
00000000
00000010
00003010
00000000
,
00000100
00000010
00001000
00000200
00000000
00010000
00010300
00000000
,
00010000
00000000
01000000
00000000
00100000
00000000
00010000
00000000
01000000
00100000
00000000
00000000
00100000
01000000
00100000
00000000
,
01000000
00001000
00010000
00000200
00000000
00001300
00000000
00001000
,
00000010
00000100
00000010
00020000
00000000
00000100
00030100
00000000
,
00001000
00000100
00010000
00002000
00000000
01000000
01003000
00000000
,
00100000
01000000
00001000
00020000
00000000
00001000
00002000
00000000
,
00000000
00000000
00000000
00000000
,
00033000
00000000
00000000
00000000
;
