#VERSION:0.83;
#TITLE:Something Real;
#SUBTITLE:;
#ARTIST:Rameses B feat. Danyka Nadeau;
#TITLETRANSLIT:;
#SUBTITLETRANSLIT:;
#ARTISTTRANSLIT:;
#GENRE:;
#CREDIT:;
#MUSIC:Something Real.ogg;
#BANNER:Tower of Eight Panels.png;
#BACKGROUND:Tower of Eight Panels-bg.png;
#CDTITLE:;
#SAMPLESTART:72.128;
#SAMPLELENGTH:17.432;
#SELECTABLE:YES;
#OFFSET:-2.321;
#BPMS:0.000=55.000
,32.000=110.000
,215.500=105.000
,215.625=100.000
,215.750=95.000
,215.875=90.000
,216.000=85.000
,216.125=80.000
,216.250=75.000
,216.375=70.000
,216.500=65.000
,216.625=60.000
,216.750=55.000
,216.875=50.000
,217.000=45.000
,217.125=40.000
,217.250=35.000
,217.375=30.000
,217.500=25.000
,217.625=20.000
;
#STOPS:;
#SPEEDS:0.000=0.500=0.000=0,
30.000=1.000=2.000=0,
114.979=0.250=0.000=0,
115.000=1.000=1.000=0
;
#SCROLLS:0.000=2.000,
32.000=1.000
;
#DISPLAYBPM:55.000:110.000;
#BGCHANGES:;
#FGCHANGES:;

//--------------- dance-double - ----------------
#NOTEDATA:;
#STEPSTYPE:dance-double;
#DESCRIPTION:;
#DIFFICULTY:Easy;
#METER:6;
#RADARVALUES:0,0,0,0,0;
#CREDIT:Brother Mojo;
#NOTES:
00000000
00000000
00000000
00000000
,
00000000
00000000
00000000
00000000
,
00000000
00000000
00000000
00000000
,
00000000
00000000
00000000
00000000
,
00001000
00000000
00100000
00000000
,
00000000
00010000
00010000
00010000
,
10000000
00000000
00100000
00000000
,
02000000
00000000
00000000
00000000
,
03010000
00100000
00001000
00010000
,
00000000
00000100
00001000
00000010
,
00000000
0001MMMM
00000000
MMMM1000
,
00000000
0001MMMM
00000000
00001000
,
00100000
00010000
10000000
00010000
,
01000000
00100000
10000000
00010000
,
01000000
MMMM1000
00000000
0001MMMM
,
00000000
MMMM1000
00000000
00010000
,
00000010
00001000
00000001
00000010
,
00000000
00000010
00000100
00001000
,
00000010
0001MMMM
00000000
MMMM1000
,
00000000
0001MMMM
00000000
00001000
,
00100000
00010000
00000000
01000000
,
00100000
10000000
01000000
00100000
,
00020000
00000000
00000000
00000000
,
10030000
00000000
00000000
00000000
00000000
00000000
10010000
0000MMMM
,
02000000
00010000
03002000
00100000
,
00023000
00000010
00030100
00001000
,
00000002
00000000
00000013
00000200
00000000
00000000
MMMM1300
00000000
,
00000020
00001000
00010030
00001000
,
00200000
00000000
00310000
20000000
00000000
00000000
30002000
00000000
,
00023000
00000010
00031000
01000000
,
00010000
1000MMMM
01000000
0001MMMM
,
00001000
00000000
MMMM0010
00000000
00000002
00000000
00000000
MMMM0000
,
00002003
00000010
00003200
01000000
,
00020300
00001000
00100000
00031000
,
00100000
00010000
00000000
10010000
,
00011000
00000100
00001000
00000010
,
00000200
00000001
00000320
00001000
,
00020030
00000100
00031000
00100000
,
00010000
00000000
00000000
10000000
00000000
00000000
00010000
00000000
,
01000000
00000000
01000000
00000000
01000000
00000000
10010000
0000MMMM
,
10000000
00100000
00010000
00001000
,
00000010
00000001
00001000
00000010
,
00010000
00001000
00000000
00000100
,
00000000
00000001
00000010
00001000
,
00010000
00001000
00100000
01000000
,
00010000
00001000
00000010
00000100
,
00001000
00000001
00000000
00000100
,
00000000
00000000
00001000
00000000
00010000
00000000
00100000
0000MMMM
,
10000000
01000000
00100000
00010000
,
01000000
00001000
00010000
00000100
,
00000000
00001000
00000000
00000010
,
00000000
00000100
00000001
00001000
,
00000200
00000000
00020300
00000000
,
00032000
00000000
02003000
03200000
,
00000000
00000000
00000000
00000000
00000000
00000000
00000000
00000000
00000000
00000000
00000000
00000000
00000000
00000000
00000000
00000000
00000000
00000000
00000000
00000000
00000000
00000000
00000000
00000000
00000000
00000000
00000000
00300000
00000000
00000000
00000000
00000000
00000000
00000000
00000000
00000000
00000000
00000000
00000000
00000000
00000000
00000000
00000000
00000000
00000000
00000000
00000000
00000000
00000000
00000000
00000000
00000000
00000000
00000000
00000000
00000000
00000000
00000000
00000000
00000000
00000000
00000000
00000000
00000000
;

//--------------- dance-double - ----------------
#NOTEDATA:;
#STEPSTYPE:dance-double;
#DESCRIPTION:;
#DIFFICULTY:Medium;
#METER:10;
#RADARVALUES:0,0,0,0,0;
#CREDIT:Brother Mojo;
#NOTES:
00000000
00000000
00000000
00000000
,
00000000
00000000
00000000
00000000
,
00000000
00000000
00000000
00000000
,
00000000
00000000
00000000
00000000
,
00001000
00100000
00010000
00000000
,
00000000
00000000
10000000
00000000
00100000
00000000
01000000
00001000
,
00010000
00000000
00000000
00000010
00001000
00000000
00000000
00000001
,
00000020
00000000
00000000
00000000
,
00000130
00000000
00010000
00000000
00001000
00100000
00010000
00000000
,
01000000
00000000
00100000
00000000
10000000
00010000
00100000
00000000
,
00100000
MMMM1000
00001000
0001MMMM
,
00010000
00000000
MMMM0010
00000000
00000010
00000000
00000100
00000001
,
00001000
00000000
00000100
00000000
00010000
00001000
00100000
00000000
,
00010000
00000000
01000000
00000000
00001000
00010000
00000100
00000000
,
00000100
0001MMMM
00010000
MMMM1000
,
00001000
0100MMMM
01000000
00010000
,
10000000
00000000
01000000
00000000
00010000
00001000
00100000
00000000
,
01000000
00000000
00010000
00000000
00001000
00000100
00000010
00000000
,
00000010
0001MMMM
00010000
MMMM1000
,
00001000
00000000
0010MMMM
00000000
00010000
10000000
00100000
01000000
,
00010000
00000000
00100000
00000000
00001000
00010000
00000010
00002000
,
00000000
00003200
00000000
00000320
00000000
00002030
00000000
00020000
,
00000000
00000000
00000000
00000000
00000000
00000000
00000000
00033000
,
01000100
00000000
00000000
00000000
00000000
00000000
00010000
MMMM0010
,
00001000
00000000
00000000
00000000
00000000
00000000
00000100
00000000
00000000
00000000
00000000
00000010
00000000
00000000
00000000
00000001
00000000
00000000
00001000
00000000
00000000
00000010
00000000
00000000
,
00010000
00000000
00001000
00100000
00010000
01000000
00100000
10000000
,
01000000
00000000
00100000
00010000
00000000
01000000
MMMM1000
00000000
,
00010000
00000000
00000000
00000000
00000000
00000000
00000100
00000000
00000000
00000000
00000000
00001000
00000000
00000000
00000010
00000000
00000000
00000000
00000100
00000000
00000000
00000001
00000000
00000000
,
00001000
00000000
00000100
00010000
00001000
00000000
20000000
00000000
,
30010000
00000000
01000000
00100000
00010000
00001000
01000000
00010000
,
00000000
00100000
MMMM1000
00000000
00000010
00000100
0001MMMM
00001000
,
01000000
00000000
MMMM1000
00010000
00000000
00001000
00100000
MMMM0010
,
00010000
00000000
00000000
00001000
00000000
00000000
00000100
00000000
00000000
00000000
00000000
00001000
00000000
00000000
00000000
00010000
00000000
00000000
00000010
00000000
00000000
00010000
00000000
00000000
,
00001000
00000000
00000000
00010000
00000000
00000000
01000000
00000000
00000000
00000000
00000000
00100000
00000000
00000000
00010000
00000000
00000000
00000000
10000000
00000000
00000000
00100000
00000000
00000000
,
01000000
00010000
00001000
00000010
00000200
00000000
00000301
00000000
,
00001001
00000000
00000000
00000000
00000000
00000000
00001000
00000000
00000000
00000000
00000000
00000010
00000000
00000000
00010000
00000000
00000000
00000000
00001000
00000000
00000000
00100000
00000000
00000000
,
00010000
00000000
10000000
01000000
00010000
00000000
00001000
00000100
,
00000001
00000010
00000100
00001000
00000000
00000010
00010000
00001000
,
01000000
00000000
00000000
00010000
00000000
00000000
10000000
00000000
,
01000000
00010000
00001000
00000010
00000001
00000100
00001000
0001MMMM
,
00000010
00001000
00000000
00001000
00000100
00000000
00000100
00010000
,
00000000
00001000
01000000
00100000
00000000
10000000
01000000
00100000
,
00010000
00000000
01000000
00100000
00010000
00001000
01000000
00000000
,
00001000
00000000
00000000
00010000
00000000
00000000
00000100
00000000
00000000
00000000
00000000
00000010
00000000
00000000
00000001
00000000
00000000
00000000
00000100
00000000
00000000
00000010
00000000
00000000
,
00001000
00000001
00000000
00000001
00000010
00000000
00000010
00000100
,
00000000
00010000
00001000
00100000
00000000
00010000
01000000
00001000
,
00010000
00001000
00000010
00000000
00001000
00010000
00100000
00000000
,
10000000
00000000
00000000
00000000
00000000
00000000
01000000
00000000
00100000
00000000
00000000
00010000
00100000
00000000
00000000
00001000
00000000
00000000
00010000
00000000
00000000
MMMM0010
00000000
00000000
,
00001000
00000001
00000000
00000001
00000010
00000000
00000010
00000100
,
00010000
00000000
00001000
01000000
00010000
00000000
00100000
01000000
,
10000000
00000000
00100000
01000000
00010000
00100000
00001000
00000010
,
00001000
00000000
00010000
00000010
00000000
00000100
00000001
00001000
,
00000100
00020000
00000000
00000000
00032000
00000000
00000000
02003000
,
00000000
00000000
00000000
03100000
00000000
10000000
00000000
00020000
,
00000000
00000000
00000000
00000000
00000000
00000000
00000000
00000000
00000000
00000000
00000000
00000000
00000000
00000000
00000000
00000000
00000000
00000000
00000000
00000000
00000000
00000000
00000000
00000000
00000000
00000000
00000000
00030000
00000000
00000000
00000000
00000000
00000000
00000000
00000000
00000000
00000000
00000000
00000000
00000000
00000000
00000000
00000000
00000000
00000000
00000000
00000000
00000000
00000000
00000000
00000000
00000000
00000000
00000000
00000000
00000000
00000000
00000000
00000000
00000000
00000000
00000000
00000000
00000000
;

//--------------- dance-double - ----------------
#NOTEDATA:;
#STEPSTYPE:dance-double;
#DESCRIPTION:;
#DIFFICULTY:Hard;
#METER:13;
#RADARVALUES:0,0,0,0,0;
#CREDIT:Brother Mojo;
#NOTES:
00000000
00000000
00000000
00000000
,
00000000
00000000
00000000
00000000
,
00000000
00000000
00000000
00000000
,
00000000
00000000
00000000
00000000
,
00000000
00000000
00000000
00010000
00000010
00000000
00000010
00002000
00000000
00000000
00000000
00003100
00000020
00000000
00000031
00001000
,
00000000
00000200
00000000
00000000
00000000
00000000
00000300
00000000
00000000
00000000
00000000
00000000
00000000
00000010
00001000
00020000
,
00000000
00000000
00030000
00000000
00000000
00100000
00010000
00001000
00000000
00100000
00000000
01000000
00000000
10000000
00000000
00200000
,
00000000
00000000
00000000
00000000
,
10300000
01000000
00010000
00001000
00100000
00010000
01000000
00000000
,
00001000
00010000
00000010
00001000
00000100
00000010
00000001
00000000
,
00001000
00000010
0010MMMM
00000000
00010000
00100000
MMMM0100
00000000
,
00001000
00000000
00000100
00000000
0100MMMM
00000000
00001000
00000000
00010000
00000000
00000010
00000000
00001000
00000000
00000000
00001000
,
00000001
00000100
00001000
00010000
00000010
00001000
00000100
00000000
,
00010000
00001000
00100000
00010000
01000000
00100000
10000000
00000000
,
00010000
00100000
MMMM0100
00000000
00001000
00000010
0100MMMM
00000000
,
00010000
00000000
00100000
00000000
MMMM0010
00000000
00000100
00000000
00001000
00000000
00010000
00000000
01000000
00000000
00000000
01000000
,
10000000
00100000
00010000
00001000
01000000
00010000
00100000
00000000
,
00001000
00010000
00000100
00001000
00000010
00000100
00000001
00000010
,
00001000
00010000
0100MMMM
00100000
00010000
00001000
MMMM0100
00000010
,
00001000
00000000
00000000
00000000
00000000
00000000
00010000
00000000
00000000
00000000
00000000
00000000
0100MMMM
00000000
00000000
00000000
00000000
00000000
10000000
00000000
00000000
00000000
00000000
00000000
00100000
00000000
00000000
00000000
00000000
00000000
01000000
00000000
00000000
00000000
00010000
00000000
01000000
00000000
00000000
00000000
00000000
00000000
00001000
00000000
00000000
00010000
00000000
00000000
,
00001000
00100000
01000000
10000000
00010000
01000000
00000100
00010000
,
00001000
00000010
00000001
00001000
00000010
00000100
00001000
00010000
,
00100000
10000000
01000000
00010000
00001000
00000010
00000001
00000100
,
00000020
00000000
00000030
00000000
00000000
00000000
00001001
0001MMMM
,
00002000
00000000
00000000
10003000
00000000
00000000
00010000
00000000
00000000
01000000
00000000
00100000
00000000
00000000
00100000
10000000
00000000
00000000
00010000
00000000
00100000
00010000
00000000
00000000
,
02000000
03000100
00010000
00000010
00001000
00000100
00000010
00001000
,
00020000
00000000
00000000
00000000
00000000
00000000
00000000
00000000
00000000
00000000
00000000
00000000
00031000
00000000
00000000
00000000
00000000
00000000
01000000
00000000
00000000
00000000
00001000
00000000
00000000
00000000
00000000
00000000
00010000
00000000
00000000
00000000
00000000
00000000
00000010
00000000
MMMM1000
00000000
00000000
00000000
00000000
00000000
00000100
00000000
00000000
00000010
00000000
00000000
,
00000200
00000000
00000000
00001300
00000000
00000000
00000001
00000000
00000000
00000100
00000000
00000010
00000000
00000000
00010000
00001000
00000000
00000000
00100000
00000000
00000000
00001000
00000000
00010000
,
00000200
00000000
00010000
02000300
00000000
03002000
20003000
00000000
,
30200000
00000000
00320000
00000000
00031000
00000000
00000020
00000000
00000031
00000000
00000010
00000000
00000100
00000000
00001000
00000010
,
00000000
00000100
0001MMMM
00000000
01000000
00100000
MMMM1000
00000010
,
00000100
00000100
0001MMMM
01000000
00100000
10000000
00010000
MMMM1000
,
00000002
00000010
00001003
00000010
00020000
00001000
00030100
01000000
,
00020000
00000000
00000000
00000000
00000000
00000000
10030000
00000000
00000000
01000000
00000000
00100000
00000000
00000000
00010000
00000000
00000000
00100000
00001000
00000000
00000000
00010000
00000000
00000000
,
00000010
00001000
00000100
00000010
00000002
00000000
00001003
00000000
,
00010100
00000000
00000000
00000000
00000000
00000000
01001000
00000000
00000000
00001000
00000000
00100000
00000000
00000000
00100000
00010000
00000000
00000000
10000000
00000000
00000000
00100000
00000000
01000000
,
00020000
10000000
01030000
00001000
00200000
00010000
00301000
00010000
,
00000020
00000000
00000000
00001000
00000000
00000000
00000130
00000000
00000000
00000001
00000000
00000010
00000000
00000000
00000100
00001000
00000000
00000000
00000010
00000000
00000000
00100000
00000000
00000000
,
00001000
00000000
00000000
01000000
00000000
00000000
00010000
00000000
,
10000000
00000000
00100000
10000000
00000000
00000000
00010000
00000000
01000000
00010000
00000000
00000000
00100000
00000000
00000000
01000000
00000000
00000000
10010000
00000000
00000000
MMMM1000
00000000
00000000
,
01000000
00100000
00010000
00001000
00000010
00000100
00001000
00000001
,
00000100
00000000
00000000
00001000
00000000
00000000
00010000
00000000
00000000
00000010
00000000
00000000
00010000
00000000
00000000
00001000
00000000
00000000
00100000
00000000
00000000
00010000
00000000
10000000
,
00000000
00100000
00010000
00001000
00000000
00010000
00000100
00000000
,
00000010
00000000
00000000
00000001
00000000
00000000
00000100
00000000
00000000
00000010
00000000
00001000
00000000
00000000
00000001
00000010
00000000
00000000
00000100
00000000
00000000
00010000
00000000
00001000
,
00000000
00000010
00001000
00010000
00100000
01000000
00010000
10000000
,
01000000
00000000
00000000
00010000
00000000
00000000
00001000
00000000
00000000
00100000
00000000
00000000
00001000
00000000
00000000
00010000
00000000
00000000
00000010
00000000
00000000
00001000
00000000
00000001
,
00000000
00000010
00001000
00010000
00000000
00100000
00010000
00000000
,
00001000
00000000
00000000
00000000
00000000
00100000
00010000
00000000
00100000
00000000
00000000
00001000
00010000
00000000
00000000
00000010
00000000
00001000
00000010
00000000
00000000
0001MMMM
00000000
00000000
,
00100000
10000000
01000000
00000000
00100000
00010000
01000000
00001000
,
00010000
00000000
00000100
00001000
00000010
00000100
00000001
00001000
,
00000100
00000000
00000010
00001000
00010000
01000000
10000000
00010000
,
01000000
00000000
00100000
00010000
00001000
00000100
00000001
00001000
,
00000100
00000020
00000000
00000000
00002030
00000000
00000000
02003000
,
00000000
00000000
00000000
03200000
00000000
00310000
00000000
00000200
,
00000000
00000000
00000000
00000000
00000000
00000000
00000000
00000000
00000000
00000000
00000000
00000000
00000000
00000000
00000000
00000000
00000000
00000000
00000000
00000000
00000000
00000000
00000000
00000000
00000000
00000000
00000000
00000300
00000000
00000000
00000000
00000000
00000000
00000000
00000000
00000000
00000000
00000000
00000000
00000000
00000000
00000000
00000000
00000000
00000000
00000000
00000000
00000000
00000000
00000000
00000000
00000000
00000000
00000000
00000000
00000000
00000000
00000000
00000000
00000000
00000000
00000000
00000000
00000000
;

//--------------- dance-double - ----------------
#NOTEDATA:;
#STEPSTYPE:dance-double;
#DESCRIPTION:;
#DIFFICULTY:Challenge;
#METER:16;
#RADARVALUES:0,0,0,0,0;
#CHARTNAME:Around the Traps;
#CREDIT:Brother Mojo;
#NOTES:
00000000
00000000
00000000
00000000
,
00000000
00000000
00000000
00000000
,
00000000
00000000
00000000
00000000
,
00000000
00000000
00000000
00000000
,
00000000
00000000
00000000
00010000
00000010
00000000
00000010
00002000
00000000
00000000
00000000
00003100
00200000
00000000
00301000
01000000
,
00000000
00020000
00000000
00000000
00000000
00000000
00030000
00000000
00000000
00000000
00000000
00000000
00000000
10000000
01000000
00020000
,
00000000
00000000
00030000
00000000
00000000
00000010
00000100
00001000
00000000
00100000
00000000
00010000
00000000
00000010
00000000
00000200
,
00002000
00000300
00000000
00000002
00003000
00000000
00000000
00000000
00000000
00000000
00000000
00000000
00000000
00000000
00000000
00000000
,
00000103
00000000
00000000
00000010
00000000
00000000
00001000
00000000
00000000
00000100
00000000
00000000
00000010
00000000
00000000
00000000
00000000
00000000
00000100
00000000
00000000
00010000
00000000
00001000
,
00100000
00000000
00010000
00000000
10000000
00000000
00100000
00000000
01000000
00000000
00000000
00000000
00001000
00000000
00010000
00000100
,
00001000
00000000
00000000
00000010
00000000
00000000
0001MMMM
00000000
00000000
00001000
00000000
00100000
00010000
00000000
00010000
01000000
00000000
00000000
MMMM1000
00000000
00000000
00010000
00000000
00000010
,
00001000
00000000
00000000
00000000
00000000
00000000
00000100
00000000
00000000
00000000
00000000
00000000
0001MMMM
00000000
00000000
00000000
00000000
00000000
00001000
00000000
00000000
00000000
01000000
00000000
00010000
00000000
00000000
00000000
00010000
00000000
00100000
00000000
00000000
00000000
00001000
00000000
00010000
00000000
00000000
00000000
00000000
00000000
00010000
00000000
00000000
00000010
00000000
00000000
,
00001000
00000000
00000000
00000100
00000000
00000000
00010000
00000000
00000000
00001000
00000000
00000000
02000000
00000000
00000000
00000000
00000000
00000000
03010000
00000000
00000000
00100000
00000000
00001000
,
00010000
00000000
00000010
00000000
00001000
00000000
00000001
00000000
00000010
00000000
00000100
00000000
00010000
00000000
00001000
00100000
,
00010000
00000000
00000000
01000000
00000000
00000000
MMMM1000
00000000
00000000
00010000
00000000
00000010
00001000
00000000
00001000
00000100
00000000
00000000
0001MMMM
00000000
00000000
00001000
00000000
00100000
,
00010000
00000000
00000000
00000000
00000000
00000000
00010000
00000000
00000000
00000000
00000010
00000000
MMMM1000
00000000
00000000
00000000
00000000
00000000
00001000
00000000
00000000
00000000
00010000
00000000
00000100
00000000
00000000
00000000
00010000
00000000
00001000
00000000
00000000
00000000
00000000
00000000
01000000
00000000
00000000
00000000
00000000
00000000
00010000
00000000
00000000
00100000
00000000
00000000
,
01000000
00000000
00000000
10000000
00000000
00010000
01000000
00000000
00000000
00001000
00000000
00010000
00000010
00000000
00001000
00000100
00000000
00000000
00000010
00000000
00000000
00000001
00000000
00001000
,
00000010
00000000
00000000
00000000
00000000
00000000
00001000
00000000
00000000
00000000
00000100
00000000
00010000
00000000
00000000
00000000
00000000
00000000
00001000
00000000
00000000
00000000
00001000
00000000
00100000
00000000
00000000
00000000
00010000
00000000
01000000
00000000
00000000
00000000
01000000
00000000
00001000
00000000
00000000
00000000
00000000
00000000
00010000
00000000
00000000
00000100
00000000
00000000
,
00001000
00000000
00000000
00000010
00000000
00000000
0001MMMM
00000000
00001000
00100000
00000000
00100000
00010000
00000000
00010000
01000000
00000000
00000000
MMMM1000
00000000
00000000
00010000
00000000
00000010
,
00001000
00000000
00000000
00000000
00000000
00000000
00001000
00000000
00000000
00000000
00100000
00000000
0001MMMM
00000000
00000000
00000000
00000000
00000000
00010000
00000000
00000000
00000000
00001000
00000000
01000000
00000000
00000000
00000000
01000000
00000000
00010000
00000000
00000000
00000000
01000000
00000000
00100000
00000000
00000000
00000000
10000000
00000000
00010000
00000000
00000000
00100000
00000000
00000000
,
01000000
00000000
10000000
01000000
00000000
10000000
00010000
00000000
00100000
00010000
00000000
00100000
00001000
00000000
00010000
00001000
00000000
00010000
00000100
00000000
00001000
00000100
00000000
00001000
,
00000001
00000000
00000010
00000001
00000000
00000010
00000100
00000000
00001000
00000100
00000000
00001000
00000010
00000000
00010000
00000010
00000000
00010000
00001000
00000000
01000000
00001000
00000000
01000000
,
00010000
00000000
10000000
01000000
00000000
00100000
00010000
00000000
01000000
00100000
00000000
00010000
00001000
00000000
00000100
00000010
00000000
00001000
00000100
00000000
00000010
00000001
00000000
00001000
,
00000020
00000000
00000000
00000000
00000000
00000000
00000030
00000000
00000000
00000000
00000000
00000000
00000000
00000000
00000000
00000000
00000000
00000000
01001000
00000000
01000000
0010MMMM
00000000
10000000
,
02000000
00000000
00000000
03100000
00000000
00010000
01000000
00000000
00000000
00100000
00000000
00020000
00000000
00000000
00031000
00010000
00000000
00000010
00001000
00000000
00000100
00000010
00000000
00000001
,
00002000
00000000
00000000
00003010
00000000
00001000
00000100
00000000
00000000
00010000
00001000
00010000
00001000
00000000
00000000
00100000
00000000
00010000
01000000
00000000
01000000
00100000
00000000
00000000
,
20000000
00000000
00000000
00000000
00000000
00000000
31000000
00000000
00000000
00000000
00000000
00000000
00010000
00000000
00000000
00000000
00000000
00000000
01000000
00000000
00000000
00000000
00200000
00000000
00302000
00000000
00000000
00000000
00013000
00000000
00000000
00000000
00000000
00000000
00000010
00000000
MMMM1000
00000000
00000000
00000000
00001000
00000000
00000100
00000000
00000000
00000010
00000000
00000000
,
00000002
00000000
00000000
00001003
00000000
00000010
00010000
00000000
00000000
00001000
00000000
00000100
00000010
00000000
00000100
00001000
00000000
00000000
00010000
00000000
00000000
01000000
00000000
00100000
,
00020000
00000000
00000000
10000000
00000000
00000000
01030000
00000000
00000000
00002000
00000000
00000000
00013000
00000000
00000010
00001000
00000000
00000100
00000020
00000000
00000000
00000000
00000000
00000000
,
00000032
00000000
00000000
00001000
00000000
00000000
00000103
00000000
00000010
00010000
00000000
00000000
00000010
00000000
00001000
00000100
00000000
00000000
00000010
00000000
00000001
00001000
00000000
00000010
,
00000000
00000000
00000100
00001000
00000000
00010000
0010MMMM
00000000
01000000
00000000
00000000
00010000
10000000
00000000
01000000
00010000
00000000
00001000
MMMM0010
00000000
00000001
00001000
00000000
00000010
,
00000100
00000000
00000000
00000000
00000000
00000000
00001000
00000000
00000000
00000000
01000000
00000000
0001MMMM
00000000
00000000
00000000
00000000
00000000
00100000
00000000
00000000
01000000
00000000
00000000
10000000
00000000
00000000
00000000
00000000
00000000
00100000
00000000
00000000
00000000
00000000
00000000
00010000
00000000
00000000
00000000
00000010
00000000
MMMM1000
00000000
00000000
00000000
00000000
00000000
,
00000002
00000000
00000000
00000010
00000000
00000000
00001003
00000000
00000000
00000100
00000000
00020000
00001000
00000000
00031000
01000000
00000000
00010000
00100000
00000000
00000000
01000000
00000000
00000000
,
00020000
00000000
00000000
00001000
00000000
00000000
00030100
00000000
00000000
00000010
00000000
00001000
00000000
00000000
00010000
00001000
00000000
00100000
00010000
00000000
00000000
01000000
00001000
01000000
,
00001000
00000000
00010000
00100000
00000000
10000000
00010000
00000000
00100000
01000000
00000000
00000000
00100000
00010000
00100000
00001000
00010000
00000010
00001000
00000010
00010000
00001000
01000000
00010000
,
02000000
00000000
00000000
00000000
00000000
00000000
03100000
00000000
00000000
10000000
00000000
00010000
00100000
00000000
01000000
00010000
00000000
00000000
00001000
00000000
00000010
00000100
00000000
00001000
,
00000002
00000000
00000000
00001000
00000000
00000000
00000103
00000000
00000000
00000020
00000000
00000000
00001000
00000000
00000000
00010030
00000000
00000000
00000100
00000000
00000000
00010000
00000000
00001000
,
02000000
00000000
00000000
00100000
00000000
00000000
03010000
00000000
00000000
10000000
00000000
01000000
00100000
00000000
00010000
01000000
00000000
00000000
00001000
00000000
00000000
00010000
00000000
00000000
,
00000100
00000000
00001000
00000010
00000000
00000100
00000000
00000000
00000001
00001000
00000000
00000100
00000000
00000000
00000010
00000100
00000000
00010000
00001000
00000000
00000000
00100000
00000000
00000000
,
00010000
00000000
10000000
00100000
00000000
00010000
00001000
00000000
01000000
00001000
00000000
00010000
00000100
00000000
00000100
00001000
00000000
00000000
00000010
00000000
00010000
0010MMMM
00000000
00000000
,
10000000
00000000
00000000
00020000
00000000
00030000
00101000
00000000
00000000
01000000
00000000
00000000
00000020
00000000
00000000
00001030
00000000
00000000
00010100
00000000
00000000
00000002
00000000
00000000
,
00001003
00000000
00000000
00000100
00000000
00000000
00010010
00000000
00000000
00200000
00000000
00000000
00301000
00000000
00000000
00010000
00000000
00000000
01001000
00000000
00000000
00000100
00000000
00010000
,
00001000
00000000
00000000
00010000
00000000
00000000
00000010
00000000
00000000
00001000
00000000
00000001
00000010
00000000
00000100
00001000
00000000
00000010
00010000
00000000
00000000
00001000
00000000
00100000
,
00010000
00000000
00000000
01000000
00000000
00000000
00100000
00000000
00000000
10000000
00000000
00010000
00100000
00000000
01000000
00010000
00000000
00000000
00001000
00000000
00000010
00000100
00000000
00000010
,
00000001
00000000
00000000
00002000
00000000
00003000
00010010
00000000
00000000
00000100
00000000
00000000
00200000
00000000
00000000
00310000
00000000
00000000
01001000
00000000
00000000
20000000
00000000
00000000
,
30010000
00000000
00000000
01000000
00000000
00000000
00101000
00000000
00000000
00000020
00000000
00000000
00010030
00000000
00000000
00001000
00000000
00000000
00010100
00000000
00000000
01000000
00000000
00001000
,
00010000
00000000
00000000
00000010
00000000
00000000
00000100
00000000
00000000
00000010
00000000
00010000
00001000
00000000
00001000
00100000
00000000
00000000
00010000
00000000
00000000
00100000
00000000
01000000
,
10000000
00000000
00010000
00000000
00000000
01000000
00010000
00000000
00010000
00100000
00000000
00001000
00010000
00000000
00000010
00001000
00000000
00001000
00000100
00000000
00000000
0001MMMM
00000000
00000000
,
00000010
00000000
00000000
00002000
00000000
00003000
00010100
00000000
00000000
00000010
00000000
00000000
02000000
00000000
00000000
03010000
00000000
00000000
00101000
00000000
00000000
20000000
00000000
00000000
,
30010000
00000000
00000000
00100000
00000000
00000000
01001000
00000000
00000000
00000100
00000000
00000000
00010000
00000000
00000000
00001000
00000000
00000000
00010010
00000000
00000000
00100000
00000000
00001000
,
00010000
00000000
00000000
00001000
00000000
00000000
01000000
00000000
00000000
00010000
10000000
00010000
10000000
00000000
01000000
00010000
00000000
00010000
00001000
00000000
00000000
00000010
00000000
00000000
,
00000001
00000000
00000000
00000000
00000000
00000000
00000100
00000000
00000000
00000000
00000000
00000000
00000010
00000000
00000000
00000000
00000000
00000000
00001000
00000000
00000010
00000000
00001000
00000000
00000010
00000000
00000000
00010000
00000000
00000000
00001000
00000000
00000000
00000000
00000000
00000000
00100000
00000000
00000000
00000000
00000000
00000000
00010000
00000000
00000000
00000000
00000000
00000000
,
01000000
00200000
00000000
00310000
00000020
00001000
00010030
00000200
,
00000000
00001300
00000000
00000002
00000000
00020003
00000010
00002000
,
00000000
00000000
00000000
00000000
00000000
00000000
00000000
00000000
00000000
00000000
00000000
00000000
00000000
00000000
00000000
00000000
00000000
00000000
00000000
00000000
00000000
00000000
00000000
00000000
00000000
00000000
00000000
00033000
00000000
00000000
00000000
00000000
00000000
00000000
00000000
00000000
00000000
00000000
00000000
00000000
00000000
00000000
00000000
00000000
00000000
00000000
00000000
00000000
00000000
00000000
00000000
00000000
00000000
00000000
00000000
00000000
00000000
00000000
00000000
00000000
00000000
00000000
00000000
00000000
;
