#TITLE:Seventh Summer of Love;
#SUBTITLE:;
#ARTIST:void (Mournfinale);
#TITLETRANSLIT:;
#SUBTITLETRANSLIT:;
#ARTISTTRANSLIT:;
#GENRE:;
#CREDIT:Telperion;
#MUSIC:Seventh Summer of Love.ogg;
#BANNER:Seventh Summer of Love.png;
#BACKGROUND:Seventh Summer of Love-bg.png;
#JACKET:Seventh Summer of Love-jacket.png;
#CDTITLE:;
#SAMPLESTART:43.097;
#SAMPLELENGTH:21.333;
#SELECTABLE:YES;
#OFFSET:-0.421;
#BPMS:0.000=90.000;
#STOPS:;
#BGCHANGES:;
#FGCHANGES:;

//--------------- dance-double - Telperion ----------------
#NOTES:
     dance-double:
     Telperion:
     Challenge:
     15:
     0,0,0,0,0:
00000000
00000000
00000000
00000000
,
00000000
00000000
00000000
00000000
,
00000000
00000000
00000000
00000000
,
00000000
00000000
00000000
00000000
,
00001000
00010000
00001000
00100000
00000000
00000000
00001000
00010000
00001000
00100000
00000000
00000000
01000000
00000000
00200000
00000000
,
00001000
00000000
00000000
01000000
00000000
00001000
00000000
00000000
00320000
00000000
00000000
00000000
01030000
00000000
00001000
00000000
,
00010000
00001000
00010000
00000010
00000000
00000000
00010000
00001000
00010000
00000010
00000000
00000000
00000100
00000000
00000020
00000000
,
00010000
00000000
00000000
00000100
00000000
00010000
00000000
00000000
00002030
00000000
00000000
00000100
00000000
00003100
00000000
00000000
,
01000000
00100000
00010000
00001000
00000000
00000000
00000000
00000010
00000100
00000010
00001000
00010000
00000000
00000000
00100000
01000000
,
00010000
00100000
01000000
00010000
00001000
01000000
00100000
00010000
00001000
00100000
00000010
00010000
00001000
00010000
00000100
00001000
,
00000010
00000100
00001000
00010000
00000000
00000000
00000000
01000000
00100000
01000000
00010000
00001000
00000000
00000000
00000100
00000010
,
00001000
00000100
00000010
00001000
00010000
00000010
00000100
00001000
00010000
00000100
01000000
00010000
00100000
00001000
00010000
00001000
,
00100000
01000000
00010000
00001000
00000000
00000000
00000000
00000100
00000010
00000100
00001000
00010000
00000000
00000000
01000000
00100000
,
00010000
01000000
00100000
00010000
00001000
00100000
01000000
00010000
00001000
01000000
00000100
00010000
00001000
00010000
00000010
00001000
,
00000100
00000010
00001000
00010000
00200000
00000000
00000000
01300000
00100000
00010000
00001000
00000010
00000200
00000000
00000310
00001000
,
00010000
00000010
00000100
00001000
00010000
00000100
01000000
00001000
00200000
00000000
00000000
00000000
00300000
00000000
00000000
00000000
,
00010000
01000000
00100000
00010000
00002000
00000000
00000000
01003000
00000100
00010000
00000010
00010000
00002000
00000000
00103000
01000000
,
00010000
01000000
00100000
00010000
01000000
00100000
00010000
00001000
00100000
01000000
00010000
00001000
00000100
00000010
00010000
00000010
,
00001000
00000100
00000010
00001000
00020000
00000000
00000000
00030100
01000000
00001000
00100000
00001000
00020000
00000000
00030010
00000100
,
00001000
00000100
00000010
00001000
00000100
00000010
00001000
00010000
00000010
00000100
00001000
01000000
00010000
00100000
00010000
01000000
,
00001000
00100000
01000000
00010000
00002000
00000000
00000000
00000000
00103000
00000010
00000100
00001000
00020000
00000000
00000000
00000000
,
00030100
01000000
00010000
00100000
00000010
00001000
00000100
01000000
00010000
00100000
00001000
00010000
01000000
00100000
00001000
00010000
,
00100000
01000000
00100000
00010000
00002000
00000000
00000000
00103000
01000000
00010000
01000000
00100000
00002000
00000000
00013000
00000010
,
00000100
00001000
00010000
01000000
00010000
00001000
00000100
00000010
00020000
00000000
00000000
00000000
00000000
00000000
00000000
00000000
,
00032000
00000000
00000000
00100000
00000000
00010000
00000000
00000000
02003000
00000000
00000000
00010000
00000000
00100000
00000000
00000000
,
03002000
00000000
00000000
00010000
00000000
00100000
00000000
00000000
00023000
00000000
00000000
01030000
00000000
00010000
00000000
00001000
,
00020000
00000000
00000000
00000010
00000000
00001000
00000000
00000000
00030200
00000000
00000000
00001000
00000000
00000010
00000000
00000000
,
00020300
00000000
00000000
00001000
00000000
00000010
00000000
00000000
00032000
00000000
00000000
00000000
00003100
00000000
00001000
00000000
,
00010000
00010000
00001000
00001000
00100000
00100000
00010000
00010000
,
01000000
01000000
00100000
00100000
00010000
00010000
00001000
00000100
,
00000010
00001000
00000010
00001000
00000100
00010000
00000100
00010000
,
00001000
00100000
00001000
00100000
00010000
01000000
00010000
01000000
,
00000200
00000000
00000000
00000000
,
00000020
00000000
00000330
00000110
,
00001000
00000100
00000010
00000100
00001000
00000000
00000000
00000010
00000100
00001000
00010000
00001000
01000000
00000000
00010000
00100000
,
01000000
00010000
00000100
00001000
00000100
00000000
00010000
00001000
00010000
00000010
00001000
00100000
01000000
00000000
00001000
01000000
,
00010000
00100000
01000000
00100000
00010000
00000000
00000000
01000000
00100000
00010000
00001000
00010000
00000010
00000000
00001000
00000100
,
00000010
00001000
00010000
00100000
00010000
00000000
00001000
00000100
00001000
00010000
01000000
00100000
00001000
00000000
00010000
00100000
,
01000000
00100000
00010000
00001000
00000020
00000000
00000000
00000000
00000130
00000010
00001000
00010000
00200000
00000000
00000000
00000000
,
01300000
00010000
00100000
00001000
00010000
00000010
00001000
00000100
00000010
00001000
00010000
01000000
00100000
00010000
01000000
00001000
,
01000000
00100000
00010000
00001000
00000020
00000000
00000000
00000130
00000010
00001000
00010000
00100000
02000000
00000000
03100000
00010000
,
00001000
00100000
01000000
00010000
00001000
01000000
00000100
00010000
00000020
00000000
00000000
00000000
00000200
00000000
00000000
00000000
,
00000330
00000000
00000000
00000000
00000000
00000000
00000000
00000000
00010000
00001000
00010000
00000010
00001000
00000010
00010000
00001000
00100000
00000000
00000000
00000000
01000000
00000000
00100000
00000000
00000000
00000000
00001000
00000000
00010000
00000000
00000000
00000000
,
00200000
00000000
00000000
00000000
00000000
00000000
00000000
00000000
00000000
00000000
00000000
00000000
01300000
00000000
00100000
00000000
00010000
00000000
00001000
00000000
00000010
00000000
00000100
00000000
00010000
00000000
00000000
00000000
00000000
00000000
00001000
00000000
00000000
00010000
00000000
00000000
00000020
00000000
00000000
00000000
00000000
00000000
00000000
00000000
00000000
00000000
00000000
00000000
,
00000130
00000000
00000000
00000000
00000000
00000000
00000000
00000000
00000010
00001000
00000010
00000000
00010000
00001000
00100000
00000000
00010000
00000000
01000000
00000000
00010000
00000000
00100000
00000000
01000000
00000000
00010000
00000000
00001000
00000000
00000100
00000000
,
00000010
00000000
00000100
00001000
00000000
00010000
00001000
00000000
00000010
00000000
00000100
00010000
00001000
00000000
01000000
00000000
,
01100000
00000000
00000000
00000000
00000000
00000000
00000000
00000000
00010000
01000000
00001000
00000000
00010000
00000100
00001000
00000000
00000010
00000000
00000000
00000000
00000100
00000000
00001000
00000000
00000000
00000000
00010000
00000000
00000100
00000000
00000020
00000000
,
00000000
00000000
00000000
00000000
00000130
00010000
00001000
00010000
00100000
00000000
00000000
01000000
00000000
00000000
00100000
00000000
,
00010000
00000000
00000000
00000000
00001000
00000000
00100000
00000000
00000000
00000000
01000000
00000000
00100000
00010000
00100000
00001000
00010000
00000000
00000010
00001000
00000010
00010000
00001000
00010000
00000100
00000000
01000000
00010000
01000000
00001000
00010000
00001000
,
00100000
00000000
00000000
00000000
00000000
00000000
00010000
00000000
00000000
01000000
00000000
00000000
00000000
00000000
00000000
00100000
00000000
00000000
00010000
00000000
00000000
00000000
00000000
00000000
00001000
00000000
00000000
00010000
00000000
00000000
00000000
00000000
00000000
00001000
00000000
00000000
00000010
00000000
00000000
00000000
00000100
00000000
00000000
00000000
00001000
00000000
00000000
00000000
00000020
00000000
00000000
00000000
00000000
00000000
00000000
00000000
00000000
00000000
00000000
00000000
00000000
00000000
00000000
00000000
00000000
00000000
00000000
00000000
00000000
00000000
00000000
00000000
00000000
00000000
00000000
00000000
00000000
00000000
00000000
00000000
00000000
00000000
00000000
00000000
00000000
00000000
00000000
00000000
00000000
00000000
00000000
00000000
00000000
00000000
00000000
00000000
,
00000030
00000000
00000000
00000000
;
