#TITLE:Set Me Free;
#SUBTITLE:;
#ARTIST:Lucrezia B.;
#TITLETRANSLIT:;
#SUBTITLETRANSLIT:;
#ARTISTTRANSLIT:;
#CREDIT:;
#BANNER:;
#BACKGROUND:;
#LYRICSPATH:;
#CDTITLE:;
#MUSIC:Set Me Free.ogg;
#OFFSET:-0.088;
#SAMPLESTART:88.537;
#SAMPLELENGTH:12.000;
#SELECTABLE:YES;
#BPMS:0.000=135.595;
#STOPS:;
#BGCHANGES:;

//---------------dance-single - ----------------
#NOTES:
     dance-single:
     :
     Hard:
     1:
     0.000,0.000,0.000,0.000,0.000:
0000
0000
0000
0000
;

//---------------dance-double - ----------------
#NOTES:
     dance-double:
     :
     Hard:
     13:
     0.591,0.595,0.150,0.032,0.553:
00000000
00000000
00000000
00000000
,
00000000
00000000
00000000
00000000
,
00000000
00000000
00000000
00000000
,
00000000
00000000
00000000
00000000
,
00011000
00000000
00010000
00001000
00000000
00010000
00001000
00000000
00000200
00000000
00000300
00000000
00000000
00000000
00000000
00000000
,
00011000
00000000
00001000
00010000
00000000
00001000
00010000
00000000
02000000
00000000
03000000
00000000
00000000
00000000
00000000
00000000
,
00011000
00000000
00010000
00001000
00000000
00010000
00001000
00000000
00001000
00000000
00000000
00000000
00000000
00000000
00000000
00000000
,
00011000
00000000
00001000
00010000
00000000
00000000
00010000
00000000
00000000
00000000
00000000
00000000
00000000
00000000
00000000
00000000
,
00011000
00000000
00010000
00001000
00000000
00010000
00001000
00000000
00000020
00000000
00000030
00000000
00000000
00000000
00000000
00000000
,
00011000
00000000
00001000
00010000
00000000
00001000
00010000
00000000
00200000
00000000
00300000
00000000
00000000
00000000
00000000
00000000
,
00010000
00001000
00010000
00000000
00000100
00000000
00000000
00000000
00000010
00000000
00000100
00000000
00010000
00000000
00000000
00000000
,
00001000
00010000
01000000
00100000
00010000
01000000
00001000
00010000
,
00001000
00010000
00000000
00010000
00000100
00000000
00000010
00000000
00000010
00000000
00001000
00000000
00000010
00000000
00000100
00000000
,
00010000
00000000
00010000
00001000
00010000
00000000
00001000
00010000
,
00001000
00100000
00000000
00100000
00010000
00000000
01000000
00000000
00100000
00000000
00010000
00000000
00001000
00000000
00100000
00000000
,
00010000
00001000
00010000
00100000
01000000
00010000
00001000
00000100
,
00000010
00000000
00010000
00001000
00000000
00100000
00000000
00010000
00000000
01000000
00000000
00100000
01000000
00000000
00010000
00000000
,
00100000
00000000
00001000
00010000
00000000
00000010
00000000
00001000
00000000
00000100
00000000
00001000
00000010
00000000
00010000
00000000
,
00001000
00000000
00100000
00010000
00000000
01000000
00000000
00100000
00000000
00010000
00000000
00001000
00000100
00000000
00001000
00000000
,
00010000
00000000
00100000
01000000
00000000
00001000
00000000
00010000
00000000
00000100
00000000
00000010
00001000
00000000
00010000
00000000
,
00100000
01000000
00100000
00000000
00010000
00000000
00010000
00000000
00001000
00000000
00001000
00000100
00000000
00000100
00000010
00000000
,
00000000
00000000
00010000
00001000
00000000
00010000
00001000
00000000
00100000
00000000
00100000
00010000
00000000
00010000
00100000
00000000
,
01000000
00010000
01000000
00010000
01000000
00000000
00001000
00000000
00010000
00000000
00001000
00000010
00000000
00000010
00000100
00000000
,
00001000
00000000
00100000
00010000
00100000
00000000
01000000
00000000
00010000
00001000
00010000
00001000
00010000
00000000
00000100
00000000
,
00000010
00001000
00000010
00001000
00000010
00000000
00000000
00000000
00000000
00000000
00001000
00010000
00000000
00001000
00010000
00000000
,
00000000
00000000
00010000
00100000
00000000
00010000
00100000
00000000
00000000
00000000
01000000
00010000
00000000
01000000
00010000
00000000
,
00100000
00001000
00100000
00001000
00010000
00000000
00000000
00000000
00000000
00000000
00000010
00001000
00000000
00000010
00001000
00000000
,
00000000
00000000
00000100
00010000
00000000
00000100
00010000
00000000
00001000
00000000
00100000
00010000
00000000
00100000
00010000
00000000
,
01000000
00000000
00100000
00000000
00010000
00001000
00010000
00001000
00000000
00000010
00000000
00000100
00000000
00010000
00001000
00000000
,
00010000
00000000
00100000
00000000
01000000
00010000
01000000
00010000
00000000
00100000
00000000
01000000
00000000
00010000
00001000
00000000
,
00000010
00000000
00000010
00000100
00000000
00000100
00010000
00000000
00000000
00000000
00011000
00000000
00000000
00000000
00000000
00000000
,
00010000
00000000
00010000
00100000
00000000
00100000
01000000
00000000
00000000
00000000
00011000
00000000
00000000
00000000
00000000
00000000
,
00010000
00000000
00000100
00000000
00000010
00001000
00000010
00001000
00000000
00010000
00000000
00100000
00000000
01000000
00001000
00000000
,
00010000
00000000
00100000
00000000
01000000
00010000
01000000
00010000
00000000
00100000
00000000
01000000
00000000
00010000
00001000
00000000
,
00000010
00000000
00000010
00000100
00000000
00000100
00010000
00000000
00000000
00000000
00011000
00000000
00000000
00000000
00000000
00000000
,
00010000
00000000
00010000
00100000
00000000
00100000
01000000
00000000
00000000
00000000
00011000
00000000
00000000
00000000
00000000
00000000
,
00010000
00001000
00000100
00001000
00010000
00001000
00000010
00000100
,
00001000
00000000
00000010
00000000
00000100
00000000
00010000
00000000
01000000
00000000
01000000
00001000
00000000
00001000
00010000
00000000
,
00000010
00000100
00001000
00010000
00100000
00010000
00001000
00000100
,
00000010
00000000
00010000
00000000
00001000
00000000
00100000
00000000
01000000
00000000
00010000
01000000
00000000
01000000
00100000
00000000
,
01000000
00010000
00001000
00000010
00001000
00010000
01000000
00100000
,
00010000
00000000
01000000
00000000
00100000
00000000
00010000
00000000
00001000
00000000
00000100
00000010
00000000
00000010
00001000
00000000
,
00000100
00000010
00001000
00000010
00000100
00010000
00100000
00010000
,
00001000
00000000
00010000
00000000
01000000
00000000
00100000
00000000
00010000
00000000
01000000
00001000
00000000
00001000
00010000
00000000
,
00000010
00000000
00000100
00001000
00010000
00000000
00100000
00000000
01000000
00000000
00010000
00000000
01010000
00000000
00000000
00000000
,
01000000
00010000
00100000
01000000
00010000
00001000
00000010
00001000
,
00100000
00010000
01000000
00100000
00010000
00001000
00011000
00000000
,
00010000
00001000
00000010
00000100
00000000
00000100
00001000
00000010
,
00000100
00000000
00001000
00000000
00010000
00000000
00001000
00000000
00000100
00000000
00001000
00010000
00000000
00010000
00001000
00000000
,
00100000
00010000
00001000
00010000
00000000
00100000
00000000
00000000
,
01000000
01000000
00010000
00010000
00001000
00000010
00000100
00010000
,
00001000
00100000
00010000
01000000
00100000
00010000
00011000
00000000
,
00001000
00100000
01000000
00010000
00001000
00000100
00000010
00001000
,
00000100
00000010
00000100
00001000
00000100
00000000
00010000
00000000
00001000
00010000
00100000
00010000
00001000
00000000
00001000
00000000
,
00010000
00010000
00001000
00001000
00000010
00000100
00010000
00100000
,
00010000
00001000
00001100
00000000
00000100
00000010
00001010
00000000
,
00000010
00010000
00100000
00010000
00001000
00010000
01000000
00010000
,
00001000
00000000
00000010
00001000
00000010
00000000
00000010
00000000
00000100
00000000
00010000
00001000
00010000
00001000
00010000
00000000
,
00010000
00000000
00001000
00000000
00100000
00010000
01000000
00010000
00000000
00100000
00000000
01000000
00000000
00010000
00001000
00000000
,
00000010
00000000
00000100
00000000
00010000
00001000
00010000
00000010
00000000
00000100
00000000
00001000
00000000
00010000
01000000
00000000
,
00100000
00000000
00100000
00001000
00000000
00001000
00010000
00000000
00000000
00000000
00011000
00000000
00000000
00000000
00000000
00000000
,
00000010
00000000
00000010
00010000
00000000
00010000
00001000
00000000
00000000
00000000
00011000
00000000
00000000
00000000
00000000
00000000
,
00010000
00000000
00001000
00000000
00000010
00000100
00001000
00000100
00000000
00000010
00000000
00001000
00000000
00010000
00001000
00000000
,
00010000
00000000
00100000
00000000
01000000
00010000
00100000
00010000
00000000
01000000
00000000
00100000
00000000
00010000
00001000
00000000
,
00000010
00000000
00000010
00000100
00000000
00000100
00010000
00000000
00000000
00000000
00011000
00000000
00000000
00000000
00000000
00000000
,
00100000
00000000
00100000
00010000
00000000
00010000
01000000
00000000
01010000
00000000
00000000
00000000
00000000
00000000
00000000
00000000
;

//---------------dance-double - ----------------
#NOTES:
     dance-double:
     :
     Medium:
     11:
     0.426,0.491,0.079,0.032,0.146:
00000000
00000000
00000000
00000000
,
00000000
00000000
00000000
00000000
,
00000000
00000000
00000000
00000000
,
00000000
00000000
00000000
00000000
,
00001000
00000000
00010000
00001000
00000000
00010000
00001000
00000000
00200000
00000000
00300000
00000000
00000000
00000000
00000000
00000000
,
00100000
00000000
00001000
00010000
00000000
00001000
00010000
00000000
00000020
00000000
00000030
00000000
00000000
00000000
00000000
00000000
,
00000010
00000000
00010000
00001000
00000000
00010000
00001000
00000000
00001000
00000000
00000000
00000000
00000000
00000000
00000000
00000000
,
00010000
00000000
00000000
00001000
00000000
00000000
00010000
00000000
00000000
00000000
00000000
00000000
00000000
00000000
00000000
00000000
,
00001000
00000000
00000100
00000010
00000000
00000100
00000010
00000000
00020000
00000000
00030000
00000000
00000000
00000000
00000000
00000000
,
00001000
00000000
00100000
01000000
00000000
00100000
01000000
00000000
00020000
00000000
00030000
00000000
00000000
00000000
00000000
00000000
,
00001000
00000100
00000010
00000100
,
00010000
00100000
01000000
00100000
,
00001000
00000000
00000000
00001000
00000100
00000000
00000000
00000000
00000010
00000000
00001000
00000000
00000100
00000000
00000000
00000000
,
00001100
00000100
00100000
00001000
,
00010000
00000000
00000000
00010000
01000000
00000000
00000000
00000000
00100000
00000000
00010000
00000000
01000000
00000000
00000000
00000000
,
01000000
00010000
01000000
00010000
00100000
00001000
00100000
00001000
,
00010000
00000000
00010000
00000100
00000010
00000000
00000100
00001000
,
00010000
00000000
00010000
00001000
00000010
00000000
00000010
00010000
,
00001000
00000000
00001000
00100000
01000000
00000000
01000000
00100000
,
00010000
00000000
00010000
00100000
00001000
00000000
00001000
00010000
,
00000100
00000000
00000100
00000000
00001000
00000000
00001000
00000000
00000010
00000000
00000010
00001000
00000000
00001000
00000010
00000000
,
00001000
00000000
00001000
00000000
00000100
00000000
00000100
00000000
00010000
00000000
00010000
00001000
00000000
00001000
00010000
00000000
,
00001000
00000000
00001000
00000000
01000000
00000000
01000000
00000000
00010000
00000000
00010000
00100000
00000000
00100000
00010000
00000000
,
00001000
00000000
00001000
00000000
00000010
00000000
00000010
00000000
00000100
00000000
00001000
00010000
00000000
00010000
00001000
00000000
,
00000010
00000000
00000010
00000000
00000100
00000000
00000100
00000000
00010000
00000000
00010000
00001000
00000000
00001000
00010000
00000000
,
00001000
00000000
00001000
00000000
00100000
00000000
00100000
00000000
00010000
00000000
00010000
01000000
00000000
01000000
00010000
00000000
,
00100000
00000000
00100000
00000000
00001000
00000000
00001000
00000000
00010000
00000000
00010000
00001000
00000000
00001000
00010000
00000000
,
00000100
00000000
00000100
00000000
00001000
00000000
00001000
00000000
00000010
00000000
00000010
00000100
00000000
00001000
00000100
00000000
,
00000010
00010000
00001000
00000000
00001000
00100000
00010000
01000000
,
00100000
00010000
00001000
00000000
00001000
00010000
00000010
00000100
,
00001000
00000000
00000000
00010000
00000000
00000000
01000000
00000000
00000000
00000000
00100000
00000000
00000000
00000000
00000000
00000000
,
01000000
00000000
00000000
00010000
00000000
00000000
00001000
00000000
00000000
00000000
00010000
00000000
00000000
00000000
00000000
00000000
,
00001000
00010000
00000010
00000000
00000010
00000100
00001000
00010000
,
00001000
00000010
00000100
00000000
00000100
00010000
00100000
01000000
,
00001000
00000000
00000000
00100000
00000000
00000000
01000000
00000000
00000000
00000000
00011000
00000000
00000000
00000000
00000000
00000000
,
00000010
00000000
00000000
00000100
00000000
00000000
00001000
00000000
00000000
00000000
00011000
00000000
00000000
00000000
00000000
00000000
,
00010000
00001000
00100000
00010000
00000000
01000000
00000000
00100000
,
00000000
00010000
00000000
00001000
00000000
00000000
00000000
00000000
,
00001000
00010000
00000010
00001000
00000000
00000100
00000000
00000010
,
00000000
00001000
00000000
00010000
00000000
00000000
00000000
00000000
,
00010000
00001000
01000000
00010000
00000000
00100000
00000000
01000000
,
00000000
00010000
00000000
00001000
00000000
00000000
00000000
00000000
,
00001000
00010000
00000100
00001000
00000000
00000010
00000000
00000100
,
00000000
00001000
00000000
00010000
00000000
00000000
00000000
00000000
,
00010000
00001000
00100000
00010000
00000000
00010000
01000000
00000000
,
01000000
00100000
00010000
00001000
00000000
00001000
00010000
00100000
,
00010000
00001000
00000100
00000010
00000000
00000010
00001000
00000000
,
00001000
00000010
00010000
00001000
00000000
00001000
00100000
00010000
,
00000000
00000000
00000000
00000000
,
00010000
00100000
01000000
00010000
00000000
00001000
00000000
00000000
,
00000010
00000010
00000100
00000100
00010000
00001000
00000000
00011000
,
00000000
01100000
00000000
01000000
00100000
00000000
00001000
00000000
,
00001000
00010000
00001000
00010000
00000010
00000100
00001000
00010000
,
00001000
00001000
00100000
00100000
00010000
00001000
00000010
00000000
,
00010000
00010000
00001000
00001000
00100000
00010000
00000000
00110000
,
00000000
00011000
00000000
00010000
00001000
00000000
00000100
00000000
,
00000010
00001000
00000010
00001000
00010000
00100000
00010000
00100000
,
01000000
01000000
00010000
00010000
00000100
00000010
00001000
00000000
,
00010000
00001000
00100000
00000000
00010000
01000000
00100000
00010000
,
00001000
00000100
00000010
00000000
00001000
00000010
00010000
00100000
,
01000000
00000000
00000000
00001000
00000000
00000000
00010000
00000000
00000000
00000000
00011000
00000000
00000000
00000000
00000000
00000000
,
00000010
00000000
00000000
00010000
00000000
00000000
00001000
00000000
00000000
00000000
00011000
00000000
00000000
00000000
00000000
00000000
,
00000010
00001000
00000100
00000000
00000010
00001000
00010000
00100000
,
01000000
00010000
00100000
00000000
00001000
00010000
00000100
00000010
,
00001000
00000000
00000000
00010000
00000000
00000000
01000000
00000000
00000000
00000000
01100000
00000000
00000000
00000000
00000000
00000000
,
00010000
00000000
00000000
00001000
00000000
00000000
00000100
00000000
00000010
00000000
00000000
00000000
00000000
00000000
00000000
00000000
;

//---------------dance-double - ----------------
#NOTES:
     dance-double:
     :
     Easy:
     6:
     0.253,0.284,0.063,0.047,0.032: // measure 1
00000000
00000000
00000000
00000000
,  // measure 2
00000000
00000000
00000000
00000000
,  // measure 3
00000000
00000000
00000000
00000000
,  // measure 4
00000000
00000000
00000000
00000000
,  // measure 5
00010000
00000000
00001000
00000000
00000200
00000300
00000000
00000000
,  // measure 6
00001000
00000000
00010000
00000000
02000000
03000000
00000000
00000000
,  // measure 7
00010000
00010000
00010000
00000000
,  // measure 8
00001000
00001000
00000000
00000000
,  // measure 9
00010000
00000000
00001000
00000000
00000020
00000030
00000000
00000000
,  // measure 10
00001000
00000000
00010000
00000000
00200000
00300000
00000000
00000000
,  // measure 11
00010000
00000000
00010000
00000000
,  // measure 12
00001000
00000000
00001000
00000000
,  // measure 13
00000100
00000010
00010000
00001000
,  // measure 14
00010000
00000000
00010000
00000000
,  // measure 15
00001000
00100000
00010000
01000000
,  // measure 16
00100000
00010000
00001000
00010000
,  // measure 17
00011000
00000000
00010000
00000100
,  // measure 18
00001000
00000000
00000010
00000100
,  // measure 19
00001000
00000000
00010000
00001000
,  // measure 20
00100000
00000000
00010000
01000000
,  // measure 21
00100000
00000000
00100000
00000000
,  // measure 22
01000000
00010000
01000000
00010000
,  // measure 23
00000100
00000000
00000100
00000000
,  // measure 24
00000010
00001000
00000010
00001000
,  // measure 25
01000000
00000000
00100000
00000000
,  // measure 26
00001000
00010000
00001000
00010000
,  // measure 27
00000010
00000000
00000010
00000000
,  // measure 28
00000100
00001000
00000100
00001000
,  // measure 29
00010000
00100000
01000000
00100000
,  // measure 30
00001000
00000100
00000010
00000100
,  // measure 31
00001000
00000000
00000000
00001000
00000000
00000000
00010000
00000000
00000000
00000000
00011000
00000000
00000000
00000000
00000000
00000000
,  // measure 32
00010000
00000000
00000000
00010000
00000000
00000000
00001000
00000000
00000000
00000000
00011000
00000000
00000000
00000000
00000000
00000000
,  // measure 33
00010000
00100000
01000000
00100000
,  // measure 34
00001000
00000100
00000010
00000100
,  // measure 35
00001000
00000000
00000000
00001000
00000000
00000000
00010000
00000000
00000000
00000000
00011000
00000000
00000000
00000000
00000000
00000000
,  // measure 36
00010000
00000000
00000000
00010000
00000000
00000000
00001000
00000000
00000000
00000000
00011000
00000000
00000000
00000000
00000000
00000000
,  // measure 37
00001000
00000010
00000100
00001000
,  // measure 38
00010000
00001000
00010000
00000000
,  // measure 39
00010000
00100000
01000000
00001000
,  // measure 40
00010000
00001000
00000100
00000000
,  // measure 41
00000010
00001000
00000100
00001000
,  // measure 42
00000010
00001000
00000010
00000000
,  // measure 43
00100000
00010000
01000000
00010000
,  // measure 44
00100000
00001000
00000100
00000000
,  // measure 45
00000010
00010000
00001000
00000000
,  // measure 46
00001000
00100000
00010000
00100000
,  // measure 47
01000000
00010000
00001000
00000000
,  // measure 48
00001000
00000010
00000100
00010000
,  // measure 49
00001000
00000000
00000000
00000000
,  // measure 50
00001000
00010000
00100000
00010000
,  // measure 51
00001000
00000100
00000010
00010000
,  // measure 52
00001000
00100000
00010000
01000000
,  // measure 53
00200000
00000000
00000000
00000000
00000000
01300000
00000000
00000000
,  // measure 54
00100000
00000000
00010000
00000000
00001000
00010000
00000000
00000000
,  // measure 55
00010000
00001000
00000010
00000100
,  // measure 56
00001000
00000010
00000100
00001000
,  // measure 57
00020000
00000000
00000000
00000000
00000000
00130000
00000000
00000000
,  // measure 58
01000000
00000000
00010000
00000000
00001000
00010000
00000000
00000000
,  // measure 59
00001000
00000010
00000100
00000010
,  // measure 60
00010000
00100000
01000000
00100000
,  // measure 61
00001000
00000000
00000000
00001000
00000000
00000000
00010000
00000000
00000000
00000000
00011000
00000000
00000000
00000000
00000000
00000000
,  // measure 62
00010000
00000000
00000000
00010000
00000000
00000000
00001000
00000000
00000000
00000000
00011000
00000000
00000000
00000000
00000000
00000000
,  // measure 63
00010000
00100000
01000000
00100000
,  // measure 64
00001000
00000010
00000100
00000010
,  // measure 65
00010000
00000000
00000000
00010000
00000000
00000000
00001000
00000000
00000000
00000000
00011000
00000000
00000000
00000000
00000000
00000000
,  // measure 66
00001000
00000000
00000000
00001000
00000000
00000000
00010000
00000000
01000000
00000000
00000000
00000000
00000000
00000000
00000000
00000000
;
