#VERSION:0.83;
#TITLE:SPOOKY;
#SUBTITLE:;
#ARTIST:good-cool;
#TITLETRANSLIT:;
#SUBTITLETRANSLIT:;
#ARTISTTRANSLIT:;
#GENRE:HARD HOUSE;
#ORIGIN:;
#CREDIT:;
#BANNER:spooky-bn.png;
#BACKGROUND:spooky-bg.png;
#PREVIEWVID:;
#JACKET:spooky-jacket.png;
#CDIMAGE:;
#DISCIMAGE:;
#LYRICSPATH:;
#CDTITLE:cdtitle.png;
#MUSIC:spooky.ogg;
#OFFSET:-2.074513;
#SAMPLESTART:5.289000;
#SAMPLELENGTH:12.000000;
#SELECTABLE:YES;
#BPMS:0.000=140.000;
#STOPS:;
#DELAYS:;
#WARPS:;
#TIMESIGNATURES:0.000=4=4;
#TICKCOUNTS:0.000=4;
#COMBOS:0.000=1;
#SPEEDS:0.000=1.000=0.000=0;
#SCROLLS:0.000=1.000;
#FAKES:;
#LABELS:0.000=Song Start;
#BGCHANGES:;
#KEYSOUNDS:;
#ATTACKS:
;

//---------------dance-double - ----------------
#NOTEDATA:;
#CHARTNAME:;
#STEPSTYPE:dance-double;
#DESCRIPTION:;
#CHARTSTYLE:;
#DIFFICULTY:Hard;
#METER:11;
#RADARVALUES:0.485123,0.556749,0.188659,0.139444,0.143545,414.000000,391.000000,23.000000,17.000000,0.000000,0.000000,0.000000,0.000000,0.000000,0.485123,0.556749,0.188659,0.139444,0.143545,414.000000,391.000000,23.000000,17.000000,0.000000,0.000000,0.000000,0.000000,0.000000;
#CREDIT:TonyAkita;
#NOTES:
00000000
00000000
00000000
00000000
,
00000000
00000000
00000000
00000000
,
00100000
00010000
01000000
00010000
00100000
00010000
00001000
00000000
,
00000010
00001000
00000100
00001000
00000010
00010000
00001000
00010000
,
01000000
00100000
01100000
00000000
00100000
00010000
00001000
00000100
,
00000010
00000000
00000000
00000010
00000000
00000000
00000100
00000000
00000000
00000100
00000000
00000000
00001000
00000000
00000000
00000000
,
00000010
00001000
00000100
00001000
00000010
00001000
00010000
00000000
,
00100000
00010000
01000000
00010000
00100000
00001000
00010000
00001000
,
00000100
00000010
00000110
00000000
00000010
00001000
00010000
01000000
,
00100000
00000000
00000000
00100000
00000000
00000000
01000000
00000000
00000000
01000000
00000000
00000000
00010000
00000000
00001000
00000000
,
00000200
00000010
00000000
00001000
,
00000000
00000000
00000010
00000000
00000300
00000000
00001000
00010000
,
02000000
00100000
00000000
03010000
,
00001000
00010000
00010000
00000000
00011000
00000000
01100000
00000000
,
02000000
00100000
00000000
00010000
,
00000000
00000000
00100000
00000000
03000000
00000000
00010000
00001000
,
00000200
00000010
00000000
00001300
,
00010000
00001000
00001000
00000000
00001000
00010000
00010000
00000000
,
01000000
00000000
00000000
00100000
00000000
00000000
01000000
00000000
00010000
00000000
00000000
00001000
00000000
00000000
00010000
00000000
,
00000010
00000000
00000000
00000100
00000000
00000000
00000010
00000000
00010000
00000000
00000000
00001000
00000000
00000000
00010000
00000000
,
01000000
00000000
00000000
00100000
00000000
00000000
00010000
00000000
00001000
00000000
00000000
00000010
00000000
00000000
00000100
00000000
,
00001000
00000000
00000000
00010000
00000000
00000000
00001000
00000000
00000100
00000010
00000100
00000000
00000110
00000000
00000000
00000000
,
00000010
00000000
00000000
00001000
00000000
00000000
00010000
00000000
01000000
00000000
00000000
00100000
00000000
00000000
01000000
00000000
,
00100000
00000000
00000000
00010000
00000000
00000000
00001000
00000000
00000100
00000000
00000000
00000010
00000000
00000000
00000100
00000000
,
00000010
00000000
00000000
00001000
00000000
00000000
00010000
00000000
00100000
00000000
00000000
00010000
00000000
00000000
00001000
00000000
,
00000010
00000000
00000000
00000100
00000000
00000000
00000010
00000000
00010000
00001000
00010000
00000000
00011000
00000000
00000000
00000000
,
00001000
00000100
00000010
00001000
00010000
01000000
00100000
00010000
,
00001000
00000100
00001000
01000000
00001000
00000100
00001000
00000000
,
00010000
01000000
00100000
00000000
00001000
00000000
00010000
00000000
,
00001000
00000100
00000010
00000000
00010000
00001000
00010000
00001000
,
00010000
01000000
00100000
00010000
00001000
00000100
00000010
00001000
,
00010000
01000000
00010000
00000100
00010000
01000000
00010000
00000000
,
00001000
00000100
00000010
00000000
00010000
00000000
00001000
00010000
,
01000000
00000000
00100000
00000000
01000000
00000000
00100000
00000000
00000000
00000000
00101000
00000000
00000000
00010010
00000000
00000000
,
00201000
00000000
00000000
00320000
00000000
00000000
01000000
00000000
,
00230000
00000000
00000000
00320000
00000000
00000000
00030000
00001000
,
00000200
00000000
00000000
00002300
00000000
00000000
00000010
00000000
,
00003200
00000000
00000000
00000000
00000000
00000310
00000000
00000000
00000000
00000000
00000110
00000000
00000000
00000000
00001000
00000000
,
00020000
00000000
00000000
00032000
00000000
00000000
00000010
00000000
,
00023000
00000000
00000000
02030000
00000000
00000000
03100000
00000000
,
01100000
00011000
00000110
00011000
,
00010000
00000000
00001000
00000000
00010000
00000000
00001000
00000000
00000100
00000010
00000100
00000000
00000010
00000100
00000010
00000000
,
00001000
00010000
01000000
00000000
00010000
00001000
00000100
00000000
,
00000010
00000000
00000100
00000000
00010000
00000000
00000100
00000000
00000010
00000000
00000000
00000100
00000000
00000000
00000010
00000000
,
00001000
00010000
01000000
00000000
00010000
00001000
00000100
00000000
,
00000010
00000000
00001000
00000000
00010000
00000000
01000000
00000000
00100000
01000000
00100000
00000000
00000000
00000000
00010000
00000000
,
00001000
00010000
00001000
00000000
00010000
00001000
00010000
00000000
,
01000000
00000000
00100000
00000000
00001000
00000000
00100000
00000000
01000000
00000000
00000000
00100000
00000000
00000000
01000000
00000000
,
00010000
00001000
00010000
00000000
00001000
00010000
00001000
00000000
,
00000100
00000010
00000100
00000000
00000010
00000100
00000010
00000000
00001000
00000010
00001000
00000010
00001000
00000000
00010000
00000000
,
00100000
00010000
01000000
00010000
00100000
00010000
00001000
00000000
,
00000010
00001000
00000100
00001000
00000010
00010000
00001000
00010000
,
01000000
00000000
00100000
00000000
01100000
00000000
00000000
00000000
00100000
00000000
00000000
00010000
00000000
00000000
00001000
00000000
,
00000100
00000010
00000110
00000000
00000100
00000010
00000100
00001000
,
00000010
00001000
00000100
00001000
00000010
00001000
00010000
00000000
,
00100000
00010000
01000000
00010000
00100000
00001000
00010000
00001000
,
00000100
00000000
00000010
00000000
00000110
00000000
00000000
00000000
00000010
00000000
00000000
00001000
00000000
00000000
00010000
00000000
,
01000000
00100000
01100000
00000000
01000000
00100000
00010000
00001000
,
00000010
00000000
00000100
00000010
00000100
00000000
00000000
00000000
00000010
00000000
00001000
00000000
00010000
00000000
00000000
00000000
,
00100000
00010000
00001000
00000000
00000010
00000100
00000010
00010000
,
00001000
00100000
00001000
00100000
00000000
00011000
00000000
00001010
,
00000010
00001000
00010000
01000000
00100000
00010000
00001000
00000100
,
00000010
00000000
00001000
00000010
00001000
00000000
00000000
00000000
00000100
00000000
00001000
00000000
00010000
00000000
00000000
00000000
,
01000000
00010000
00001000
00000000
00000100
00000010
00000100
00010000
,
00001000
00100000
00001000
00100000
00000000
00011000
00000000
00010010
,
00000010
00001000
00010000
01000000
00100000
00010000
00001000
00022000
,
00000000
00000000
00000000
00000000
,
00000000
00000000
00000000
00000000
00000000
00000000
00000000
00033000
;

//---------------dance-double - ----------------
#NOTEDATA:;
#CHARTNAME:;
#STEPSTYPE:dance-double;
#DESCRIPTION:;
#CHARTSTYLE:;
#DIFFICULTY:Medium;
#METER:7;
#RADARVALUES:0.348023,0.417562,0.180457,0.106633,0.004101,297.000000,275.000000,22.000000,13.000000,0.000000,0.000000,0.000000,0.000000,0.000000,0.348023,0.417562,0.180457,0.106633,0.004101,297.000000,275.000000,22.000000,13.000000,0.000000,0.000000,0.000000,0.000000,0.000000;
#CREDIT:TonyAkita;
#NOTES:
00000000
00000000
00000000
00000000
,
00000000
00000000
00000000
00000000
,
00010000
00000000
00100000
00000000
00010000
00001000
00000100
00000000
,
00001000
00000000
00000010
00000000
00010000
00000000
00000000
00001000
,
00010000
00000000
00011000
00000000
00000000
00000000
00000000
00010000
,
00001000
00000000
00010000
00000100
,
00001000
00000000
00000010
00000000
00001000
00010000
01000000
00000000
,
00010000
00000000
00100000
00000000
00001000
00000000
00000000
00010000
,
00001000
00000000
00011000
00000000
00000000
00000000
00000000
00001000
,
00010000
00000000
00001000
01000000
,
00020000
00000000
00100000
00000000
,
01030000
00000000
00000000
00000000
00010000
00001000
00000100
00000000
,
00002000
00000000
00000010
00000000
,
00003100
00010000
00001000
00100000
,
00020000
00000000
01000000
00000000
,
00130000
00000000
00000000
00000000
00010000
00001000
00000100
00000000
,
00002000
00000000
00000100
00000000
,
00003010
00010000
00001000
00011000
,
00000100
00000100
00001000
00001000
,
00000010
00000000
00000010
00000000
00001000
00010000
01000000
00000000
,
00010000
00010000
00100000
00100000
,
00010000
00010000
01000000
01010000
,
01000000
01000000
00100000
00100000
,
01000000
00000000
01000000
00000000
00010000
00001000
00000100
00000000
,
00000100
00000100
00000010
00000010
,
00000100
00000000
00000100
00000000
00010000
00001000
00010000
00000000
,
00011000
00000000
00001000
00000100
00000000
00000100
00000010
00000000
,
00010000
00001000
00001000
00000000
00001000
00010000
00010000
00000000
,
00011000
00000000
00010000
01000000
00000000
01000000
00100000
00000000
,
00010000
00001000
00000010
00001000
00010000
01000000
00100000
00000000
,
01001000
00000000
00001000
00010000
00000000
00010000
00001000
00000000
,
00000100
00000010
00000010
00000000
00000010
00000100
00000100
00000000
,
00010010
00000000
00010000
00001000
00000000
00001000
00010000
00000000
,
00010010
00000000
00000000
00000000
00101000
00000000
00000000
00000000
00000000
00000000
00001000
00000000
00000000
00010000
00000000
00000000
,
00011000
00000000
00010000
00001000
00000000
00000000
00000100
00000100
,
00000010
00000000
00000000
00000220
00000000
00000000
00000330
00000000
,
00001010
00000000
00000010
00002000
00000000
00000000
00003010
00000000
,
00000100
00002000
00020000
00000000
00000000
00000000
00033000
00000000
,
00011000
00000000
00001000
00010000
00000000
00000000
01000000
01000000
,
00100000
00000000
00000000
02200000
00000000
00000000
03300000
00000000
,
01100000
00011000
00000110
00011000
,
00010000
00000000
00001000
00000000
00000100
00000010
00000100
00000010
,
00000100
00001000
00010000
00000000
01000000
00010000
00001000
00000000
,
00000010
00001000
00100000
00001000
,
00000100
00001000
00010000
00000000
01000000
00010000
00001000
00000000
,
00000100
00000010
00001000
00000010
,
00000100
00000010
00001000
00000000
00010000
00100000
01000000
00000000
,
00010000
00000100
00010000
01000000
,
00100000
00010000
00001000
00000000
00000010
00001000
00010000
00000000
,
01000000
00010000
00001000
00000100
,
00001000
00000000
00000010
00000000
00001000
00010000
01000000
00000000
,
00010000
00000000
00100000
00000000
00001000
00000000
00000000
00010000
,
00001000
00000000
00011000
00000000
00000000
00000000
00000000
00001000
,
00010000
00000000
00001000
01000000
,
00010000
00000000
00100000
00000000
00010000
00001000
00000100
00000000
,
00001000
00000000
00000010
00000000
00010000
00000000
00000000
00001000
,
00010000
00000000
00011000
00000000
00000000
00000000
00000000
00010000
,
00001000
00000000
00010000
00000100
,
00000010
00001000
00010000
00000000
01000000
00000000
01000000
00000000
,
00100000
00010000
00001000
00000000
00000100
00000000
00000100
00000000
,
00000010
00000100
00000010
00000000
00000100
00001000
00000010
00000000
,
00010000
00001000
00010000
01000000
,
00100000
00010000
00001000
00000000
00000100
00000000
00000100
00000000
,
00000010
00001000
00010000
00000000
01000000
00000000
01000000
00000000
,
00100000
01000000
00100000
00000000
00001000
00010000
00001000
00000000
,
00000100
00000010
00000100
00000010
00000100
00000000
00000220
00000000
,
00000000
00000000
00000000
00000000
,
00000000
00000000
00000000
00000000
00000000
00000000
00000000
00000330
;

//---------------dance-double - ----------------
#NOTEDATA:;
#CHARTNAME:;
#STEPSTYPE:dance-double;
#DESCRIPTION:;
#CHARTSTYLE:;
#DIFFICULTY:Easy;
#METER:4;
#RADARVALUES:0.188659,0.243155,0.090228,0.057418,0.000000,161.000000,150.000000,11.000000,7.000000,0.000000,0.000000,0.000000,0.000000,0.000000,0.188659,0.243155,0.090228,0.057418,0.000000,161.000000,150.000000,11.000000,7.000000,0.000000,0.000000,0.000000,0.000000,0.000000;
#CREDIT:TonyAkita;
#NOTES:
// measure 0
00000000
00000000
00000000
00000000
,  // measure 1
00000000
00000000
00000000
00000000
,  // measure 2
00100000
00010000
00001000
00000000
,  // measure 3
00001010
00000000
00000000
00000000
,  // measure 4
00000010
00000100
00000000
00000000
,  // measure 5
00000010
00000000
00000010
00000000
,  // measure 6
00000010
00001000
00010000
00000000
,  // measure 7
00110000
00000000
00000000
00000000
,  // measure 8
00100000
01000000
00000000
00000000
,  // measure 9
00100000
00000000
00100000
00000000
,  // measure 10
00002000
00000000
00000000
00000000
,  // measure 11
00003000
00000000
00010000
00010000
,  // measure 12
00020000
00000000
00000000
00030000
,  // measure 13
00001000
00000100
00000000
00000100
,  // measure 14
00000020
00000000
00000000
00000000
,  // measure 15
00000030
00000000
00000100
00000100
,  // measure 16
00000200
00000000
00000000
00000300
,  // measure 17
00000010
00001000
00010000
01000000
,  // measure 18
00100000
00000000
00100000
00000000
,  // measure 19
01000000
00000000
01000000
00000000
,  // measure 20
00001000
00000000
00010000
00000000
,  // measure 21
00010000
00000000
00001000
00000000
,  // measure 22
00000100
00000000
00000100
00000000
,  // measure 23
00000010
00000000
00000010
00000000
,  // measure 24
00010000
00000000
00001000
00000000
,  // measure 25
00001000
00000000
00010000
00000000
,  // measure 26
00011000
00000000
00010000
01000000
,  // measure 27
00100000
00000000
00100000
00000000
,  // measure 28
00110000
00000000
00010000
00000000
,  // measure 29
00001000
00000100
00000010
00000100
,  // measure 30
00001100
00000000
00001000
00010000
,  // measure 31
01000000
00000000
01000000
00000000
,  // measure 32
01010000
00000000
00010000
00000000
,  // measure 33
00001000
00000100
00000000
00000100
,  // measure 34
00000020
00000000
00000000
00000030
,  // measure 35
00000010
00001000
00010000
00000000
,  // measure 36
00200000
00000000
00000000
00300000
,  // measure 37
00100000
01000000
00000000
00000000
,  // measure 38
00200000
00000000
00000000
00300000
,  // measure 39
00100000
00010000
00001000
00000000
,  // measure 40
00011000
00000000
00011000
00000000
,  // measure 41
00001000
00010000
00001000
00000100
,  // measure 42
00000010
00000100
00000010
00000000
,  // measure 43
00010000
00000010
00010000
00000000
,  // measure 44
00001000
00010000
00001000
00000000
,  // measure 45
00100000
00001000
00100000
00000000
,  // measure 46
00010000
01000000
00100000
00000000
,  // measure 47
01000000
00010000
00001000
00000000
,  // measure 48
00000100
00001000
00000010
00000000
,  // measure 49
00010000
00001000
00010000
01000000
,  // measure 50
00100000
00010000
00001000
00000000
,  // measure 51
00001010
00000000
00000000
00000000
,  // measure 52
00000010
00000100
00000000
00000000
,  // measure 53
00000010
00000000
00000010
00000000
,  // measure 54
00000010
00001000
00010000
00000000
,  // measure 55
00110000
00000000
00000000
00000000
,  // measure 56
00100000
01000000
00000000
00000000
,  // measure 57
00100000
00000000
00100000
00000000
,  // measure 58
00100000
00010000
01000000
00010000
,  // measure 59
00100000
00000000
00100000
00000000
,  // measure 60
00001000
00000000
00010000
00000000
,  // measure 61
00000100
00000010
00000100
00001000
,  // measure 62
00000010
00001000
00000100
00001000
,  // measure 63
00000010
00000000
00000010
00000000
,  // measure 64
00000100
00000000
00000010
00000000
,  // measure 65
00010000
00000000
00001000
00000000
00010000
00000000
00000000
00011000
;
