#TITLE:S-Bahn;
#SUBTITLE:;
#ARTIST:BEMANI Sound Team "DARK TRAIN";
#TITLETRANSLIT:;
#SUBTITLETRANSLIT:;
#ARTISTTRANSLIT:DARK TRAIN;
#GENRE:;
#CREDIT:;
#MUSIC:S-Bahn.ogg;
#BANNER:S-Bahn.png;
#BACKGROUND:S-Bahn-bg.png;
#CDTITLE:./CDTITLES/BEATMANIA IIDX.PNG;
#SAMPLESTART:15.211;
#SAMPLELENGTH:15.000;
#SELECTABLE:YES;
#OFFSET:0.000;
#BPMS:0.000=142.000;
#STOPS:;
#BGCHANGES:0.000=S-Bahn.avi=1.000=0=0=0=StretchNoLoop====,
99999.000=-nosongbg-=1.000=0=0=0=StretchNoLoop====
;
#FGCHANGES:;

//--------------- dance-single - t7r ----------------
#NOTES:
     dance-single:
     t7r:
     Hard:
     13:
     0,0,0,0,0:
0000
0000
0000
0000
,
0000
0000
0000
0000
,
0000
0000
0000
0000
,
0000
0000
0000
0000
,
0000
0000
0000
0000
,
0010
0000
1000
0000
0001
0000
0100
0002
0000
0000
0000
0000
0010
0000
0000
0000
,
1003
0100
1000
0000
0001
0100
0001
0000
,
0100
0000
0001
0000
1000
0000
0010
2000
0000
0000
0000
0000
3100
0000
0000
0000
,
2000
0000
0000
0001
0000
0000
0001
0000
0000
0001
0000
0000
3001
0000
0000
0000
,
0010
0000
1000
0000
0100
0000
0000
0000
1100
0000
0000
0100
1000
0000
0001
0000
,
0100
0000
0001
0000
0010
0000
0000
0000
0011
0000
0000
0010
0001
0000
1000
0000
,
0010
0000
0100
0000
0001
0000
0000
0000
0101
0000
0000
0001
0100
0000
0010
0000
,
1000
0000
0100
0000
0010
0000
0000
0000
0110
0000
0000
0100
1000
0000
0001
0000
,
0100
0000
0001
0000
1000
0000
0000
0000
1001
0000
0000
1000
0001
0000
1000
0000
,
0010
0000
1000
0000
0001
0000
0000
0000
1001
0000
0000
0001
1000
0000
0001
0000
,
0100
0000
0001
0000
0010
0000
0000
0000
0110
0000
0000
0010
0001
0000
0100
0000
,
0020
0000
0000
0030
,
1000
0000
0100
0000
0010
0000
0000
0000
0001
0100
0000
0010
0000
0000
0010
0000
,
1000
0000
0100
0000
0010
0000
0000
0000
0001
0100
0000
0010
0000
0000
1000
0000
,
0001
0000
0010
0000
0100
0000
0000
0000
1000
0010
0000
0100
0000
0000
0100
0000
,
0001
0000
0010
0000
0100
0000
0000
0000
1000
0010
0000
0100
0000
0000
0001
0000
,
1000
0000
0100
0000
0001
0000
0000
0000
0100
1000
0000
0001
0000
0000
0001
0000
,
1000
0000
0100
0000
0001
0000
0000
0000
0100
1000
0000
0001
0000
0000
1000
0000
,
0001
0000
0010
0000
1000
0000
0000
0000
0010
0001
0000
1000
0000
0000
1000
0000
,
0002
0000
0000
0000
1000
0000
0000
0000
1000
0000
0000
1000
0000
0000
1003
0000
,
0001
0100
0010
0000
0001
0010
1000
0000
,
0100
1000
0010
0000
1000
0010
0001
0000
,
0010
1000
0100
0000
0001
0100
1000
0000
,
0001
0100
0010
0000
0001
0010
1000
0001
,
1000
0000
0100
0000
0001
0000
0000
0000
0100
0000
0000
1000
0100
0000
0010
0000
,
0001
0000
0100
0000
1000
0000
0000
0000
0100
0000
0000
0001
0100
0000
0010
0000
,
1000
0000
0010
0000
0001
0000
0000
0000
0010
0000
0000
1000
0010
0000
0100
0000
,
0020
0000
0000
0000
0100
0000
0000
0000
0100
0000
0000
0100
0000
0000
0130
0000
,
0001
0000
1000
0000
0100
0000
0000
0000
1000
0000
0010
1000
0000
0000
0001
0000
,
1000
0000
0001
0000
0100
0000
0000
0000
0001
0000
0010
0001
0000
0000
1000
0000
,
0001
0000
1000
0000
0010
0000
0000
0000
1000
0000
0001
0100
0000
0000
0001
0000
,
1000
0000
0001
0000
0100
0000
0000
0000
0101
0000
0000
0010
0000
0000
0010
0000
,
1000
0000
0100
1000
0100
0000
0000
0000
1000
0000
0001
0010
0000
0000
0010
0000
,
0001
0000
1000
0010
1000
0000
0000
0000
0001
0000
0100
0001
0000
0000
0001
0000
,
0100
0000
0010
1000
0010
0000
0000
0000
1000
0000
0100
0010
0000
0000
0010
0000
,
0002
1000
0100
1003
,
0001
0000
0000
0000
1001
0000
0000
0000
0001
1000
0000
0000
1001
0000
0000
0000
,
1000
0000
0000
0000
1001
0000
0000
0000
1000
0001
0000
0000
1001
0000
0000
0000
,
0010
0000
0000
0000
0110
0000
0000
0000
0010
0100
0000
0000
0110
0000
0000
0000
,
0100
0000
0000
0000
0110
0000
0000
0000
0100
0010
0000
0000
0110
0000
0000
0000
,
0010
0000
1000
0000
0100
0000
0000
0000
1000
0010
0000
0000
1010
0000
0000
0000
,
0100
0000
0001
0000
0010
0000
0000
0000
0001
0010
0000
0000
0011
0000
0000
0000
,
0001
0000
1000
0000
0010
0000
0000
0000
0100
0010
0000
0000
0110
0000
0000
0000
,
2001
0000
0000
0000
0001
0000
0000
0000
0000
0001
0000
0000
3001
0000
0000
0000
,
1000
0000
0100
0000
0001
0000
0100
0020
0000
0000
0000
0000
0031
0000
1000
0000
,
0000
0000
1001
0000
0000
0000
0000
0000
0001
0100
0001
0000
0100
0000
0000
0000
,
0001
0000
0010
0000
1000
0000
0010
0200
0000
0000
0000
0000
1300
0000
0001
0000
,
0000
0000
1001
0000
0000
0000
0000
0000
1000
0010
1000
0000
0001
0000
0000
0000
,
1000
0000
0010
0000
0001
0000
0010
0200
0000
0000
0000
0000
0301
0000
1000
0000
,
0000
0000
0101
0000
0000
0000
0000
0000
1000
0010
1000
0000
0100
1000
0100
0000
,
1000
0000
0100
0000
0001
0000
0100
0020
0000
0000
0000
0000
0031
0000
0100
0000
,
0020
0000
0000
0000
0000
0000
0000
0000
0130
0010
0100
0000
0010
0100
0010
0000
,
1000
0000
0010
0000
1010
0000
0000
0000
1000
0100
0000
0000
1100
0000
0000
0000
,
0001
0000
0010
0000
0011
0000
0000
0000
0001
0100
0000
0000
0101
0000
0000
0000
,
1000
0000
0001
0000
0101
0000
0000
0000
0001
1000
0000
0000
1010
0000
0000
0000
,
1000
0000
0100
0000
0110
0000
0000
0000
0011
0000
0000
1000
0001
0000
0100
0000
,
0001
0000
0010
0000
0110
0000
0000
0000
1000
0001
1000
0000
0001
0000
0000
0000
,
1000
0000
0010
0000
0110
0000
0000
0000
0001
1000
0001
0000
1000
0000
0000
0000
,
0001
0000
0100
0000
0101
0000
0000
0000
1000
0100
0010
0000
0001
0000
0000
0000
,
1000
0000
0001
0000
0100
0000
0000
0000
0010
0100
0010
0000
0100
0010
0100
0000
;

//--------------- dance-single - t7r ----------------
#NOTES:
     dance-single:
     t7r:
     Challenge:
     14:
     0,0,0,0,0:
0000
0000
0000
0000
,
0000
0000
0000
0000
,
0000
0000
0000
0000
,
0000
0000
0000
0000
,
0000
0000
0000
0000
,
1000
0000
0001
0000
0100
0000
0000
0210
0000
0000
0000
0000
0301
0000
0000
0000
,
1000
0100
0001
0100
,
1000
0000
0001
0000
0010
0000
0000
0120
0000
0000
0000
0000
0031
0000
0000
0000
,
2002
0000
0000
3003
,
0101
0000
0000
0000
1001
0000
0000
0000
1010
0000
0000
1010
0000
0000
1010
0000
,
1100
0000
0000
0000
1001
0000
0000
0000
0011
0000
0000
0011
0000
0000
0011
0000
,
0101
0000
0000
0000
0110
0000
0000
0000
1010
0000
0000
1010
0000
0000
1010
0000
,
1100
0000
0000
0000
1001
0000
0000
0000
1010
0000
0000
1010
0000
0000
1010
0000
,
0110
0000
0000
0000
0101
0000
0000
0000
0110
0000
0000
0110
0000
0000
0110
0000
,
0101
0000
0000
0000
0011
0000
0000
0000
1100
0000
0000
1100
0000
0000
1100
0000
,
0110
0000
0000
0000
1001
0000
0000
0000
0101
0000
0000
0101
0000
0000
0101
0000
,
0002
0000
0000
0003
,
1000
0000
0100
0000
1100
0000
0000
0000
1010
0000
0000
1010
0000
0000
1010
0000
,
0001
0000
0100
0000
0101
0000
0000
0000
0011
0000
0000
0011
0000
0000
0011
0000
,
1000
0000
0010
0000
1010
0000
0000
0000
1100
0000
0000
1100
0000
0000
1100
0000
,
0001
0000
0010
0000
0011
0000
0000
0000
0001
1000
0000
0001
0000
0000
0100
0000
,
0010
0000
1000
0000
1100
0000
0000
0000
1001
0000
0000
1010
0000
0000
1001
0000
,
0100
0000
0001
0000
0011
0000
0000
0000
1001
0000
0000
0011
0000
0000
1001
0000
,
0100
0000
1000
0000
1010
0000
0000
0000
0110
0000
0000
0101
0000
0000
0110
0000
,
0020
0100
0000
0130
,
0010
0000
0000
0000
1010
0000
0000
0000
1100
0000
0000
1000
0100
0000
1000
0000
,
0010
0000
0000
0000
0101
0000
0000
0000
0011
0000
0000
0001
0010
0000
0001
0000
,
0100
0000
0000
0000
1010
0000
0000
0000
1100
0000
0000
1000
0100
0000
1000
0000
,
0010
0000
0000
0000
0101
0000
0000
0000
1001
0000
0000
0001
0010
0000
0001
0000
,
0100
0001
0010
0000
0100
1000
0010
0000
,
0100
0001
1000
0000
0100
1000
0001
0000
,
1000
0100
0001
0000
1000
0010
0001
0000
,
0220
0000
0000
0330
,
1100
0000
0100
0000
1100
0000
0000
0000
1010
0000
0000
1001
0000
0000
0101
0000
,
0011
0000
0001
0000
0011
0000
0000
0000
0101
0000
0000
1001
0000
0000
1010
0000
,
0110
0000
0010
0000
0110
0000
0000
0000
1010
0000
0000
1100
0000
0000
1001
0000
,
0101
0000
0100
0000
0101
0000
0000
0000
0001
1000
0000
0001
0000
0000
0100
0000
,
0110
0000
0010
0000
1010
0000
0000
0000
1100
0000
0000
1001
0000
0000
0011
0000
,
0110
0000
0010
0000
0011
0000
0000
0000
0101
0000
0000
1001
0000
0000
1010
0000
,
0110
0000
0010
0000
1010
0000
0000
0000
1100
0000
0000
1001
0000
0000
0011
0000
,
0002
0000
0000
0003
,
1000
0000
0100
0000
0001
0000
0000
0000
0000
1100
0000
0000
1100
0000
0000
0000
,
0001
0000
0100
0000
1000
0000
0000
0000
0000
0101
0000
0000
0101
0000
0000
0000
,
1000
0000
0010
0000
0001
0000
0000
0000
0000
1010
0000
0000
1010
0000
0000
0000
,
0001
0000
0010
0000
1000
0000
0000
0000
0000
0011
0000
0000
0011
0000
0000
0000
,
1000
0000
0100
0000
0001
0000
0000
0000
0100
0010
0000
0000
0011
0000
0000
0000
,
0001
0000
0100
0000
1000
0000
0000
0000
0100
0010
0000
0000
1010
0000
0000
0000
,
1000
0000
0010
0000
0001
0000
0000
0000
0010
0100
0000
0000
0101
0000
0000
0000
,
2002
0000
0000
3003
,
1000
1100
0000
0000
1000
0001
0100
0101
,
0000
0000
0110
0000
0000
0000
0000
0000
0001
1000
0001
1000
0001
0000
0010
0000
,
0001
0101
0000
0000
0001
1000
0010
1010
,
0000
0000
1001
0000
0000
0000
0000
0000
1000
0001
1000
0001
1000
0000
0100
0000
,
1000
0000
1010
0000
0000
0000
0000
0000
0001
0010
0100
0010
0001
0000
0011
0000
,
0000
0000
1001
0000
0000
0000
0000
0000
1000
0010
0100
0010
1000
0000
0001
0000
,
0100
0000
0101
0000
0000
0000
0000
0000
0001
1000
0100
1000
0001
0000
1000
0000
,
0020
0000
0000
0030
,
0110
0001
1100
0000
0110
1000
0011
0000
,
1100
0010
1001
0000
0101
0010
1001
0000
,
0110
1000
0101
0000
0110
0001
1010
0000
,
0011
0100
1001
0000
1010
0100
1001
0000
,
1100
0110
1001
0000
0101
0110
1001
0000
,
0010
0101
1100
0000
0010
1100
0101
0000
,
0100
1010
0011
0000
0100
0011
1010
0000
,
0001
0000
0101
0000
1100
0000
0000
0000
0001
1000
0001
1000
0001
1000
0001
1000
,
0001
0000
0000
0000
;

//--------------- dance-double - t7r ----------------
#NOTES:
     dance-double:
     t7r:
     Hard:
     13:
     0,0,0,0,0:
00000000
00000000
00000000
00000000
,
00000000
00000000
00000000
00000000
,
00000000
00000000
00000000
00000000
,
00000000
00000000
00000000
00000000
,
00000000
00000000
00000000
00000000
,
00000010
00000000
00001000
00000000
00000100
00000000
00000001
00000200
00000000
00000000
00000000
00000000
00010300
00000000
00000000
00000000
,
00001000
01000000
00010000
00000000
10000000
01000000
00100000
00000000
,
01000000
00000000
10000000
00000000
00100000
00000000
00010000
00200000
00000000
00000000
00000000
00000000
01300000
00000000
00000000
00000000
,
00002000
00000000
00000000
00010000
00000000
00000000
00010000
00000000
00000000
00010000
00000000
00000000
00013000
00000000
00000000
00000000
,
00000010
00000000
00000100
00000000
00000001
00000000
00000000
00000000
00001001
00000000
00000000
00000001
00000100
00000000
00000010
00000000
,
00010000
00000000
00000100
00000000
00001000
00000000
00000000
00000000
00001100
00000000
00000000
00000100
00010000
00000000
00001000
00000000
,
01000000
00000000
00010000
00000000
00100000
00000000
00000000
00000000
01100000
00000000
00000000
00100000
00010000
00000000
10000000
00000000
,
00100000
00000000
01000000
00000000
00010000
00000000
00000000
00000000
01010000
00000000
00000000
00010000
01000000
00000000
00001000
00000000
,
00010000
00000000
00000010
00000000
00000100
00000000
00000000
00000000
00000110
00000000
00000000
00000010
00001000
00000000
00000001
00000000
,
00000010
00000000
00000100
00000000
00010000
00000000
00000000
00000000
00010100
00000000
00000000
00000100
00010000
00000000
00001000
00000000
,
01000000
00000000
00010000
00000000
10000000
00000000
00000000
00000000
10010000
00000000
00000000
00010000
00100000
00000000
00001000
00000000
,
00020000
00000000
00000000
00030000
,
00000100
00000000
00000001
00000000
00000100
00000000
00000000
00000000
00010000
00000100
00000000
00010000
00000000
00000000
00010000
00000000
,
01000000
00000000
10000000
00000000
01000000
00000000
00000000
00000000
10000000
00100000
00000000
10000000
00000000
00000000
10000000
00000000
,
00010000
00000000
00001000
00000000
00000100
00000000
00000000
00000000
00000010
00000001
00000000
00000010
00000000
00000000
00000010
00000000
,
00000100
00000000
00001000
00000000
00010000
00000000
00000000
00000000
01100000
00000000
00000000
10010000
00000000
00000000
00010000
00000000
,
10000000
00000000
01000000
00000000
00010000
00000000
00000000
00000000
01000000
00100000
00000000
00001000
00000000
00000000
00001000
00000000
,
00010000
00000000
00001000
00000000
00000010
00000000
00000000
00000000
00000001
00000100
00000000
00000010
00000000
00000000
00000010
00000000
,
00001000
00000000
00010000
00000000
00100000
00000000
00000000
00000000
00010000
01000000
00000000
10000000
00000000
00000000
10000000
00000000
,
02000000
00000000
00000000
00000000
00100000
00000000
00000000
00000000
00100000
00000000
00000000
00100000
00000000
00000000
03100000
00000000
,
10000000
01000000
00100000
00000000
00010000
00001000
00000010
00000000
,
00000100
00000000
00000010
00000000
00001000
00000000
00000000
00000000
00000001
00000000
00000000
00001000
00000010
00000000
00001000
00000000
,
00000001
00000100
00000010
00000000
00001000
00010000
00100000
00000000
,
01000000
00000000
00100000
00000000
00010000
00000000
00000000
00000000
10000000
00000000
00000000
01000000
10000000
00000000
00010000
00000000
,
10000000
00100000
01000000
00000000
00010000
00001000
00000100
00000000
,
00000010
00000000
00000100
00000000
00001000
00000000
00000000
00000000
00000001
00000000
00000000
00001000
00000100
00000000
00001000
00000000
,
00000001
00000010
00000100
00000000
00001000
00010000
01000000
00000000
,
00200000
00000000
00000000
00000000
01000000
00000000
00000000
00000000
01000000
00000000
00000000
01000000
00000000
00000000
01300000
00000000
,
00010000
00000000
10000000
00000000
01000000
00000000
00010000
00002000
00000000
00000000
00000000
00000000
00003100
00000000
00000000
00000000
,
00000010
00000000
00001000
00000000
00000100
00000000
00000000
00000000
00001100
00000000
00000000
00001000
00000001
00000000
00001000
00000000
,
00000001
00000000
00000100
00000000
00001000
00000000
01000000
00200000
00000000
00000000
00000000
00000000
10300000
00000000
00000000
00000000
,
00010000
00000000
01000000
00000000
00100000
00000000
00000000
00000000
01100000
00000000
00000000
10010000
00000000
00000000
00010000
00000000
,
10000000
00000000
01000000
00000000
00010000
00000000
00000100
00000020
00000000
00000000
00000000
00000000
00000031
00000000
00000000
00000000
,
00000100
00000000
00000001
00000000
00000010
00000000
00000000
00000000
00000110
00000000
00000000
00000010
00000100
00000000
00001000
00000000
,
00010000
00000000
10000000
00000000
00100000
00000000
00010000
00200000
00000000
00000000
00000000
00000000
01300000
00000000
00000000
00000000
,
00020000
10000000
01000000
00130000
,
00001000
00000000
00010000
00000000
00000010
00000000
00000000
00000000
00000100
00000010
00000000
00000000
00001010
00000000
00000000
00000000
,
00000001
00000000
00000010
00000000
00000100
00000000
00000000
00000000
00010000
00000100
00000000
00000000
00010100
00000000
00000000
00000000
,
00000100
00000000
00010000
00000000
00001000
00000000
00000000
00000000
01000000
00010000
00000000
00000000
01010000
00000000
00000000
00000000
,
00010000
00000000
10000000
00000000
00100000
00000000
00000000
00000000
10000000
01000000
00000000
00000000
11000000
00000000
00000000
00000000
,
10000000
00000000
00100000
00000000
00010000
00000000
00000000
00000000
00001000
00010000
00000000
00001000
00010000
00000000
00000010
00000000
,
00001000
00000000
00000100
00000000
00000001
00000000
00000000
00000000
00000100
00010000
00000000
00000100
00010000
00000000
00001000
00000000
,
00010000
00000000
01000000
00000000
10000000
00000000
00000000
00000000
01000000
00100000
00000000
01000000
00100000
00000000
00001000
00000000
,
00020000
00000000
00000000
00000000
00001000
00000000
00000000
00000000
00000000
00001000
00000000
00000000
00031000
00000000
00000000
00000000
,
00010000
00000000
00001000
00000000
00000010
00000000
00001000
00020000
00000000
00000000
00000000
00000000
00031000
00000000
01000000
00000000
,
00000000
00000000
01001000
00000000
00000000
00000000
00000000
00000000
01000000
00100000
01000000
00000000
00100000
01000000
00100000
00000000
,
10000000
00000000
01000000
00000000
00010000
00000000
01000000
00200000
00000000
00000000
00000000
00000000
00301000
00000000
00010000
00000000
,
00000000
00000000
00010010
00000000
00000000
00000000
00000000
00000000
00000010
00000100
00000010
00000000
00000100
00000010
00000100
00000000
,
00000001
00000000
00000100
00000000
00001000
00000000
00000100
00000020
00000000
00000000
00000000
00000000
00010030
00000000
00000100
00000000
,
00000000
00000000
00010100
00000000
00000000
00000000
00000000
00000000
00001000
00010000
00001000
00000000
00010000
00001000
00010000
00000000
,
00001000
00000000
00010000
00000000
00100000
00000000
00010000
00000200
00000000
00000000
00000000
00000000
00010300
00000000
00001000
00000000
,
00020000
00000000
00000000
00000000
00000000
00000000
00000000
00000000
00031000
00010000
00001000
00000000
00010000
00001000
00010000
00000000
,
00001000
00000000
01000000
00000000
01100000
00000000
00000000
00000000
10000000
01000000
00000000
00000000
00110000
00000000
00000000
00000000
,
00001000
00000000
00010000
00000000
00010010
00000000
00000000
00000000
00000100
00000001
00000000
00000000
00000101
00000000
00000000
00000000
,
00000001
00000000
00000010
00000000
00000110
00000000
00000000
00000000
00000100
00010000
00000000
00000000
00010100
00000000
00000000
00000000
,
00001000
00000000
01000000
00000000
01010000
00000000
00000000
00000000
01100000
00000000
00000000
10010000
00000000
00000000
00010000
00000000
,
10000000
00000000
01000000
00000000
00010000
00000000
00001000
00000000
00010000
00000010
00000000
00010000
00000100
00000000
00001000
00000000
,
00000001
00000000
00000010
00000000
00001000
00000000
00000010
00000000
00000100
00010000
00000000
00001000
00010000
00000000
00001000
00000000
,
00010000
00000000
01000000
00000000
10000000
00000000
01000000
00000000
00100000
00001000
00000000
00010000
00001000
00000000
00010000
00000000
,
00000010
00000000
00001000
00000000
00010000
00000000
00100000
00000000
00001000
00010000
00001000
00000000
00010000
00001000
00010000
00000000
;

//--------------- dance-double - t7r ----------------
#NOTES:
     dance-double:
     t7r:
     Challenge:
     14:
     0,0,0,0,0:
00000000
00000000
00000000
00000000
,
00000000
00000000
00000000
00000000
,
00000000
00000000
00000000
00000000
,
00000000
00000000
00000000
00000000
,
00000000
00000000
00000000
00000000
,
01000000
00000000
00001000
00000000
00100000
00000000
00000000
00201000
00000000
00000000
00000000
00000000
00301000
00000000
00000000
00000000
,
00010000
00011000
00001000
00011000
,
00000100
00000000
00010000
00000000
00000010
00000000
00000000
00020010
00000000
00000000
00000000
00000000
00031000
00000000
00000000
00000000
,
00022000
00000000
00000000
00033000
,
01100000
00000000
00000000
00000000
00110000
00000000
00000000
00000000
10010000
00000000
00000000
10010000
00000000
00000000
00010000
00000000
,
01000000
00000000
00000000
00000000
01010000
00000000
00000000
00000000
00101000
00000000
00000000
00101000
00000000
00000000
00001000
00000000
,
00010000
00000000
00000000
00000000
00010010
00000000
00000000
00000000
00000110
00000000
00000000
00000110
00000000
00000000
00000010
00000000
,
00001000
00000000
00000000
00000000
00001001
00000000
00000000
00000000
00000011
00000000
00000000
00000011
00000000
00000000
00000100
00000000
,
00001000
00000000
00010000
00000000
01000000
00000000
00000000
00000000
01100000
00000000
00000000
01100000
00000000
00000000
00010000
00000000
,
10000000
00000000
01000000
00000000
00010000
00000000
00000000
00000000
00011000
00000000
00000000
00011000
00000000
00000000
00010000
00000000
,
00001000
00000000
00000010
00000000
00000001
00000000
00000000
00000000
00000110
00000000
00000000
00000110
00000000
00000000
00000100
00000000
,
00020000
00000000
00000000
00030000
,
00001000
00000000
01000000
00000000
01100000
00000000
00000000
00000000
10100000
00000000
00000000
10100000
00000000
00000000
10100000
00000000
,
10000000
00000000
01000000
00000000
01100000
00000000
00000000
00000000
00101000
00000000
00000000
00101000
00000000
00000000
00101000
00000000
,
00001000
00000000
00010000
00000000
00010010
00000000
00000000
00000000
00000110
00000000
00000000
00000110
00000000
00000000
00000110
00000000
,
00000100
00000000
00000001
00000000
00001001
00000000
00000000
00000000
00000100
00010000
00000000
01000000
00000000
00000000
00010000
00000000
,
00001000
00000000
01000000
00000000
01100000
00000000
00000000
00000000
10100000
00000000
00000000
10100000
00000000
00000000
10100000
00000000
,
10000000
00000000
01000000
00000000
01100000
00000000
00000000
00000000
00101000
00000000
00000000
00101000
00000000
00000000
00101000
00000000
,
00001000
00000000
00010000
00000000
00010010
00000000
00000000
00000000
00000110
00000000
00000000
00000110
00000000
00000000
00000110
00000000
,
00000020
00010000
00000000
00010030
,
00001000
00000000
00000000
00000000
00011000
00000000
00000000
00000000
01001000
00000000
00000000
00001000
01000000
00000000
00010000
00000000
,
10000000
00000000
00000000
00000000
11000000
00000000
00000000
00000000
10100000
00000000
00000000
00100000
01000000
00000000
00001000
00000000
,
00010000
00000000
00000000
00000000
00011000
00000000
00000000
00000000
00001010
00000000
00000000
00000010
00000100
00000000
00000001
00000000
,
00000010
00000000
00000000
00000000
00000011
00000000
00000000
00000000
00000110
00000000
00000000
00000100
00010000
00000000
00001000
00000000
,
01000000
00000000
00010000
00000000
10000000
00000000
00000000
00000000
01000000
00000000
00010000
00001000
00000000
00000000
00000100
00000000
,
00000010
00000000
00001000
00000000
00000001
00000000
00000000
00000000
00000100
00000000
00001000
00010000
00000000
00000000
01000000
00000000
,
00100000
00000000
00010000
00000000
10000000
00000000
00000000
00000000
00100000
00000000
00010000
00001000
00000000
00000000
00000010
00000000
,
00000200
00000000
00020000
00030300
,
00011000
00000000
00001000
00000000
00011000
00000000
00001000
01000000
00000000
00000000
00000000
00000000
01100000
00000000
00000000
00000000
,
10100000
00000000
00100000
00000000
10100000
00000000
00000000
00000000
11000000
00000000
00000000
10010000
00000000
00000000
01010000
00000000
,
00110000
00000000
00010000
00000000
00110000
00000000
00010000
00100000
00000000
00000000
00000000
00000000
00011000
00000000
00000000
00000000
,
00010100
00000000
00000100
00000000
00010100
00000000
00000000
00000000
00000100
00001000
00000000
00010000
00000000
00000000
01000000
00000000
,
01100000
00000000
00100000
00000000
01100000
00000000
00100000
10000000
00000000
00000000
00000000
00000000
10010000
00000000
00000000
00000000
,
11000000
00000000
01000000
00000000
11000000
00000000
00000000
00000000
00101000
00000000
00000000
00011000
00000000
00000000
00010010
00000000
,
00000110
00000000
00000010
00000000
00000110
00000000
00000010
00001000
00000000
00000000
00000000
00000000
00000100
00000000
00000000
00000000
,
00022000
00000000
00000000
00033000
,
00010000
00000000
01000000
00000000
10000000
00000000
00000000
00000000
00000000
01100000
00000000
00000000
01100000
00000000
00000000
00000000
,
00001000
00000000
00000100
00000000
00000001
00000000
00000000
00000000
00000000
00000110
00000000
00000000
00000110
00000000
00000000
00000000
,
00010000
00000000
00100000
00000000
10000000
00000000
00000000
00000000
00000000
01100000
00000000
00000000
01100000
00000000
00000000
00000000
,
00001000
00000000
00000010
00000000
00000001
00000000
00000000
00000000
00000000
00000110
00000000
00000000
00000110
00000000
00000000
00000000
,
00000001
00000000
00000100
00000000
00001000
00000000
00010000
00000000
01000000
00100000
00000000
00000000
00110000
00000000
00000000
00000000
,
10000000
00000000
01000000
00000000
00010000
00000000
00001000
00000000
00000100
00000010
00000000
00000000
00001010
00000000
00000000
00000000
,
00000001
00000000
00000010
00000000
00001000
00000000
00010000
00000000
01000000
00100000
00000000
00000000
00110000
00000000
00000000
00000000
,
00022000
00000000
00000000
00033000
,
00000010
00000110
00000000
00000000
00000010
00000001
00000100
00001100
,
00000000
00000000
00011000
00000000
00000000
00000000
00000000
00000000
01000000
00100000
01000000
00000000
00100000
01000000
00100000
00000000
,
01000000
01100000
00000000
00000000
01000000
10000000
00100000
00110000
,
00000000
00000000
00011000
00000000
00000000
00000000
00000000
00000000
00000010
00000100
00000010
00000000
00000100
00000010
00000100
00000000
,
00000001
00000000
00001001
00000000
00000000
00000000
00000000
00000000
00000100
00001000
00010000
00001000
00000100
00000000
00001100
00000000
,
00000000
00000000
00011000
00000000
00000000
00000000
00000000
00000000
01000000
00100000
01000000
00000000
00100000
01000000
00100000
00000000
,
10000000
00000000
10010000
00000000
00000000
00000000
00000000
00000000
01000000
00010000
00001000
00010000
01000000
00000000
00001000
00000000
,
00022000
00000000
00000000
00000000
00033000
00000000
00000000
00000000
00010000
00001000
00010000
00001000
00010000
00001000
00010000
00000000
,
00001100
00000010
00001001
00000000
00000101
00000110
00010010
00000000
,
00010100
00000010
00011000
00000000
01010000
01100000
10100000
00000000
,
11000000
00100000
10010000
00000000
01001000
00101000
00011000
00000000
,
00010100
00000010
00001001
00000000
00000101
00000110
00001010
00000000
,
00001100
00000110
00001001
00000000
00000101
00000110
00010010
00000000
,
00010100
00011000
01001000
00000000
01100000
01010000
00110000
00000000
,
11000000
01100000
00110000
00000000
00011000
00001100
00000110
00000000
,
00000101
00000000
00000110
00000000
00010010
00000000
00000000
00000000
00001000
00010000
00001000
00010000
00001000
00010000
00001000
00010000
,
00001000
00000000
00000000
00000000
;
