#TITLE:Reasons to Run;
#SUBTITLE:(Fox Stevenson Remix);
#ARTIST:Crankdat;
#TITLETRANSLIT:;
#SUBTITLETRANSLIT:;
#ARTISTTRANSLIT:;
#GENRE:;
#CREDIT:;
#BANNER:Reasons to Run (Fox Stevenson Remix).png;
#BACKGROUND:Reasons to Run (Fox Stevenson Remix)-bg.png;
#LYRICSPATH:;
#CDTITLE:;
#MUSIC:Crankdat - Reasons To Run (Fox Stevenson Remix).ogg;
#OFFSET:1.470564;
#SAMPLESTART:65.941986;
#SAMPLELENGTH:13.150688;
#LASTBEATHINT:1.068883;
#SELECTABLE:YES;
#BPMS:0.000000=146.000000
;
#STOPS:
;
#BGCHANGES:;
#KEYSOUNDS:;
#ATTACKS:;

//---------------dance-single - ----------------
#NOTES:
     dance-single:
     :
     Hard:
     10:
     0.424746,0.510174,0.148249,0.164722,0.000000,361.000000,343.000000,18.000000,20.000000,0.000000,0.000000,0.424746,0.510174,0.148249,0.164722,0.000000,361.000000,343.000000,18.000000,20.000000,0.000000,0.000000:
0000
0000
0000
0000
,
0000
0000
0000
0000
,
0000
0000
0000
0000
,
0000
0000
0000
0000
,
0000
0000
0000
0000
,
0020
0000
0000
2030
0000
0000
3100
0020
,
0000
0000
0030
0000
0010
0002
0000
0000
,
2003
0000
0000
3010
0000
0010
1000
0200
,
0000
0000
0000
0300
,
0010
0000
0001
0000
0010
0100
0010
0000
,
0001
0000
0100
0001
0100
0000
0010
0000
,
1000
0001
0001
1000
,
0010
1000
0100
0100
,
0010
0000
0100
0000
1000
0001
1000
0000
,
0010
0000
0100
0010
0100
0000
0001
0000
,
2000
3100
0020
0031
,
0100
0000
0010
0000
0000
0010
0100
0010
,
0100
0001
1000
1000
,
0100
0010
0100
0000
0010
0001
0010
0001
,
0010
0001
0010
0100
,
1000
0010
0000
0000
0010
0100
0001
0100
,
0010
1000
0001
0100
,
1000
0010
0100
0001
,
1000
0100
0010
0001
,
1000
0010
1000
0000
0001
1000
0001
0000
,
1010
0100
0110
0010
,
1001
0000
1000
0000
0100
0010
0100
0010
,
0100
0010
0101
0010
,
0110
0000
0001
0000
1000
0100
1000
0100
,
1000
0010
0110
1000
,
1100
0000
0010
0000
0001
0100
0001
0100
,
0001
0010
1001
0100
,
0010
1000
0010
0000
0100
0001
0100
0000
,
0010
1000
0100
0010
,
0001
0000
0100
0000
0010
1000
0010
1000
,
0010
0100
0001
0010
,
0100
0000
0010
0000
0001
0100
0001
0100
,
0010
0010
1000
1000
,
0100
0000
0010
0000
0010
0100
0010
0100
,
0010
0001
0010
0001
0100
0001
0100
0001
,
1000
0000
0000
1001
,
1000
0100
0100
0010
0200
0000
0010
0000
,
0010
0000
0310
0001
0100
0001
0100
0010
,
1000
0010
0010
0100
0002
0000
0100
0000
,
0100
0000
0103
0010
1000
0010
1000
0100
,
0010
0001
0001
0100
0020
0000
1000
0000
,
1000
0000
1030
0001
0100
0010
1000
0001
,
0100
0010
0010
1000
0200
0000
1300
0000
,
1000
0001
1000
0001
0010
0100
0010
0100
,
1000
0001
0001
1000
0010
0000
1010
0000
,
1001
0000
1000
0100
0010
0001
0010
0100
,
1000
0010
0010
1000
0100
0000
0110
0000
,
0011
0000
0001
0100
0010
1000
0010
0100
,
0001
1000
1000
0010
1000
0000
1100
0000
,
0101
0000
0010
0100
0001
0100
0010
1000
,
0100
0010
0010
0001
0010
0000
0110
0000
,
1001
0000
1100
0000
1000
0100
0000
0100
,
0010
0000
0000
0000
0010
0001
0010
0000
,
0001
0000
0100
0000
0010
1000
0001
0000
,
1000
0000
0200
0000
0310
0000
0001
1000
,
0000
1000
0001
0000
0010
0010
0001
0010
,
0001
0000
0100
0000
0010
1000
0001
0000
,
1000
0000
0100
0010
0100
0000
0010
0000
,
0002
0000
0103
0000
0200
0000
0310
1000
,
0010
0010
0010
0010
,
0010
0000
1000
0001
0000
0000
0001
0010
,
0000
0010
0001
0010
0000
0100
0100
0000
,
1000
0000
0010
0100
0000
0000
0100
0001
,
0000
1000
0001
1000
0000
0010
0010
0000
,
2000
0000
0000
3020
0000
0000
2030
0000
,
0000
3002
0000
0000
0003
0000
0010
0001
,
0020
0000
0000
0030
,
0001
1000
0001
0000
0100
0010
0100
0001
;

//---------------dance-single - ----------------
#NOTES:
     dance-single:
     :
     Medium:
     7:
     0.317677,0.419422,0.115305,0.074125,0.000000,270.000000,256.000000,14.000000,9.000000,0.000000,0.000000,0.317677,0.419422,0.115305,0.074125,0.000000,270.000000,256.000000,14.000000,9.000000,0.000000,0.000000:
0000
0000
0000
0000
,
0000
0000
0000
0000
,
0000
0000
0000
0000
,
0000
0000
0000
0000
,
0000
0000
0000
0000
,
0010
0000
0000
1000
0000
0000
0002
0000
,
0000
0000
0003
0000
0000
0020
0000
0000
,
0130
0000
0000
1000
0000
0000
0020
0000
,
0000
0000
0000
0030
,
1000
0000
0001
0100
,
0010
0100
0001
0001
,
1000
1000
0000
1000
,
0000
0001
0000
0001
,
0010
0000
0010
0100
,
0010
0001
1000
0010
,
0100
0001
0000
1000
,
0000
0001
0000
0010
,
0001
0001
0001
0100
,
0020
0000
1030
0000
,
1000
1000
1000
0010
,
0200
0000
0301
0010
,
0001
0000
0000
0001
0000
0000
0100
0000
,
0000
0010
1000
0010
,
0100
0000
0000
0010
0000
0000
1000
0000
,
0010
1000
0001
1000
,
0001
0000
0100
0010
0100
0000
0001
0000
,
0001
1000
0001
0010
,
0001
0000
1000
0001
1000
0000
0100
0000
,
0100
1000
0010
1000
,
0010
0000
0100
0010
0100
0000
0001
0000
,
0001
1000
0001
0010
,
0100
0000
0010
0001
0010
0000
0100
0000
,
0100
1000
0001
1000
,
1000
0010
1000
0010
1000
0000
0001
0000
,
0010
0001
1000
0010
,
0100
0010
0100
0010
0100
0000
0001
0000
,
1000
0100
0010
0001
,
1000
0001
1000
0001
1000
0000
0001
0000
,
0100
0010
1000
0001
,
0010
0100
1000
0010
,
1010
0000
0000
0110
,
1000
0000
0001
1000
0001
0000
1000
0000
,
1000
0010
0100
0001
,
0010
0000
0100
0010
0100
0000
0010
0000
,
0010
0001
1000
0100
,
0010
0000
0001
0010
0001
0000
0100
0000
,
0100
0010
0100
0001
,
1000
0000
0010
1000
0010
0000
1000
0000
,
0001
1000
0001
1000
,
1001
0010
0001
0101
,
0101
0000
0010
0000
1000
0001
1000
0000
,
0100
0010
0100
1100
,
1100
0000
0010
0000
1000
0001
1000
0000
,
0010
0100
0001
1001
,
1001
0000
0010
0000
0100
0010
0100
0000
,
1000
0010
1000
0101
,
0101
1001
1001
0000
,
0001
0100
0001
1000
,
0010
0000
1000
0000
0100
1000
0100
0000
,
0010
0010
0001
0001
,
1000
0000
0001
0000
1000
1000
0000
0000
,
0110
0100
0001
0010
,
0001
0000
1000
0000
0001
0010
0001
0000
,
0100
0100
0010
0010
,
1000
1000
1000
1000
,
1000
0010
1000
0001
,
0100
0000
0010
0010
,
1000
0100
0010
0001
,
0100
0000
0001
1000
,
0002
0000
2003
0000
,
3002
0000
2003
0000
,
3010
0000
0000
0000
,
1000
0010
1000
0100
;

//---------------dance-single - ----------------
#NOTES:
     dance-single:
     :
     Easy:
     5:
     0.211785,0.269629,0.074125,0.000000,0.000000,180.000000,171.000000,9.000000,0.000000,0.000000,0.000000,0.211785,0.269629,0.074125,0.000000,0.000000,180.000000,171.000000,9.000000,0.000000,0.000000,0.000000:
0000
0000
0000
0000
,
0000
0000
0000
0000
,
0000
0000
0000
0000
,
0000
0000
0000
0000
,
0000
0000
0000
0000
,
0000
0000
0000
0000
,
0000
0000
0000
0000
,
0000
0000
0000
0000
,
0000
0000
0000
0000
,
1000
0000
0010
0000
,
1000
0001
1000
0000
,
0100
0000
0010
0000
,
0100
0000
0010
0000
,
0001
0000
1000
0000
,
0010
1000
0010
0000
,
0100
0000
0010
0000
,
0100
0000
0001
0000
,
1000
1000
0001
0001
,
1000
0000
1001
0000
,
0010
0010
1000
1000
,
0100
0000
0110
0000
,
0010
0000
0001
0000
,
1000
0000
0010
0000
,
0100
0000
0001
0000
,
1000
0100
0010
0001
,
1000
0000
0001
1000
,
1000
0000
0010
0000
,
0100
0000
0001
0010
,
0010
0000
0100
0000
,
0010
0000
0001
1000
,
1000
0000
0010
0000
,
0100
0000
0010
0000
,
1000
0001
1000
0001
,
1000
0000
1001
0000
,
0010
0000
0110
0000
,
0100
0000
0101
0000
,
1000
0000
1001
0000
,
0001
0000
0011
0000
,
0010
0100
0010
0100
,
0010
0010
0010
0010
,
0000
0000
0000
1001
,
0001
0000
1000
1000
,
1000
0010
1000
0000
,
0100
0000
0010
0010
,
0010
0001
0010
0000
,
0001
0000
0100
0010
,
0010
1000
0010
0000
,
0100
0000
0001
0001
,
1000
0001
1000
0001
,
0010
0001
0001
0010
,
0100
0100
0100
0000
,
1000
0100
1000
1000
,
1000
0010
0010
0000
,
1000
0010
0100
0100
,
0100
0001
0001
0000
,
0010
1000
1000
0010
,
0010
0100
0100
0000
,
1000
0000
0001
0000
,
0010
0100
0010
0000
,
0001
0000
1000
0000
,
0001
0000
1000
0000
,
1000
0000
0010
1000
,
0001
0000
0100
0000
,
0010
0000
1000
0000
,
0100
0000
0010
0000
,
1001
0000
1000
0000
,
0001
0000
1000
1000
,
1000
0000
0100
0000
,
0010
0000
0010
0010
,
0010
0000
0001
0000
,
1000
0000
0010
0000
,
1000
0000
0001
0000
,
0100
0100
0100
0010
;

//---------------dance-single - ----------------
#NOTES:
     dance-single:
     :
     Beginner:
     1:
     0.092950,0.149279,0.032944,0.000000,0.000000,79.000000,75.000000,4.000000,0.000000,0.000000,0.000000,0.092950,0.149279,0.032944,0.000000,0.000000,79.000000,75.000000,4.000000,0.000000,0.000000,0.000000:
0000
0000
0000
0000
,
0000
0000
0000
0000
,
0000
0000
0000
0000
,
0000
0000
0000
0000
,
0000
0000
0000
0000
,
0000
0000
0000
0000
,
0000
0000
0000
0000
,
0000
0000
0000
0000
,
0000
0000
0000
0000
,
0001
0000
0000
0000
,
1000
0000
0000
0000
,
0010
0000
0000
0000
,
0000
0000
0000
0000
,
0010
0000
0000
0000
,
0100
0000
0000
0000
,
0001
0000
0000
0000
,
0000
0000
0000
0000
,
1000
0000
1000
0000
,
1000
0000
0000
0000
,
0001
0000
0001
0000
,
0001
0000
0000
0000
,
0010
0000
0000
0000
,
0100
0000
0000
0000
,
0010
0000
0000
0000
,
1000
0000
0000
0000
,
1001
0000
0000
0000
,
0001
0000
0000
0000
,
0010
0000
0000
0000
,
0100
0000
0000
0000
,
1000
0000
0000
0000
,
0010
0000
0000
0000
,
1000
0000
0000
0000
,
0001
0000
0001
0000
,
0001
0000
0000
0000
,
1000
0000
0000
0000
,
0010
0000
0000
0000
,
0100
0000
0000
0000
,
0010
0000
0010
0000
,
0010
0000
0000
0000
,
0100
0000
0100
0000
,
0100
0000
0000
0000
,
1001
0000
0000
0000
,
0001
0000
0001
0000
,
1000
0000
0000
0000
,
0010
0000
0010
0000
,
0100
0000
0000
0000
,
0100
0000
0100
0000
,
0010
0000
0000
0000
,
1000
0000
0001
0000
,
1001
0000
0000
0000
,
1000
0000
1000
0000
,
0010
0000
0000
0000
,
0010
0000
0010
0000
,
0100
0000
0000
0000
,
0100
0000
0100
0000
,
0001
0000
0000
0000
,
0001
0000
0000
0000
,
1001
0000
0000
0000
,
0010
0000
0000
0000
,
0100
0000
0000
0000
,
0010
0000
0000
0000
,
1000
0000
0000
0000
,
0010
0000
0000
0000
,
0001
0000
0000
0000
,
0100
0000
0000
0000
,
1000
0000
1000
0000
,
1000
0000
0000
0000
,
0001
0000
0001
0000
,
0001
0000
0000
0000
,
0010
0000
0000
0000
,
0000
0000
0000
0000
,
0000
0000
0000
0000
,
0100
0000
0100
0000
;

//---------------dance-double - ----------------
#NOTES:
     dance-double:
     :
     Hard:
     11:
     0.450631,0.510174,0.156485,0.172958,0.000000,383.000000,364.000000,19.000000,21.000000,0.000000,0.000000,0.450631,0.510174,0.156485,0.172958,0.000000,383.000000,364.000000,19.000000,21.000000,0.000000,0.000000:
00000000
00000000
00000000
00000000
,
00000000
00000000
00000000
00000000
,
00000000
00000000
00000000
00000000
,
00000000
00000000
00000000
00000000
,
00000000
00000000
00000000
00000000
,
00200000
00000000
00000000
20300000
00000000
00000000
31000000
00200000
,
00000000
00000000
00000000
00300000
00000000
00002000
00000000
00000000
,
00023000
00000000
00000000
00030010
00000000
00000010
00001000
00000200
,
00000000
00000000
00000000
00000000
,
00000310
00000000
00000001
00000000
00000010
00000100
00000010
00000001
,
00000100
00000000
00000010
00010000
00001000
00010000
00100000
01000000
,
00020000
00130000
00002000
00103000
,
02000000
03100000
20000000
30100000
,
00010000
00000000
01000000
00000000
00100000
10000000
00100000
00000000
,
01100000
00000000
01000000
00010000
01000000
00001000
00100000
01000000
,
20000000
31000000
00200000
00310000
,
01000000
00000000
00100000
00000000
00000000
10000000
01000000
10000000
,
01000000
00010000
00001000
00000010
,
00000001
00000010
00000100
00000010
00000100
00010000
00001000
00000100
,
00000001
00000100
00001000
00010000
,
00100000
10000000
00000000
00000000
00010000
10000000
00100000
01000000
,
00010000
00100000
00001000
00010000
,
00000100
00000000
00000010
00000000
00000001
00000000
00000010
00000100
,
00001000
00000000
00000010
00000000
00010000
00000000
00001000
00010000
,
00000100
00010000
00000100
00010000
00000010
00001000
00000001
00000000
,
00001100
00000010
00000101
00000010
,
00010100
00000000
00000100
00001000
00000010
00010000
00001000
00000000
,
01010000
00100000
11000000
00100000
,
01001000
00000000
01000000
00010000
00100000
00001000
00010000
01000000
,
10000000
01000000
00101000
00010000
,
00001010
00000000
00000010
00001000
00000001
00000010
00000100
00000000
,
00000011
00000100
00010010
00001000
,
00100000
00001000
00100000
00001000
01000000
00100000
10000000
01000000
,
00010000
00001000
00000010
00000001
,
00001000
00000000
00000100
00000000
01000000
00001000
00001000
00010000
,
00001000
00010000
00100000
10000000
,
01000000
00000000
00100000
00000000
00000010
00010000
00010000
00001000
,
00010000
00000000
01000000
00100000
00010000
00000000
00100000
00000000
,
00100000
00000000
01000000
10000000
00010000
01000000
00100000
10000000
,
01000000
00100000
00001000
00010000
00000100
00001000
00000010
00000100
,
00000001
00000000
00000000
00011000
,
00100000
00001000
00001000
00010000
00000200
00000000
00000010
00000000
,
00000310
00000000
00000001
00000010
00001000
00000010
00000010
00000100
,
00010000
00000100
00000100
00100000
00002000
00000000
00010000
00000000
,
00013000
00000000
00000100
00010000
00100000
10000000
10000000
00010000
,
01000000
00001000
00001000
00010000
00000020
00000000
00000100
00000000
,
00000130
00000000
00000001
00000100
00001000
00000100
00000100
00000010
,
00010000
00000010
00000010
00010000
00002000
00000000
01003000
00000000
,
01000000
00100000
01000000
00100000
10000000
00010000
00100000
01000000
,
00100000
00001000
00001000
00010000
00000001
00000000
00001100
00000000
,
00000101
00000000
00000100
00000010
00010000
00001000
00001000
00010000
,
00000001
00010000
00010000
00001000
01000000
00000000
01010000
00000000
,
11000000
00000000
00010000
01000000
00100000
10000000
10000000
00010000
,
01000000
00001000
00001000
00010000
00000001
00000000
00001010
00000000
,
00000011
00000000
00000010
00000100
00010000
00001000
00001000
00010000
,
00000100
00010000
00010000
00001000
10000000
00000000
01000000
10000000
,
00000000
10000000
00010000
00000000
01000000
01000000
00010000
00100000
,
00000010
00000000
00000100
00000000
00000001
00001000
00000010
00000100
,
00000010
00000000
00001000
00000000
00000001
00000000
00001000
00000100
,
00000010
00000000
00000001
00000000
00010000
00000000
00001000
10000000
,
00000000
10000000
00001000
00000000
00100000
00100000
00010000
00100000
,
00001000
00000000
01000000
00000000
00100000
10000000
00010000
00000000
,
01100000
00000000
01000000
00100000
01000000
00000000
00100000
10000000
,
00010000
00000000
00100000
00000000
01000000
00000000
00100000
00010000
,
00100000
00000000
00000010
00000000
00100000
00001000
00010000
00000100
,
01000000
00000000
00100000
10000000
00000000
00000000
00010000
00100000
,
00000000
00100000
00001000
00100000
00000000
01000000
01000000
00000000
,
10000000
00000000
00100000
01000000
00000000
00000000
01000000
00010000
,
00000000
00100000
00010000
00100000
00000000
00001000
00001000
00000000
,
00000200
00000000
00000000
00000302
00000000
00000000
00000023
00000000
,
00000000
00000230
00000000
00000000
00000000
00000000
00100300
00020000
,
00000000
00000000
00000000
00000000
00000000
00000000
00030000
01000000
,
00010000
00100000
00001000
00010000
00000100
00000010
00000001
00000100
;

//---------------dance-double - ----------------
#NOTES:
     dance-double:
     :
     Easy:
     5:
     0.214138,0.269629,0.057653,0.000000,0.000000,182.000000,175.000000,7.000000,0.000000,0.000000,0.000000,0.214138,0.269629,0.057653,0.000000,0.000000,182.000000,175.000000,7.000000,0.000000,0.000000,0.000000:
00000000
00000000
00000000
00000000
,
00000000
00000000
00000000
00000000
,
00000000
00000000
00000000
00000000
,
00000000
00000000
00000000
00000000
,
00000000
00000000
00000000
00000000
,
00000000
00000000
00000000
00000000
,
00000000
00000000
00000000
00000000
,
00000000
00000000
00000000
00000000
,
00000000
00000000
00000000
00000000
,
10000000
00000000
00100000
00000000
,
01000000
00010000
01000000
00000000
,
00010000
00000000
00100000
00000000
,
00001000
00000000
00010000
00000000
,
00000100
00000000
00000010
00000001
,
00000010
00000000
00000100
00000000
,
00010000
00000000
00001000
00000000
,
01000000
00000000
00100000
00000000
,
10000000
10000000
00010000
00010000
,
01000000
00000000
01001000
00000000
,
00010000
00010000
00001000
00001000
,
00010000
00010100
00000000
00000000
,
00000010
00000000
00001000
00000000
,
00000001
00000000
00001000
00000000
,
00000100
00000000
00000010
00000000
,
00000001
00000100
00001000
00010000
,
00001000
00000000
00100000
00010000
,
00010000
00000000
00100000
00000000
,
00001000
00000000
01000000
00010000
,
00010000
00000000
00010000
00001000
,
00010000
00000000
00000010
00001000
,
00001000
00000000
00000010
00000000
,
00010000
00000000
00000100
00001000
,
00001000
00000000
00001000
00000001
,
00001000
00000000
00011000
00000000
,
00100000
00000000
00010000
00000000
,
01000000
00000000
00011000
00000000
,
00000100
00000000
00000010
00000000
,
00000001
00000010
00000001
00000010
,
00000100
00001000
00000100
00010000
,
00001000
00010000
00001000
00100000
,
00010000
00000000
00000000
00011000
,
00010000
00000000
00001000
00001000
,
00001000
00100000
00010000
00000000
,
01000000
00000000
00100000
00100000
,
00100000
10000000
01000000
00000000
,
00100000
00000000
00001000
00001000
,
00001000
00000000
00010000
00000000
,
00000100
00000000
00000010
00000010
,
00000010
00000001
00001000
00000001
,
00001000
00000100
00010000
00001000
,
00001000
00010000
00100000
00000000
,
10000000
00100000
01000000
00010000
,
00010000
00100000
01000000
00000000
,
00100000
00001000
00010000
00000100
,
00000100
00000010
00000001
00000000
,
00001000
00000010
00010000
00001000
,
00001000
00010000
00010000
00000000
,
01100000
00000000
00100000
00000000
,
10000000
00010000
10000000
00000000
,
00100000
00000000
10000000
00000000
,
01000000
00000000
00100000
00000000
,
00010000
00000000
00001000
00000000
,
00000100
00000010
00000100
00000000
,
00000010
00000000
00000001
00000000
,
00001000
00000000
00000010
00000000
,
00011000
00000000
00010000
00000000
,
00010000
00001000
00001000
00001000
,
00010000
00000000
00100000
00000000
,
01000000
00000000
00100000
00100000
,
00100000
00000000
00010000
00000000
,
00001000
00000000
00000100
00000000
,
00000010
00000000
00000100
00000000
,
00010000
00010000
00010000
00001000
;

//---------------dance-double - ----------------
#NOTES:
     dance-double:
     :
     Medium:
     8:
     0.327090,0.449381,0.123541,0.082361,0.000000,278.000000,263.000000,15.000000,10.000000,0.000000,0.000000,0.327090,0.449381,0.123541,0.082361,0.000000,278.000000,263.000000,15.000000,10.000000,0.000000,0.000000:
// measure 0
00000000
00000000
00000000
00000000
,  // measure 1
00000000
00000000
00000000
00000000
,  // measure 2
00000000
00000000
00000000
00000000
,  // measure 3
00000000
00000000
00000000
00000000
,  // measure 4
00000000
00000000
00000000
00000000
,  // measure 5
00100000
00000000
00000000
10000000
00000000
00000000
02000000
00000000
,  // measure 6
00000000
00000000
03000000
00000000
00000000
00200000
00000000
00000000
,  // measure 7
00301000
00000000
00000000
00010000
00000000
00000000
00000020
00000000
,  // measure 8
00000000
00000000
00000000
00000000
,  // measure 9
00001030
00000000
00000100
00010000
,  // measure 10
00100000
01000000
00010000
00100000
,  // measure 11
10000000
00100000
00000000
00010000
,  // measure 12
00000000
00001000
00000000
00010000
,  // measure 13
00001000
00000000
00010000
00000010
,  // measure 14
00000100
00000001
00000010
00000100
,  // measure 15
00001000
00100000
00000000
01000000
,  // measure 16
00000000
00100000
00000000
10000000
,  // measure 17
00100000
00100000
00100000
01000000
,  // measure 18
00200000
00000000
10300000
00000000
,  // measure 19
01000000
01000000
01000000
00100000
,  // measure 20
00020000
00000000
00130000
00001000
,  // measure 21
00010000
00000000
00000000
00010000
00000000
00000000
00000100
00000000
,  // measure 22
00000000
00000100
00001000
00000010
,  // measure 23
00000100
00000000
00000000
00001000
00000000
00000000
00010000
00000000
,  // measure 24
00100000
10000000
00010000
10000000
,  // measure 25
00010000
00000000
00100000
00010000
00100000
00000000
00001000
00000000
,  // measure 26
00001000
00000100
00000010
00001000
,  // measure 27
00000100
00000000
00001000
00000100
00001000
00000000
00000001
00000000
,  // measure 28
00000001
00000000
00000100
00000000
00001000
00000000
00000100
00000010
,  // measure 29
00000100
00000000
00000010
00001000
00000010
00000000
00010000
00000000
,  // measure 30
00010000
01000000
10000000
00100000
,  // measure 31
01000000
00000000
00100000
10000000
00100000
00000000
01000000
00000000
,  // measure 32
01000000
00001000
00010000
00000100
,  // measure 33
00010000
00001000
00010000
00001000
00010000
00000000
00000100
00000000
,  // measure 34
00000100
00000010
00000001
00000100
,  // measure 35
00000010
00001000
00000010
00001000
00000010
00000000
00000100
00000000
,  // measure 36
00001000
01000000
00100000
10000000
,  // measure 37
10000000
00100000
10000000
00100000
10000000
00000000
00010000
00000000
,  // measure 38
00100000
00001000
00000010
00000100
,  // measure 39
00010000
00001000
00010000
00001000
00010000
00000000
01000000
00000000
,  // measure 40
01000000
00000000
00000000
00011000
,  // measure 41
00001000
00000000
00010000
00000100
00010000
00000000
00000010
00000000
,  // measure 42
00000010
00000000
00000100
00000000
00000001
00000010
00000010
00000000
,  // measure 43
00000100
00000000
00010000
00001000
00010000
00000000
00100000
00000000
,  // measure 44
00100000
00000000
10000000
00000000
01000000
00100000
00100000
00000000
,  // measure 45
01000000
00000000
00010000
00001000
00010000
00000000
00000010
00000000
,  // measure 46
00000010
00000000
00000001
00000000
00000100
00000010
00000010
00000000
,  // measure 47
00010000
00000000
00001000
00100000
00001000
00000000
01000000
00000000
,  // measure 48
00100000
10000000
01000000
00010000
,  // measure 49
00010100
00000100
00001000
00001100
,  // measure 50
01010000
00000000
01000000
00000000
00100000
10000000
10000000
00000000
,  // measure 51
10100000
00100000
01000000
01010000
,  // measure 52
00001100
00000000
00000100
00000000
00000010
00000001
00000001
00000000
,  // measure 53
00001100
00000100
00010000
00001010
,  // measure 54
00110000
00000000
00100000
00000000
01000000
10000000
10000000
00000000
,  // measure 55
01010000
00010000
00100000
01100000
,  // measure 56
01100000
10010000
10010000
00000000
,  // measure 57
00010000
00100000
00001000
00000100
,  // measure 58
00000001
00001000
00000001
00000010
,  // measure 59
00000100
00000100
00010000
00010000
,  // measure 60
00001000
00000000
00001000
00000000
01000000
01000000
00000000
01000000
,  // measure 61
00010000
01000000
00010000
00100000
,  // measure 62
00010000
00000000
10000000
00000000
01000000
00100000
01000000
00000000
,  // measure 63
00100000
00100000
00001000
00001000
,  // measure 64
00010000
00001000
00000100
00000001
,  // measure 65
00000010
00000100
00000010
00000010
,  // measure 66
00000010
00000000
00000100
00010000
,  // measure 67
00100000
10000000
01000000
01000000
,  // measure 68
01000000
00000000
00100000
00010000
,  // measure 69
00000020
00000000
00000000
00000032
00000000
00000000
00000203
00000000
,  // measure 70
00000000
00002000
00000300
00000000
00000000
00003000
00020000
00000000
,  // measure 71
00130000
00000000
00000000
00000000
,  // measure 72
10000000
00100000
01000000
00010000
;
