#VERSION:0.83;
#TITLE:Rate Cranky Hi-roller;
#SUBTITLE:;
#ARTIST:rate-dat + Cranky + hi-low;
#TITLETRANSLIT:;
#SUBTITLETRANSLIT:;
#ARTISTTRANSLIT:;
#GENRE:;
#ORIGIN:;
#CREDIT:;
#BANNER:Rate Cranky Hi-roller.png;
#BACKGROUND:Rate Cranky Hi-roller-bg.png;
#PREVIEWVID:;
#JACKET:Rate Cranky Hi-roller-jacket.png;
#CDIMAGE:;
#DISCIMAGE:;
#LYRICSPATH:;
#CDTITLE:cdtitle.png;
#MUSIC:Rate Cranky Hi-roller.mp3;
#OFFSET:-0.338000;
#SAMPLESTART:16.337999;
#SAMPLELENGTH:12.800000;
#SELECTABLE:YES;
#BPMS:0.000=150.000;
#STOPS:;
#DELAYS:;
#WARPS:;
#TIMESIGNATURES:0.000=4=4;
#TICKCOUNTS:0.000=4;
#COMBOS:0.000=1;
#SPEEDS:0.000=1.000=0.000=0;
#SCROLLS:0.000=1.000;
#FAKES:;
#LABELS:0.000=Song Start;
#BGCHANGES:;
#KEYSOUNDS:;
#ATTACKS:
;

//---------------dance-double - MEGAtive----------------
#NOTEDATA:;
#CHARTNAME:;
#STEPSTYPE:dance-double;
#DESCRIPTION:MEGAtive;
#CHARTSTYLE:;
#DIFFICULTY:Hard;
#METER:15;
#RADARVALUES:0.736624,0.840775,0.122771,0.090032,0.888041,630.000000,615.000000,15.000000,11.000000,0.000000,0.000000,3.000000,0.000000,0.000000,0.736624,0.840775,0.122771,0.090032,0.888041,630.000000,615.000000,15.000000,11.000000,0.000000,0.000000,3.000000,0.000000,0.000000;
#CREDIT:;
#NOTES:
// measure 0
00000000
00000000
00000000
00000000
,  // measure 1
00000000
00000000
00000000
00000000
,  // measure 2
00000000
00000000
00000000
00000000
,  // measure 3
00000000
00000000
00000000
00000000
,  // measure 4
00110000
00000000
00010000
00100000
00001000
00010000
00000010
00000000
,  // measure 5
00001010
00000000
00001000
00000010
00010000
00001000
00100000
00000000
,  // measure 6
00110000
00000000
00010000
00100000
00001000
00010000
00000010
00000000
,  // measure 7
00001020
00000000
00000000
00000000
,  // measure 8
00001030
00000000
00000100
00000000
00001000
00000100
00000000
00000100
00001000
00000000
00001000
00000100
00000000
00000100
00001000
00000100
,  // measure 9
00001000
00000000
00000100
00000000
00001000
00000100
00000000
00000100
00001000
00000000
00001000
00000000
00000100
00001000
00000010
00000100
,  // measure 10
00000010
00001000
00000100
00000000
00010000
00001000
00000000
00010000
00001000
00000000
00100000
00010000
00000000
00100000
01000000
00000000
,  // measure 11
00100000
00010000
01000000
00000000
00001000
00010000
00000000
00001000
00010000
00000000
00000010
00001000
00000000
00000010
00000100
00000000
,  // measure 12
00000010
00001000
00000100
00000000
00010000
00001000
00000000
00010000
00001000
00000000
00100000
00010000
00000000
00100000
01000000
00000000
,  // measure 13
00100000
00010000
01000000
00000000
00001000
00010000
00000000
00011000
00000000
00010000
00000010
00001000
00000010
00000000
00001000
00000000
,  // measure 14
00000010
00001000
00000100
00000000
00010000
00001000
00000000
00010000
00001000
00000000
01000000
00010000
00100000
01000000
00100000
01000000
,  // measure 15
00100000
00010000
01000000
00000000
00001000
00010000
00000000
00001000
00010000
00000000
00000100
00001000
00000010
00000100
00000010
00000100
,  // measure 16
00000010
00001000
00000100
00000000
00010000
00001000
00000000
00010000
00001000
00000000
01000000
00010000
00100000
01000000
00100000
01000000
,  // measure 17
00100000
00010000
00000000
00010000
00100000
00000000
00001000
00010000
00000000
00010000
00001000
00000000
00010010
00000000
00001010
00000000
,  // measure 18
00020010
00000000
00031000
00000000
00200000
00000000
00310000
00100000
,  // measure 19
00010000
01000000
00100000
01000000
00001000
00010000
00000100
00000000
,  // measure 20
00001000
00000100
00010000
00001000
00010000
00000010
00000100
00000010
,  // measure 21
00001000
00000000
00000100
00000000
00010000
00000000
00001000
00000000
01000000
00100000
01000000
00100000
01000000
00000000
00010000
00000000
,  // measure 22
00100000
00010000
00100000
00010000
01000000
00000000
01000000
00010000
01000000
00010000
00100000
00000000
00001000
00010000
00001000
00000000
,  // measure 23
00010000
00000100
00010000
00000100
00000000
00001000
00000000
00001100
00000000
00000100
00001000
00000010
00000000
00010000
00000010
00010000
,  // measure 24
00001000
00000000
00010000
00001000
00000000
00001000
00010000
00001000
00100000
00001000
00010000
00001000
00100000
00010000
01000000
00100000
,  // measure 25
02000000
00000000
03000000
00110000
,  // measure 26
00100000
00010000
01000000
00000000
00001000
00010000
00000000
00000010
00001000
00000000
00001000
00000010
00000000
00000010
00000100
00000000
,  // measure 27
00000010
00001000
00000100
00000000
00010000
00001000
00000000
00100000
00010000
00000000
00010000
00100000
00000000
00100000
01000000
00000000
,  // measure 28
00100000
00010000
01000000
00000000
00001000
00010000
00000000
00000010
00001000
00000000
00001000
00000010
00000000
00000010
00000100
00000000
,  // measure 29
00000010
00001000
00000100
00000000
00010000
00001000
00000000
00101000
00000000
00100000
00010000
01000000
00100000
00000000
01000000
00000000
,  // measure 30
00010000
00100000
01000000
00000000
00100000
00010000
00000000
00010000
00100000
00000000
00100000
00010000
00100000
00001000
00010000
00001000
,  // measure 31
00010000
00000010
00000100
00000000
00000010
00001000
00000000
00001000
00000010
00000000
00000010
00001000
00000010
00010000
00001000
00010000
,  // measure 32
00001000
00100000
01000000
00000000
00100000
00010000
00000000
00010000
00100000
00000000
00100000
00010000
00100000
00001000
00010000
00001000
,  // measure 33
00010000
00000010
00000000
00000010
00001000
00000000
00001000
00000100
00000000
00000100
00010000
00000000
00001000
00010000
00001000
01000000
,  // measure 34
00200000
00300000
40040000
30000000
00400000
00000000
00330000
00000000
,  // measure 35
00012000
01000000
00010000
00100000
,  // measure 36
00010000
01000000
00010000
00100000
,  // measure 37
00023000
00000100
00001000
00000010
,  // measure 38
00001000
00000100
00001000
00000010
,  // measure 39
00030200
00001000
00010000
00100000
,  // measure 40
00010000
00001000
00010000
00100000
,  // measure 41
02000300
00001000
00010000
00100000
,  // measure 42
03020000
00000000
00000000
00000000
,  // measure 43
00130000
00000000
00010000
00100000
00000000
00100000
00010000
00000000
00100000
00010000
00100000
00000000
01000000
00000000
00100000
00001000
,  // measure 44
00100000
00001000
00010000
00000000
00001000
00010000
00000100
00000000
00010000
00000000
00000100
00000010
00000000
00000100
00001000
00000000
,  // measure 45
00000010
00000000
00001000
00000010
00000000
00000010
00001000
00000000
00000010
00001000
00000010
00000000
00000100
00000000
00000010
00010000
,  // measure 46
00000010
00010000
00001000
00000000
01000000
00001000
01000000
00000000
00010000
00000000
01000000
00100000
01000000
00000000
00010000
00100000
,  // measure 47
00001000
00000000
00010000
00000100
00000000
00000100
00010000
00000000
00000100
00000010
00000100
00000000
00010000
00000000
00000100
00001000
,  // measure 48
00000100
00010000
00001000
00000000
00100000
00010000
00100000
00000000
01000000
00000000
00100000
00001000
00010000
00000000
00001000
00000000
,  // measure 49
00010000
00000000
00001000
01000000
00000000
01000000
00001000
00000000
01000000
00100000
01000000
00000000
00001000
00000000
01000000
00010000
,  // measure 50
01000000
00001000
00010000
00000000
00000010
00001000
00000010
00000000
00000100
00000010
00001000
00000010
00010000
00000000
00001000
00000000
,  // measure 51
00100000
00010000
01000000
00001000
00010000
00100000
01000000
00001000
,  // measure 52
00100000
00010000
01000000
00100000
00010000
00001000
00010000
00000000
,  // measure 53
00000100
00001000
00000010
00010000
00001000
00000100
00000010
00010000
,  // measure 54
00000100
00001000
00000010
00000100
00001000
00010000
00001000
00000000
,  // measure 55
00100000
00000000
00010000
00000000
01000000
00000000
00001000
00000000
00010000
00000000
00100000
01000000
00000000
01000000
00010000
01000000
,  // measure 56
00001000
00000000
00010000
00000000
00000100
00000000
00000010
00000000
00000100
00000000
00001000
00000100
00000000
00000100
00001000
00000100
,  // measure 57
00010000
00000000
00000010
00000000
00000100
00000000
00001000
00000000
00010000
00000000
00000100
00001000
00000000
00001000
00000100
00001000
,  // measure 58
00000010
00000000
00000000
00000000
,  // measure 59
00000010
00000000
00001000
00000000
00000010
00001000
00000000
00001000
00000010
00000000
00000010
00001000
00000000
00001000
00000010
00001000
,  // measure 60
00000010
00000000
00001000
00000000
00000010
00001000
00000000
00001000
00000010
00000000
00000010
00001000
00000000
00001000
00000100
00000010
,  // measure 61
00000100
00000000
00001000
00000000
00000100
00001000
00000000
00001000
00000100
00000000
00000100
00001000
00000000
00001000
00000100
00001000
,  // measure 62
00000100
00000000
00000000
00001100
,  // measure 63
00000100
00001000
00000010
00000000
00010000
00001000
00000000
00010000
00100000
00000000
00010000
00001000
00000000
00010000
00100000
00000000
,  // measure 64
01000000
00010000
00100000
00000000
00001000
00010000
00000000
00001000
00000010
00000000
00001000
00010000
00000000
00001000
00000010
00000000
,  // measure 65
00000100
00001000
00000010
00000000
00010000
00001000
00000000
00010000
00100000
00000000
00010000
00001000
00000000
00010000
00100000
00000000
,  // measure 66
01000000
00010000
00100000
00000000
00001000
00010000
00000000
00010100
00000000
00000100
00001000
00000010
00000100
00000000
00000010
00000100
,  // measure 67
00000010
00001000
00000100
00000000
00000100
00001000
00000000
00001000
00000010
00000000
00000010
00001000
00000010
00010000
00001000
00010000
,  // measure 68
00001000
01000000
00100000
00000000
01000000
00010000
00000000
00010000
01000000
00000000
01000000
00010000
01000000
00001000
00010000
00001000
,  // measure 69
00010000
00000100
00000010
00000000
00000100
00001000
00000000
00001000
00000100
00000000
00000100
00001000
00000100
00010000
00001000
00010000
,  // measure 70
00001000
01000000
00000000
01000000
00010000
00000000
00010000
00100000
00000000
00100000
00001000
00000000
00010000
00001000
00010000
00000010
,  // measure 71
00000200
00000000
00000000
00000000
,  // measure 72
00000000
00000000
00000000
00000000
,  // measure 73
00000000
00000000
00000000
00000300
00000000
00000000
00000000
00000000
;
