#VERSION:0.83;
#TITLE:Railgun Roulette;
#SUBTITLE:;
#ARTIST:かめりあ Vs Akira Complex;
#TITLETRANSLIT:;
#SUBTITLETRANSLIT:;
#ARTISTTRANSLIT:Camellia Vs Akira Complex;
#GENRE:;
#CREDIT:;
#MUSIC:Railgun Roulette.ogg;
#BANNER:Railgun Roulette.png;
#BACKGROUND:Railgun Roulette-bg.png;
#CDTITLE:;
#SAMPLESTART:30.005;
#SAMPLELENGTH:15.000;
#SELECTABLE:YES;
#OFFSET:-0.005;
#BPMS:0.000=128.000;
#STOPS:;
#BGCHANGES:;
#FGCHANGES:;

//--------------- dance-double - ----------------
#NOTEDATA:;
#STEPSTYPE:dance-double;
#DESCRIPTION:;
#DIFFICULTY:Easy;
#METER:11;
#RADARVALUES:0,0,0,0,0;
#CREDIT: Talkion;
#NOTES:
00000000
00000000
00000000
00000000
,
00000000
00000000
00000000
00000000
,
00000000
00000000
00000000
00000000
,
00000000
00000000
00000000
00000000
,
00000000
00000000
00000000
00000000
,
00000000
00000000
00000000
00000000
,
00000000
00000000
00000000
00000000
,
00000000
00000000
00000000
00000000
,
00002000
00000000
02003000
00000000
,
00000000
00000000
03200000
00000000
,
20300000
00000000
30020000
00000000
,
00000000
00000000
00230000
00000000
,
00301000
00100000
00001000
00100000
00001000
00010000
00001000
00010000
,
00000010
00010000
00000010
00010000
00000010
00001000
00000010
00001000
,
00000004
00000000
00000000
00000000
,
00000003
000M0000
000M0000
000M0000
000M0000
00000001
00001000
00000100
,
00010100
00000000
00010000
00001000
01000000
00100000
01000000
00001000
,
00020000
00030002
00010003
00001000
00100000
01000000
00100000
00001000
,
00020000
00000000
00000000
00000000
00030001
00000000
00000000
00010000
00000000
00000000
00001000
00000000
00000000
01000000
00000000
00000000
,
00100000
00000000
01000000
00000000
00010000
00000000
00000000
10000000
00000000
00000000
01000000
00000000
01000000
00000000
00100000
00000000
,
00101000
00000000
00001000
00010000
00000010
00000100
00000010
00010000
,
00002000
00000000
10003000
00001000
01000000
00100000
10000000
00010000
,
00200000
00000000
00000000
00000000
00301000
00000000
00000000
00100000
00000000
00000000
00000020
00000000
00010030
00000000
00010000
00000000
,
00000200
00000000
02000300
00000000
03001000
00000000
00000000
01000000
00000000
00000000
01000000
00000000
00001000
00000000
00100000
00000000
,
00101000
00000000
00001000
00010000
00000010
00000100
00000010
00010000
,
00002000
20003000
30001000
00010000
00000100
00000010
00000100
00010000
,
00002000
00000000
00000000
00000000
10003000
00000000
00000000
00001000
00000000
00000000
00010000
00000000
00000000
00000010
00000000
00000000
,
00000100
00000000
00000010
00000000
00001000
00000000
00000000
00000001
00000000
00000000
00000010
00000000
00000010
00000000
00000100
00000000
,
00010100
00000000
00010000
00001000
01000000
00100000
01000000
00001000
,
00020000
00000000
00030001
00010000
00000010
00000100
00000001
00001000
,
00000200
00000000
00000000
00000000
00010300
00000000
00000000
00000100
00000000
00000000
02000000
00000000
03001000
00000000
00001000
00000000
,
00000000
000M0000
000M0000
000M0000
000M0000
00000000
010M0000
010M0000
,
00200000
00000000
00000000
00000000
10300000
00100000
10000000
00100000
,
10000000
00000000
00000000
00001000
00000000
00001000
00000000
00000000
00010100
00000000
00000000
00000000
00001001
00000000
00000000
00000000
,
00000002
00000000
00001003
00000000
00010000
00001000
00020000
00000000
,
10030000
00000000
00000000
10000000
00000000
00000000
01000000
00000000
00010000
00000000
00000000
00000000
00010000
00000000
00001000
00000000
,
00000020
00000000
00000000
00000000
00000031
00000010
00000001
00000010
,
00000001
00000000
00000000
00010000
00000000
00010000
00000000
00000000
01001000
00000000
00000000
00000000
01000000
00000000
00100000
00000000
,
02000000
00000000
00000000
00000000
03000200
00000000
00000000
00000000
00010300
00000000
00000000
00001000
00000000
00001000
00000000
00000000
,
00100000
00000000
00100000
00000000
00010000
00000000
10000000
00000000
00100000
00000000
00000000
00100000
00000000
00000000
01000000
00000000
,
00001000
000M0000
000M0000
000M0000
00000220
00000000
00000000
00000000
,
00000330
00000000
00000000
00000001
00000000
00000001
00000000
00000000
00010000
00000000
00000100
00000000
00002000
00000000
00000000
00000000
,
00003010
00000000
00020000
00000000
00032000
00000000
00000000
00000000
01003000
00000000
00000000
10000000
00000000
00000000
12000000
00000000
,
00000000
00000000
03001000
01000000
00010000
00000000
10000000
01000000
,
00010000
00000000
00001000
00000010
00000022
00000000
00000000
00000000
,
00000033
00000000
00000000
00000000
00000000
00000001
00000000
00000001
00000000
00000000
00000100
00000000
00000010
00000000
00000000
00000000
,
00010000
00000000
00010010
00000000
00000000
01001000
00000000
00000000
20020000
00000000
00000000
00000000
00000000
00000000
00000000
00000000
,
00000000
00000000
00000000
00000000
30030000
10000000
00010000
00100000
,
00101000
00000000
00000000
00000000
;

//--------------- dance-double - ----------------
#NOTEDATA:;
#STEPSTYPE:dance-double;
#DESCRIPTION:;
#DIFFICULTY:Medium;
#METER:15;
#RADARVALUES:0,0,0,0,0;
#CREDIT: Talkion;
#NOTES:
00000000
00000000
00000000
00000000
,
00000000
00000000
00000000
00000000
,
00000000
00000000
00000000
00000000
,
00000000
00000000
00000000
00000000
,
00000000
00000000
00000000
00000000
,
00000000
00000000
00000000
00000000
,
00000000
00000000
00000000
00000000
,
00000000
00000000
00000000
00000000
,
00020000
00000000
00000000
00032000
00000000
00000000
02003000
00000000
00000000
03200000
00000000
00000000
01300000
00000000
01000000
00000000
,
00002000
00000000
00000000
00023000
00000000
00000000
00030200
00000000
00000000
00000320
00000000
00000000
00000130
00000000
00000100
00000000
,
00020000
00000000
00000000
00032000
00000000
00000000
00203000
00000000
00000000
02300000
00000000
00000000
03100000
00000000
00100000
00000000
,
00002000
00000000
00000000
00023000
00000000
00000000
00030020
00000000
00000000
00000230
00000000
00000000
00000310
00000000
00000010
00000000
,
00010000
00001000
00010000
00000000
00000010
00001000
00000010
00000000
00010000
00001000
00010000
00000000
00000100
00001000
00000001
00000000
,
00000100
00000010
00000100
00000000
00000010
00010000
00000010
00000000
00000100
00000010
00000100
00000000
00000010
00010000
00001000
00000000
,
04000000
00000000
00000000
00000000
,
03000000
00000000
0000M000
00000000
0000M000
00000000
0000M000
00000000
0000M000
00000000
00100000
01000000
00002000
00000000
00023000
00000000
,
00030001
00000000
00000000
00001000
00000001
00000100
00000010
00000000
00000100
00000010
00010000
00001000
00000000
00010000
00000010
00001000
,
00000200
00000000
02000300
00000000
03001000
01000000
00010000
00000000
01000000
00010000
10000000
01000000
00100000
00100000
00002000
00000000
,
20003000
00000000
00000000
30010000
10000000
00100000
00000000
01000000
00010000
01000000
00010000
00100000
00000000
00100000
00001000
00000000
,
00010000
00000000
00000100
00001000
00000100
00001000
00000000
00000001
00000000
00000100
00000010
00000100
00002000
00000000
00013000
00000000
,
00011000
00000000
00000000
00001000
00100000
00010000
10000000
00000000
00010000
10000000
00100000
01000000
00000000
00100000
01000000
00001000
,
00020000
00000000
00000000
00000000
00030001
00010000
00000100
00000000
00010000
00000100
00000010
00000001
00001000
00001000
00000200
00000000
,
02000300
00000000
00000000
03010000
01000000
00000000
00100000
02000000
00000000
00000000
10000000
00000000
03010000
01000000
01000000
00001000
,
00020000
00000000
00030002
00000000
00001003
00000100
00000000
00020100
00000000
00000000
00031000
00000000
01000000
00000000
00010000
00000000
,
10010000
00000000
00000000
00010000
10000000
00100000
01000000
00000000
00100000
01000000
00001000
00010000
00000000
00001000
01000000
00010000
,
00200000
00000000
00300020
00000000
00010030
00000010
00001000
00000000
00000010
00001000
00000001
00000010
00000100
00000100
00020000
00000000
,
00030002
00000000
00000000
00001003
00000001
00000100
00000000
00000010
00001000
00000010
00001000
00000100
00000000
00000100
00010000
00000000
,
00001000
00000000
00100000
00010000
00100000
00010000
00000000
10000000
00000000
00100000
01000000
00100000
00020000
00000000
00031000
00000000
,
00011000
00000000
00000000
00010000
00000100
00001000
00000001
00000000
00001000
00000001
00000100
00000010
00000000
00000100
00000010
00010000
,
00002000
00000000
00000000
00000000
10003000
00001000
00100000
00000000
00001000
00100000
01000000
10000000
00010000
00010000
00200000
00000000
,
00300020
00000000
00000000
00001030
00000010
00000000
00000100
00000020
00000000
00000000
00000001
00000000
00001030
00000010
00000010
00010000
,
00001000
00000000
0001000M
00000000
0001000M
00000000
0000010M
00001000
0000010M
00000000
00010000
00000000
0000100M
01000000
0002000M
00000000
,
20030000
00000000
00000000
00000000
00000000
00000000
00000000
30010000
10000000
00001000
10000000
00001000
10000000
00001000
10000000
00001000
,
00200000
00000000
00001000
00001000
00000000
00000010
00000000
00300010
00100000
00000000
00001000
00000000
00000020
00000000
00000000
00000000
,
00000032
00000000
00000000
00000000
00000000
00000000
00000000
00000000
00000000
00000000
00000000
00000000
00000000
00000000
00000000
00000000
00000000
00000000
00000000
00000000
00000000
00000000
00000000
00000000
00001003
00000000
00000000
00000000
00000000
00000000
00000000
00000000
00001000
00000000
00000000
00000000
00000000
00000000
00000000
00000000
00001000
00000000
00000000
00000000
00000000
00000000
00000000
00000000
00000100
00000000
00000000
00000000
00000000
00000000
01000000
00000000
00000000
00000000
00000000
00000000
00000100
00000000
00000000
00000000
00000000
00000000
01000000
00000000
00000000
00000000
00000000
00000000
00001000
00000000
00000000
00000000
00000000
00000000
00000000
00000000
00000000
00001000
00000000
00000000
00000000
00000000
00000000
00000000
00000000
00000000
00010000
00000000
00000000
00000000
00000000
00000000
,
00002000
01000000
00000000
01000000
00000000
00000000
00013000
00001000
00010000
00000100
00000000
00000100
00000010
00000001
00000000
00000010
,
00000002
00000000
00000000
00000000
00000000
00000000
00000000
00001003
00000001
00010000
00000001
00010000
00000001
00010000
00000001
00010000
,
00000200
00000000
00010000
00010000
00000000
01000000
00000000
01000300
00000100
00000000
00010000
00000000
00001000
01000000
00100000
01000000
,
00002000
00000000
00000000
00000000
00043000
00000000
00000000
00030100
00000010
00000000
00000010
00000040
00000030
00000040
00000030
00000040
,
00000031
00001000
00000100
00001000
00000004
00000100
00000103
00000010
00010000
00001000
00000000
00001000
00000000
01000000
00100000
00000000
,
20000000
00000000
00000000
00000000
00000000
00000000
000M0000
00000000
00000000
00000000
00000000
00000000
000M0000
00000000
00000000
00000000
00000000
00000000
000M0000
00000000
00000000
30001000
00000000
00000000
00400000
00000000
00000040
00000000
00000000
00000000
00000000
00000000
00000000
00000000
00000000
00000000
00000000
00000000
00000000
00000000
00000000
00000000
00000000
00000000
00000000
00000000
00300000
00000000
,
00020030
00000000
00001000
00001000
00000000
00000001
00000000
00030001
00010000
00000000
00001000
00000000
02000000
00000000
00000000
00000000
,
03100000
00000000
00000000
00000000
01000000
00000000
01000000
00000000
00001000
00000000
00000000
00001000
00000000
00000000
00010000
00000000
00000010
00000000
00000100
00000000
00000001
00000000
00002000
00000000
00000000
00000000
00000000
00000000
00003200
00000000
00000000
00000000
,
00000000
00000000
00000000
00000000
00000001
00000000
00000310
00000100
00010000
00001000
00000000
00001000
01000000
00100000
10000000
00000000
,
00020000
00000000
00000000
00000000
00000000
00000000
00000000
00000000
00000000
00000000
00000000
00000000
00130000
00000000
00000000
00001000
00000000
00000000
00100000
00000000
00000000
00001000
00000000
00000000
04000000
00000000
00000400
00000000
00000000
00000000
00000000
00000000
00000000
00000000
00000000
00000000
00000000
00000000
00000000
00000000
00000000
00000000
00000000
00000000
00000000
00000000
03000000
00000000
,
00010300
00000000
00000000
00000000
00000010
00000100
00000000
00000100
00000001
00000000
00001000
00000000
00000200
00000000
00000000
00000000
,
00010300
00000000
00010100
00000000
00000000
00101000
00000000
00000000
20020000
00000000
00000000
00000000
00000000
00000000
00000000
00000000
,
00000000
00000000
00000000
00000000
00000000
00000000
00000000
00000000
30030000
00000000
01000000
00100000
00002000
00000000
00023000
00000000
,
00030001
00000000
00000000
00000000
;

//--------------- dance-double - ----------------
#NOTEDATA:;
#STEPSTYPE:dance-double;
#DESCRIPTION:;
#DIFFICULTY:Hard;
#METER:17;
#RADARVALUES:0,0,0,0,0;
#CREDIT: Talkion;
#NOTES:
00000000
00000000
00000000
00000000
,
00000000
00000000
00000000
00000000
,
00000000
00000000
00000000
00000000
,
00000000
00000000
00000000
00000000
,
00000000
00000000
00000000
00000000
,
00000000
00000000
00000000
00000000
,
00000000
00000000
00000000
00000000
,
00000000
00000000
00000000
00000000
00000000
00000000
00000000
00000000
00000000
00000000
00000000
00000000
00000000
00000000
00000000
00000000
00000000
00000000
00000000
00000000
00000000
00000000
00010000
00001000
00010000
00000000
00001000
00000000
01000000
00000000
00010000
00000000
,
20000000
00000000
00000000
32000000
00000000
00000000
03020000
00000000
00000000
00032000
00000000
00000000
00003010
00000000
00001000
00000000
,
00020000
00000000
00000000
00230000
00000000
00000000
00320000
00000000
00000000
00032000
00000000
00000000
00003100
00000000
00001000
00000000
,
00020000
00000000
00000000
02030000
00000000
00000000
03020000
00000000
00000000
00032000
00000000
00000000
00003010
00000000
00000001
00000000
,
00002000
00000000
00000000
00003002
00000000
00000000
00000203
00000000
00000000
00002300
00000000
00000000
00013000
00000000
00001000
00000000
,
01000000
00100000
10000000
00100000
01000000
00100000
10000000
00010000
00100000
00001000
00010000
00001000
00100000
00001000
00010000
00000010
,
00001000
00000001
00000010
00000001
00001000
00000001
00000010
00000100
00010000
00001000
00010000
00000100
00010000
00001000
01000000
00010000
,
40000000
00040000
00000000
00000000
00000000
00000000
00000000
00000000
00000000
00000000
00000000
00000000
00000000
00000000
00000000
00000000
00000000
00000000
00000000
00000000
00000000
00000000
00000000
00000000
00000000
00000000
00000000
00000000
00000000
00000000
00000000
30000000
,
00030000
00000000
00M00000
00000000
00M00000
00000000
00M00000
00000000
00M00000
00000000
01000000
00001000
00020000
00000000
00030002
00000000
,
00002103
00000000
00000000
00003010
00010000
00001000
01000000
01000000
00010000
01000000
00001000
00010000
00000100
00000010
00000001
00001000
,
00000200
00000000
00000000
00000000
02000300
00000000
00000000
00000000
03010000
00000000
01000000
00000000
00100000
00000000
00100000
00000000
10000000
00000000
00010000
00000000
00100000
00000000
01000000
00000000
00010000
00000000
00010000
00000000
00001000
00010000
00001000
00000000
,
20000000
00000000
00000000
00000000
00000000
00000000
30100000
10000000
00100000
00000000
01000000
00000000
00000000
00000000
01001000
00000000
00000000
00000000
00001000
00000000
0M001000
00000000
00000100
00000000
00000000
00000000
00010000
00000000
00002000
00000000
00000000
00000000
,
00003020
00000000
00000000
00000000
00000130
00000000
000001M0
00000000
00000001
00000000
00001000
00000000
00000000
00000000
00001100
00000000
00000000
00000000
00000100
00000000
00010000
00000000
00001000
00000000
01000000
00000000
00100000
00000000
10000000
00000000
00010000
00100000
,
00020000
00000000
00000000
10030000
00010000
01000000
00001000
00001000
00010000
00000100
00000010
00000001
00001000
00000100
0000M100
00000100
,
00020000
00000000
00000000
00000000
00000000
00000000
00000000
00000000
00031000
00000000
01000000
00000000
00100000
00000000
00100000
00000000
10000000
00000000
00010000
00000000
01000000
00000000
00100000
00000000
00010000
00000000
00010000
00000000
00001000
00010000
00001000
00000000
,
20000000
00000000
00000000
00000000
00000000
00000000
30010000
10000000
00010000
00000000
00000000
00000000
00100000
00000000
00002000
00000000
00000000
00000000
00000000
00000000
00003010
00000000
00000000
00000000
00000100
00000000
00000100
00000010
00000001
00000000
00001000
00000000
,
00000200
00000000
00000000
00000000
02000300
00000000
00000000
00000000
03010000
00000000
01000000
00000000
00000000
00000000
01100000
00000000
00000000
00000000
00010000
10000000
00010000
00000000
01000000
00000000
00100000
00000000
00000000
00000000
10000000
00000000
00000000
00000000
,
00120000
00000000
00000000
01030000
00001000
00010000
00000010
00000010
00001000
00000010
00010000
00001000
00100000
01000000
10000000
00010000
,
00200000
00000000
00000000
00000000
00300020
00000000
00000000
00000000
00001030
00000000
00000010
00000000
00000100
00000000
00000100
00000000
00000001
00000000
00001000
00000000
00000100
00000000
00000010
00000000
00001000
00000000
00001000
00000000
00010000
00001000
00010000
00000000
,
00000002
00000000
00000000
00000000
00000000
00000000
00000103
00000001
00000100
00000000
00000010
00000000
00000000
00000000
00010010
00000000
00000000
00000000
00010000
00000000
000100M0
00000000
00100000
00000000
00000000
00000000
00001000
00000000
00020000
00000000
00000000
00000000
,
02030000
00000000
00000000
00000000
03100000
00000000
0M100000
00000000
10000000
00000000
00010000
00000000
00000000
00000000
00110000
00000000
00000000
00000000
00100000
00000000
00001000
00000000
00010000
00000000
00000010
00000000
00000100
00000000
00000001
00000000
00001000
00000100
,
00002000
00000000
00000000
00003001
00001000
00000010
00010000
00010000
00001000
00100000
01000000
10000000
00010000
00100000
001M0000
00100000
,
00002000
00000000
00000000
00000000
00000000
00000000
00000000
00000000
00013000
00000000
00000010
00000000
00000100
00000000
00000100
00000000
00000001
00000000
00001000
00000000
00000010
00000000
00000100
00000000
00001000
00000000
00001000
00000000
00010000
00001000
00010000
00000000
,
00000002
00000000
00000000
00000000
00000000
00000000
00001003
00000001
00001000
00000000
00000000
00000000
00000100
00000000
00020000
00000000
00000000
00000000
00000000
00000000
01030000
00000000
00000000
00000000
00100000
00000000
00100000
01000000
10000000
00000000
00010000
00000000
,
00100000
00000000
00000000
00000000
0M001000
00000000
00000000
00000000
0M001000
00000000
00000000
00000000
0M010000
00000000
00000100
00000000
0M001000
00000000
00000000
00000000
00000001
00000000
00000000
00000000
0M000100
00000000
00000100
00000000
0M000010
00010000
00001000
00000000
,
00021000
00000000
00000000
00000000
00000000
00000000
00000000
00030100
00100000
00000010
00100000
00000010
00100000
00000010
00100000
00000010
,
02000000
00000000
00000000
00000000
03100000
01000000
00100000
00000000
00000000
00000000
10000000
00000000
01000000
00000000
00100000
00000000
02200000
00000000
00000000
00000000
03300000
00000000
00000000
00000000
00000220
00000000
00000000
00000000
00000330
00000000
00000000
00000000
,
00000002
00000000
00000000
00000000
00000000
00000000
00000000
00000000
00000000
00000000
00000000
00000000
00000000
00000000
00000000
00000000
00000000
00000000
00000000
00000000
00000000
00000000
00000000
00000000
00000103
00000000
00000000
00000000
00000000
00000000
00000000
00000000
00000100
00000000
00000000
00000000
00000000
00000000
00000000
00000000
00000100
00000000
00000000
00000000
00000000
00000000
00000000
00000000
00000010
00000000
00000000
00000000
00000000
00000000
01000000
00000000
00000000
00000000
00000000
00000000
00000010
00000000
00000000
00000000
00000000
00000000
01000000
00000000
00000000
00000000
00000000
00000000
00001000
00000000
00000000
00000000
00000000
00000000
00000000
00000000
00000000
00001000
00000000
00000000
00000000
00000000
00000000
00000000
00000000
00000000
00100000
00000000
00000000
00000000
00000000
00000000
,
00010000
00000000
10000000
00010000
10000000
00000000
02000000
00000000
00000000
00000000
00000000
00000000
03100000
00000000
00001000
00010000
00001000
00000000
00100000
00000000
00000000
00000000
00100000
00000000
00001000
00000000
00M01000
00000000
00000010
00000000
00010000
00000000
,
00012000
00000000
00000000
00000000
00000000
00000000
00000000
00103000
00000100
01000000
00000100
01000000
00000100
01000000
00000100
01000000
,
00000020
00000000
00000000
00000000
00000130
00000010
00000100
00000000
00000000
00000000
00000001
00000000
00000010
00000000
00000100
00000000
00000220
00000000
00000000
00000000
00000330
00000000
00000000
00000000
00010000
00000000
00001000
00010000
00000100
00010000
00001000
00000000
,
02000000
00000000
00000000
00000000
00000000
00000000
00000000
00000000
00000000
00000000
00000000
00000000
00000000
00000000
00000000
00000000
00000000
00000000
00000000
00000000
00000000
00000000
00000000
00000000
03100000
00000000
00000000
00000000
01000000
00000000
00000000
00000000
00100000
00000000
00000000
00000000
01000000
00000000
00000000
00000000
00000000
00000000
00010000
00000000
00000000
00000000
00000000
00000000
10000000
00000000
00000000
00000000
00000000
00000000
00000000
00000000
00000000
00000000
00000000
00000000
01000000
00000000
00000000
00100000
00000000
00000000
02000000
00000000
00000000
00000000
00000000
00000000
00000000
00000000
00000000
00000000
00000000
00000000
00010000
00000000
00000000
00000000
00000000
00000000
00000000
00000000
00000000
00000000
00000000
00000000
03100000
00000000
00000000
00000000
00000000
00000000
,
00001000
00000000
00010000
00001000
00010000
00000000
00000010
00000000
00000400
00000000
00000340
00000000
00010030
00000000
00001000
00010000
00001000
00000000
00100000
00000000
00000000
00000000
00100000
00000000
00000000
00000000
01000000
00000000
00010000
00000000
00001000
00000000
,
02000000
00000000
00000000
00000000
00000000
00000000
0000M000
00000000
00000000
00000000
00000000
00000000
0000M000
00000000
00000000
00000000
00000000
00000000
0000M000
00000000
00000000
03100000
00000000
00000000
10000000
00000000
00001000
00000000
10000000
00000000
00001000
00000000
10000000
00000000
00001000
00000000
10000000
00000000
00001000
00000000
10000000
00000000
00001000
00000000
10000000
00000000
00001000
00000000
,
02000000
00000000
00000000
00000000
03100000
01000000
00100000
00000000
00000000
00000000
10000000
00000000
01000000
00000000
00100000
00000000
02200000
00000000
00000000
00000000
03300000
00000000
00000000
00000000
00000220
00000000
00000000
00000000
00000330
00000000
00000000
00000000
,
00000002
00000000
00000000
00000000
00001003
00000001
00000100
00000001
00001000
00000000
00000000
00001000
00000000
00000000
00000100
00000000
00010000
00000000
00010M00
00000000
01000000
00000000
00200000
00000000
00000000
00000000
00000000
00000000
21300000
00000000
00000000
00000000
,
00000000
00000000
00000000
00000000
00000000
00000000
00000000
00000000
30020000
00000000
00000000
00000000
00130000
00000000
00001000
00010000
00001000
00000000
01000000
00000000
00000000
00000000
01000000
00000000
00100000
00000000
00100000
00000000
10000000
00000000
00010000
00000000
,
00200000
00000000
00000000
00000000
00000000
00000000
00000000
00000000
00000000
00000000
00000000
00000000
00310000
00000000
00000000
00M10000
00000000
00000000
00010000
00000000
00000000
01000000
00000000
00000000
00001000
00000000
10000000
00000000
00001000
00000000
10000000
00000000
00001000
00000000
10000000
00000000
00001000
00000000
10000000
00000000
00001000
00000000
10000000
00000000
00001000
00000000
10000000
00000000
,
00200000
00000000
00000000
00000000
01300000
00001000
00000000
00001000
00010000
00000000
00000100
00000000
00000020
00000000
00000000
00000000
,
00000031
00000000
00001100
00000000
00000000
00010010
00000000
00000000
00022000
00000000
00000000
00000000
00000000
00000000
00000000
00000000
,
00000000
00000000
00000000
00000000
00000000
00000000
00000000
00000000
00033000
00000000
00000010
00010000
00002000
00000000
20003000
00000000
,
30010000
00000000
00000000
00000000
;
