#TITLE:RG04;
#SUBTITLE:;
#ARTIST:megawolf77;
#TITLETRANSLIT:;
#SUBTITLETRANSLIT:;
#ARTISTTRANSLIT:;
#GENRE:;
#CREDIT:;
#BANNER:rg04-bn.png;
#BACKGROUND:rg04-bg.png;
#LYRICSPATH:;
#CDTITLE:cdtitle.png;
#MUSIC:rg04.ogg;
#OFFSET:-0.035170;
#SAMPLESTART:48.035000;
#SAMPLELENGTH:12.000000;
#SELECTABLE:YES;
#BPMS:0.000000=200.000000
;
#STOPS:
;
#BGCHANGES:;
#KEYSOUNDS:;
#ATTACKS:;

//---------------dance-double - ----------------
#NOTES:
     dance-double:
     :
     Hard:
     12:
     0.665155,0.725274,0.591381,0.166586,0.008329,559.000000,488.000000,71.000000,20.000000,216.000000,0.000000,0.665155,0.725274,0.591381,0.166586,0.008329,559.000000,488.000000,71.000000,20.000000,216.000000,0.000000:
// measure 0
00000000
00000000
00000000
00000000
,  // measure 1
00000000
00000000
00000000
00000000
,  // measure 2
00000000
00000000
00000000
00000000
,  // measure 3
00000000
00000000
00000000
00000000
,  // measure 4
10010000
00000000
00000000
00000000
,  // measure 5
10000000
00100000
00000000
00020000
00000000
00000000
00031000
00000000
,  // measure 6
00011000
00000000
00000000
00000000
,  // measure 7
00001000
00000100
00000001
00000100
00000010
00000000
00000000
00000000
,  // measure 8
00000110
00000000
00000010
00010000
00001000
00010000
01000000
00000000
,  // measure 9
10000000
00010000
00010000
00000000
01000000
00100000
00100000
00000000
,  // measure 10
01100000
00000000
01000000
00001000
00010000
00001000
00000010
00000000
,  // measure 11
00000001
00000100
00000010
00010000
00001000
00000000
00000000
00000000
,  // measure 12
01100000
00000000
10000000
00100000
01000000
00001000
00010000
00000000
,  // measure 13
00001000
00000100
00000001
00000000
00000010
00000100
00001000
00000000
,  // measure 14
00000001
00000100
00000001
00000100
00001000
00000100
00001000
00000100
,  // measure 15
00001000
00010000
01000000
10000000
01000000
00010000
00001000
00000100
,  // measure 16
00000001
00000010
00000001
00001000
00000001
00000010
00000100
00010000
,  // measure 17
00001000
00010000
01000000
10000000
00000000
01000000
00100000
00001000
,  // measure 18
00010010
00000100
00000001
00000100
00001000
00010000
00001000
00000000
,  // measure 19
00011000
00000000
00101000
00000000
00110000
00010000
10000000
00010000
,  // measure 20
10000000
00100000
10000000
00010000
10000000
00100000
01000000
00001000
,  // measure 21
00010000
00001000
00000100
00000001
00000000
00000100
00000010
00010000
,  // measure 22
00001000
00100000
01000000
10000000
01000000
00010000
00001000
00010000
,  // measure 23
00000100
00000000
00000010
00000000
00000000
00000000
00000001
00000000
00001000
00000001
00001000
00000000
00000010
00000000
00000000
00000000
,  // measure 24
00010010
00101000
10010000
MMMMMMMM
,  // measure 25
00010000
10000000
00000000
10000000
00010000
00000000
MMMMMMMM
00000000
,  // measure 26
00110000
00000000
00011000
00000000
00001010
00000000
00000010
00010000
,  // measure 27
00002000
01000000
00000000
01003000
,  // measure 28
01001000
00010100
00001001
MMMMMMMM
,  // measure 29
00001000
00000001
00000000
00000001
00001000
00000000
MMMMMMMM
00000000
,  // measure 30
00001100
00000000
00011000
00000000
01010000
00000000
00010000
10000000
,  // measure 31
02000000
00100000
00100000
03100000
,  // measure 32
00010000
00100000
10000000
00000000
00110000
00000000
00010000
10000000
,  // measure 33
00000000
10000000
00010000
00000000
10000000
00100000
00010000
00001000
,  // measure 34
00000100
00000001
00000100
00000000
00001010
00000000
00001000
00000001
,  // measure 35
00000000
00000001
00001000
00000000
00000001
00000010
00000100
00000000
,  // measure 36
00010000
00001000
00010000
01000000
10000000
01000000
00100000
00000000
,  // measure 37
00001000
00010000
00001000
00000100
00000001
00000000
MMMMMMMM
00000000
,  // measure 38
00000001
00000010
00001000
00000010
00000100
00010000
00001000
00000000
,  // measure 39
00010000
00100000
10000000
00100000
00010000
00000000
MMMMMMMM
00000000
,  // measure 40
00001000
00000100
00000001
00000000
00000101
00000000
00000001
00001000
,  // measure 41
00000000
00001000
00000001
00000000
00000001
00000010
00001000
00010000
,  // measure 42
01000000
10000000
01000000
00000000
11000000
00000000
10000000
00010000
,  // measure 43
00000000
00010000
10000000
00000000
10000000
00100000
01000000
00000000
,  // measure 44
00001000
00010000
00001000
00000100
00000001
00000100
00000010
00000000
,  // measure 45
00010000
00001000
00010000
01000000
10000000
00000000
MMMMMMMM
00000000
,  // measure 46
10000000
00100000
00010000
00100000
01000000
00001000
00010000
00000000
,  // measure 47
00001000
00000100
00000001
00000100
00000010
00000100
00000110
00000000
,  // measure 48
00000001
00001000
00000000
00000000
00000010
00001000
00000010
00000001
,  // measure 49
00000010
00010000
00001000
00000000
00022000
00000000
00033000
00000000
,  // measure 50
00010000
01000000
00000000
00000000
10000000
00100000
10000000
00000000
,  // measure 51
MMMMMMMM
10010000
MMMMMMMM
01100000
,  // measure 52
10000000
00010000
00000000
00000000
00100000
00010000
00100000
10000000
,  // measure 53
00100000
00001000
00010000
00000000
00022000
00000000
00033000
00000000
,  // measure 54
00001000
00000100
00000000
00000000
00000001
00000010
00000001
00000000
,  // measure 55
MMMMMMMM
00001001
MMMMMMMM
00000110
,  // measure 56
00001002
00000000
00000010
00000010
00000013
00000000
00000100
00000000
,  // measure 57
00010100
00010010
00010100
MMMMMMMM
,  // measure 58
00002010
00000000
00000100
00000100
00003100
00000000
00010000
00000000
,  // measure 59
00101000
10100000
01100000
MMMMMMMM
,  // measure 60
20010000
00000000
00100000
00100000
30100000
00000000
01000000
00000000
,  // measure 61
01001000
00101000
01001000
MMMMMMMM
,  // measure 62
00120000
00000000
01000000
01000000
01030000
00000000
00001000
00000000
,  // measure 63
00010010
00000011
00000110
MMMMMMMM
,  // measure 64
00000001
00000010
00000001
00000010
00000001
00000000
MMMMMMMM
00000000
,  // measure 65
00010000
00000100
00010000
00000100
00010000
00000000
MMMMMMMM
00000000
,  // measure 66
00001000
00010000
00001000
00010000
00001000
00000000
MMMMMMMM
00000000
,  // measure 67
01000000
00001000
01000000
00001000
01000000
00000000
MMMMMMMM
00000000
,  // measure 68
00100000
10000000
00100000
00000000
01000000
00001000
01000000
00000000
,  // measure 69
00001000
00010000
00001000
00000000
00010000
00000100
00010000
00000000
,  // measure 70
00000100
00000001
00000100
00001000
00000100
00000001
00000100
00001000
,  // measure 71
00000100
00000010
00000100
00000010
00000001
00001000
00000001
00001000
,  // measure 72
00000001
00000010
00000001
00001000
00000001
00000010
00000100
00010000
,  // measure 73
00001000
00010000
01000000
10000000
00000000
01000000
00100000
00001000
,  // measure 74
00010000
00000010
00000100
00000001
00000100
00001000
00010000
00001000
,  // measure 75
00011000
00000000
00101000
00000000
00110000
00010000
10000000
00010000
,  // measure 76
10000000
00100000
10000000
00010000
10000000
00100000
01000000
00001000
,  // measure 77
00010000
00001000
00000100
00000001
00000000
00000100
00000010
00010000
,  // measure 78
00001000
00100000
01000000
10000000
01000000
00010000
00001000
00010000
,  // measure 79
00000100
00000000
00000010
00000000
00000000
00000000
00000001
00000000
00001000
00000010
00001000
00000000
00000100
00000000
00000000
00000000
,  // measure 80
00010100
01001000
10010000
MMMMMMMM
,  // measure 81
10000000
00100000
00000000
00100000
00010000
00000000
MMMMMMMM
00000000
,  // measure 82
00011000
00000000
00001100
00000000
00000110
00000000
00000001
00001000
,  // measure 83
00000200
00010000
00010000
00010300
,  // measure 84
00010100
00000101
00000110
MMMMMMMM
,  // measure 85
00000001
00000100
00000000
00000100
00001000
00000000
MMMMMMMM
00000000
,  // measure 86
00011000
00000000
01010000
00000000
01100000
00000000
10000000
00010000
,  // measure 87
20020000
00000000
00000000
30030000
,  // measure 88
10000000
00100000
00000000
00010000
00001000
00000100
00000010
00000100
,  // measure 89
00000001
00001000
00000001
00000000
00002002
00000000
00003003
00000000
,  // measure 90
00000001
00000010
00000000
00001000
00010000
01000000
10000000
00000000
,  // measure 91
MMMMMMMM
01100000
MMMMMMMM
10010000
,  // measure 92
10000000
01000000
00000000
00010000
00001000
00000100
00000001
00000100
,  // measure 93
00000010
00001000
00000001
00000000
00002002
00000000
00003003
00000000
,  // measure 94
00000001
00000100
00000000
00001000
00010000
01000000
10000000
00000000
,  // measure 95
MMMMMMMM
01100000
MMMMMMMM
01001000
,  // measure 96
00022000
00000000
00000000
00033000
;
