#VERSION:0.83;
#TITLE:Makin' Out;
#SUBTITLE:;
#ARTIST:Infinity;
#TITLETRANSLIT:;
#SUBTITLETRANSLIT:;
#ARTISTTRANSLIT:;
#GENRE:;
#ORIGIN:;
#CREDIT:;
#BANNER:Makin' Out - Infinitybn.PNG;
#BACKGROUND:Makin' Out - Infinitybg.PNG;
#PREVIEWVID:;
#JACKET:Makin' Out - Infinityjacket.PNG;
#CDIMAGE:;
#DISCIMAGE:;
#LYRICSPATH:Makin' Out - Infinity.lrc;
#CDTITLE:encorefundamentals.png;
#MUSIC:Makin' Out - Infinity.ogg;
#OFFSET:0.019870;
#SAMPLESTART:74.928894;
#SAMPLELENGTH:13.333336;
#SELECTABLE:YES;
#DISPLAYBPM:72.000000:144.000000;
#BPMS:0.000=144.000,
44.500=216.000,
46.000=144.000,
142.000=72.000,
158.000=144.000,
230.000=216.000,
231.500=144.000;
#STOPS:44.000=1.042,
158.000=1.250;
#DELAYS:;
#WARPS:;
#TIMESIGNATURES:0.000=4=4;
#TICKCOUNTS:0.000=4;
#COMBOS:0.000=1;
#SPEEDS:0.000=1.000=0.000=0;
#SCROLLS:0.000=1.000;
#FAKES:;
#LABELS:0.000=Song Start;
#BGCHANGES:;
#KEYSOUNDS:;
#ATTACKS:
;

//---------------dance-single - Spork!----------------
#NOTEDATA:;
#CHARTNAME:Beginner;
#STEPSTYPE:dance-single;
#DESCRIPTION:Spork!;
#CHARTSTYLE:;
#DIFFICULTY:Beginner;
#METER:2;
#RADARVALUES:0.073497,0.136957,0.038110,0.066692,0.000000,54.000000,50.000000,4.000000,7.000000,0.000000,0.000000,0.000000,0.000000,0.000000,0.073497,0.136957,0.038110,0.066692,0.000000,54.000000,50.000000,4.000000,7.000000,0.000000,0.000000,0.000000,0.000000,0.000000;
#CREDIT:A. King;
#DISPLAYBPM:72.000000:144.000000;
#NOTES:
0000
0000
0000
0000
,
0000
0000
0000
0000
,
0000
0000
0000
0000
,
0000
0000
0000
0000
,
2000
0000
0000
0000
,
0000
0000
0000
0000
,
3002
0000
0000
0000
,
0000
0000
0000
0000
,
0203
0000
0000
0000
,
0000
0000
0000
0000
,
0300
0000
0000
0000
,
0000
0000
0001
0000
,
0000
0000
0001
0000
,
0000
0000
0100
0000
,
0000
0000
0100
0000
,
0000
0000
0010
0000
,
0000
0000
0010
0000
,
0000
0000
1000
0000
,
0000
0000
0001
0000
,
0000
0000
1000
0000
,
0000
0000
1000
0000
,
0000
0000
0100
0000
,
0000
0000
0100
0000
,
0000
0000
0010
0000
,
0000
0000
0010
0000
,
0000
0000
0001
0000
,
0000
0000
1000
0000
,
0000
0000
0002
0000
,
0000
0000
0000
0000
,
0000
0000
2003
0000
,
0000
0000
0000
0000
,
0000
0000
3200
0000
,
0000
0000
0000
0000
,
0000
0000
0000
0000
,
0000
0000
0300
0000
,
0000
0000
1000
0000
,
1000
0000
0010
0000
,
0010
0000
0100
0000
,
0100
0000
0001
0000
,
0001
0000
0000
1000
,
0000
0000
0000
0001
,
0000
0000
0000
1000
,
0000
0001
0000
1000
,
0000
0000
0000
0100
,
0000
0000
0000
1001
,
0000
0000
0000
0100
,
0000
0000
0000
1001
,
0000
0000
0000
0001
,
0000
0000
0000
1000
,
0000
0000
0000
0001
,
0000
1000
0000
0001
,
0000
0000
0000
1000
,
0000
0000
0000
0110
,
0000
0000
0000
0001
,
0000
0000
0000
0110
,
0000
0000
0000
0020
,
0000
0000
0000
0000
,
0000
0000
0130
0000
;

//---------------dance-single - Spork!----------------
#NOTEDATA:;
#CHARTNAME:Light;
#STEPSTYPE:dance-single;
#DESCRIPTION:Spork!;
#CHARTSTYLE:;
#DIFFICULTY:Easy;
#METER:5;
#RADARVALUES:0.186466,0.273914,0.038110,0.123857,0.000000,137.000000,133.000000,4.000000,13.000000,0.000000,0.000000,0.000000,0.000000,0.000000,0.186466,0.273914,0.038110,0.123857,0.000000,137.000000,133.000000,4.000000,13.000000,0.000000,0.000000,0.000000,0.000000,0.000000;
#CREDIT:A. King;
#DISPLAYBPM:72.000000:144.000000;
#NOTES:
0000
0000
0000
0000
,
0000
0000
0000
0000
,
0000
0000
0000
0000
,
0000
0000
0000
0000
,
0002
0000
0000
0000
,
0023
0000
0000
0000
,
0230
0000
0000
0000
,
2300
0000
0000
3000
,
2000
0000
0000
0000
,
3020
0000
0000
0000
,
0130
0000
0000
0000
,
0000
0000
0001
0000
,
0010
0000
0100
0000
,
1000
0001
1000
0000
,
0010
0000
0100
0000
,
0001
1000
0001
0000
,
0100
0000
0010
0000
,
1000
0001
1000
0000
,
0100
0000
0010
0000
,
0001
1000
1001
0000
,
0010
0000
0010
1000
,
0100
1000
0001
0000
,
0100
0000
0100
0001
,
0010
0001
1000
0000
,
0100
0000
0100
1000
,
0001
1000
0010
0000
,
0010
0000
1001
0000
,
0000
0000
2000
0000
,
0100
0000
3200
0000
,
0010
0000
0320
0000
,
0001
0000
0032
0000
,
1000
0003
0002
0000
,
0100
0000
0203
0000
,
0010
0000
0310
0000
,
0000
0000
0010
0000
,
0000
0000
0000
0000
1000
1000
0000
0000
,
0100
0100
0000
0000
1000
1000
0000
0000
,
0001
0001
0000
0000
0010
0010
0000
0000
,
0001
0001
0000
0000
0100
0100
0000
0000
,
0010
0010
0000
0000
1001
0000
1000
0000
,
0100
0001
0000
0001
,
0100
1000
0000
0001
,
0100
1000
0100
0001
,
0010
0100
0000
0100
,
0010
0001
0100
0010
,
0000
0010
0100
0010
,
1000
0100
1000
0001
,
0000
1000
0000
0001
,
0010
1000
0000
1000
,
0010
0001
0000
1000
,
0010
0001
0010
1000
,
0100
0010
0000
0010
,
0100
1000
0010
0100
,
0000
0100
0010
0100
,
0001
0010
0001
1000
,
0000
0001
0000
0020
,
0000
0000
0000
0000
,
0000
0030
1001
0000
;

//---------------dance-double - Spork!----------------
#NOTEDATA:;
#CHARTNAME:Light;
#STEPSTYPE:dance-double;
#DESCRIPTION:Spork!;
#CHARTSTYLE:;
#DIFFICULTY:Easy;
#METER:4;
#RADARVALUES:0.142912,0.219131,0.114329,0.142912,0.000000,105.000000,93.000000,12.000000,15.000000,0.000000,0.000000,0.000000,0.000000,0.000000,0.142912,0.219131,0.114329,0.142912,0.000000,105.000000,93.000000,12.000000,15.000000,0.000000,0.000000,0.000000,0.000000,0.000000;
#CREDIT:A. King;
#DISPLAYBPM:72.000000:144.000000;
#NOTES:
00000000
00000000
00000000
00000000
,
00000000
00000000
00000000
00000000
,
00000000
00000000
00000000
00000000
,
00000000
00000000
00000000
00000000
,
00020000
00000000
00000000
00000000
,
02030000
00000000
00000000
00000000
,
03200000
00000000
00000000
00000000
,
20300000
00000000
00000000
30000000
,
20000000
00000000
00000000
00000000
,
32000000
00000000
00000000
00000000
,
03100000
00000000
00000000
00000000
,
00000000
00000000
00010000
00000000
,
01000000
00000000
00001000
00000000
,
00011000
00000000
00010000
00000000
,
00000010
00000000
00001000
00000000
,
00001001
00000000
00001000
00000000
,
00000100
00000000
00010000
00000000
,
00011000
00000000
00001000
00000000
,
01000000
00000000
00010000
00000000
,
10000000
00000000
00010000
00000000
,
00100000
00000000
00001000
00000000
,
00011000
00000000
00010000
00000000
,
00000100
00000000
00001000
00000000
,
00001001
00000000
00001000
00000000
,
00000010
00000000
00000100
00000000
,
00000110
00000000
00002002
00000000
,
00000000
00000000
00003003
00000000
,
00000000
00000000
00002000
00000000
,
00000000
00000000
00003200
00000000
,
00000000
00000000
00000320
00000000
,
00000000
00000000
00000032
00000000
,
00000000
00000003
00000002
00000000
,
00000000
00000000
00000203
00000000
,
00000000
00000000
00000310
00000000
,
00000000
00000000
00000000
00000000
,
00000000
00000000
00000001
00000000
,
00001000
00000000
00010000
00000000
,
10000000
00000000
10000000
00000000
,
00010000
00000000
00001000
00000000
,
00000001
00000000
00001001
00001000
,
00000100
00001000
00000000
00000100
,
00000010
00000100
00000000
00000010
,
00000001
00000010
00000001
00000100
,
00000100
00000100
00000000
00000001
,
00000000
00000100
00000000
00000110
,
00000000
00000100
00000000
00001000
,
00000000
00010000
00000000
00011000
,
00000000
00000000
00000000
00010000
,
00100000
00010000
00000000
00100000
,
01000000
00100000
00000000
01000000
,
10000000
01000000
00000000
10000000
,
00010000
10000000
00000000
10000000
,
00000000
00100000
00000000
01100000
,
00000000
00100000
00000000
00010000
,
00000000
00001000
00000000
00011000
,
00000000
00000000
00000000
00002000
,
00000000
00000000
00000000
00000000
,
00000000
00000000
00003001
00000000
;

//---------------dance-single - Spork!----------------
#NOTEDATA:;
#CHARTNAME:Standard;
#STEPSTYPE:dance-single;
#DESCRIPTION:Spork!;
#CHARTSTYLE:;
#DIFFICULTY:Medium;
#METER:7;
#RADARVALUES:0.217770,0.301305,0.076220,0.133384,0.000000,160.000000,152.000000,8.000000,14.000000,0.000000,0.000000,0.000000,0.000000,0.000000,0.217770,0.301305,0.076220,0.133384,0.000000,160.000000,152.000000,8.000000,14.000000,0.000000,0.000000,0.000000,0.000000,0.000000;
#CREDIT:A. King;
#DISPLAYBPM:72.000000:144.000000;
#NOTES:
0000
0000
0000
0000
,
0000
0000
0000
0000
,
0000
0000
0000
0000
,
0000
0000
0000
0000
,
2000
0000
0000
0000
,
3020
0000
0000
0000
,
0230
0000
0000
0000
,
0302
0000
0000
0003
,
0002
0000
0000
0000
,
0023
0000
0000
0000
,
0130
0000
0000
0000
,
0000
1001
0000
0000
1000
0000
0010
0000
,
1000
0100
0010
0001
,
0100
0000
0001
1000
0000
0000
1000
0000
,
0001
0100
0001
0010
,
0100
0000
1000
0001
0000
0000
0001
0000
,
1000
0100
1000
0010
,
0100
0000
0001
1000
0000
0000
1000
0000
,
0001
0000
0010
0000
0001
0000
0100
0010
,
0000
0010
0100
0000
1001
0000
1000
0000
,
0100
0001
0100
1000
,
0010
0000
0100
0001
0000
0000
0001
0000
,
0010
1000
0010
0001
,
0100
0000
0001
1000
0000
0000
1000
0000
,
0010
0001
0010
1000
,
0100
0010
0020
0000
,
0000
0000
0130
0000
,
0000
0000
0002
0000
,
0000
0000
0203
0000
,
0000
0000
0320
0000
,
0000
0000
2030
0000
,
0000
3000
2000
0000
,
0000
0000
3200
0000
,
0000
0000
0310
0000
,
0000
0000
0010
0000
,
0000
0000
0000
0000
0001
0100
0000
0000
,
0100
1000
0000
0000
1000
0010
0000
0000
,
0010
0001
0000
0000
1000
0100
0000
0000
,
0100
0001
0000
0000
0001
0010
0000
0000
,
0010
1000
0000
0000
1001
0000
0001
0000
,
0010
0000
0011
0000
0000
0010
0000
0100
,
0000
0110
0000
0000
0000
0000
0100
0000
,
1000
0000
0100
0000
1000
0001
0000
1000
,
0001
0000
0100
0000
0000
0100
0001
0000
,
0010
1000
0010
0001
,
0000
1000
0001
1000
,
0100
0001
0100
1000
,
0000
0000
0000
0001
0001
0001
1000
0000
,
0010
0000
1010
0000
0000
0010
0000
0100
,
0000
0110
0000
0000
0000
0000
0100
0000
,
0001
1000
0000
0000
0000
1000
0000
0001
,
0010
0001
1000
0000
0000
1000
0001
0000
,
0100
1000
0100
0001
,
0000
1000
0001
1000
,
0010
0001
0010
1000
,
0000
0001
0000
0020
,
0000
0000
0000
0000
,
0000
0030
1001
0000
;

//---------------dance-single - Spork!----------------
#NOTEDATA:;
#CHARTNAME:Expert;
#STEPSTYPE:dance-single;
#DESCRIPTION:Spork!;
#CHARTSTYLE:;
#DIFFICULTY:Challenge;
#METER:17;
#RADARVALUES:0.692781,0.849133,0.076220,0.209604,0.714558,509.000000,501.000000,8.000000,22.000000,6.000000,0.000000,1.000000,0.000000,0.000000,0.692781,0.849133,0.076220,0.209604,0.714558,509.000000,501.000000,8.000000,22.000000,6.000000,0.000000,1.000000,0.000000,0.000000;
#CREDIT:A. King;
#DISPLAYBPM:72.000000:144.000000;
#NOTES:
0000
0000
0000
0000
,
0000
0000
0000
0000
,
0000
0000
0000
0000
,
0000
0000
0000
0000
0000
0000
0000
0001
,
0002
0010
1000
0100
,
0203
0001
1000
0010
,
0320
0100
0001
1000
,
2030
0100
0010
3001
,
2000
0010
0001
0100
,
3200
1000
0001
0010
,
0310
0001
0100
0001
1000
0010
1000
0100
,
0040
0030
1001
0000
0000
0000
0000
0000
0001
0000
0010
0001
0100
0000
0010
0000
,
1000
0000
0100
1000
0010
0000
1000
0000
0001
0000
0100
0001
1000
0000
0001
0000
,
0010
0000
0000
0000
0100
0000
0000
0000
1000
0000
0010
0M00
0010
0000
0001
0000
1000
0000
0000
0000
0100
0000
1000
0000
0010
0000
0000
0000
0100
0000
0000
0000
,
0001
0000
0010
0001
0100
0000
0001
0000
1000
0000
0010
1000
0001
0000
1000
0000
,
0100
0000
0000
0000
0010
0000
0000
0000
0001
0000
0100
00M0
0100
0000
1000
0000
0001
0000
0000
0000
0100
0000
0001
0000
0010
0000
0000
0000
0100
0000
0000
0000
,
1000
0000
0010
1000
0100
0000
1000
0000
0001
0000
0100
0001
1000
0000
0001
0000
,
0100
0000
0000
0000
0010
0000
0000
0000
1000
0000
0100
00M0
0100
0000
0001
0000
1000
0000
0000
0000
0010
0000
1000
0000
0100
0000
0000
0000
0010
0000
0000
0000
,
0001
0000
0100
0001
0010
0000
0001
0000
1000
0000
0010
1000
0001
0000
1000
0000
,
0100
0000
1000
0000
0001
0000
0000
0000
1001
0000
1000
0100
1000
0100
1000
0100
,
0010
0001
0010
0001
0010
0001
0010
0001
0100
0010
0100
0010
0100
0010
0100
0010
,
1000
0000
0000
0000
0001
0000
0000
0000
0001
0000
0010
0M00
0010
0000
1000
0000
0001
0000
0010
0000
0001
0000
0010
0000
0001
0000
0010
0000
0001
0000
0010
0000
,
0100
1000
0100
1000
0100
1000
0100
1000
0010
0100
0010
0100
0010
0100
0010
0100
,
0001
0000
0000
0000
1000
0000
0000
0000
1000
0000
0010
0M00
0010
0000
0001
0000
1000
0000
0010
0000
1000
0000
0010
0000
1000
0000
0010
0000
1000
0000
0010
0000
,
0100
0001
0100
0001
0100
0001
0100
0001
0010
0100
0010
0100
0010
0100
0010
0100
,
1000
0000
0000
0000
0001
0000
0000
0000
0001
0000
0100
00M0
0100
0000
1000
0000
0001
0000
0000
0000
0010
0000
0000
0000
0001
0000
0000
0000
0100
0000
0000
0000
,
0010
0000
1000
0000
0100
0000
0010
0000
1001
0000
1000
0001
0100
0001
0010
0100
,
1000
0010
1000
0100
0010
0001
0100
0001
2000
0000
0000
0000
0010
0000
0000
0000
,
0001
0100
3200
1000
,
0001
0010
0320
0100
,
1000
0001
0032
0100
,
0010
1003
0002
0010
,
1000
0100
0203
0001
,
1000
0000
0010
0000
0310
1000
0001
1000
,
0100
0010
0001
1000
0010
0010
1000
1000
,
0100
0000
0000
0000
0100
0000
0000
0000
0010
0000
0000
0000
0010
0000
0000
0000
0001
0000
0100
0000
0001
0000
1000
0000
0010
0000
0100
0000
0000
0001
0000
0000
,
0100
0000
0001
0000
0100
0000
0000
0000
0100
0000
0010
0000
0000
1000
0000
0000
0010
0000
1000
0000
0010
0000
0000
0000
0010
0000
1000
0000
0000
0001
0000
0000
,
1000
0000
0001
0000
1000
0000
0000
0000
1000
0000
0001
0000
0000
1000
0000
0000
0001
0000
1000
0000
0100
0000
0000
0000
0100
0000
0010
0000
0000
0001
0000
0000
,
0010
0000
0001
0000
0100
0000
0000
0000
0100
0000
0010
0000
0000
1000
0000
0000
0010
0000
1000
0000
0001
0000
0000
0000
0001
0000
1000
0000
0000
1000
0100
0000
,
1000
0000
0100
0000
0010
0000
0000
0000
0010
0000
0100
0000
0000
0010
0000
0000
2002
0000
3003
0000
0000
0000
0000
0000
0001
0000
0010
0000
0100
0000
1000
0000
,
0001
0010
0100
1000
0020
0000
1000
0000
0130
0000
0100
0001
1000
0100
0010
0001
,
1000
0100
0010
0001
2000
0000
0001
0000
3100
0000
0100
1000
0001
0100
0010
1000
,
0100
0010
0001
0100
0010
1000
0100
0010
0001
0010
0100
1000
0010
0100
0001
0010
,
0100
1000
0010
0100
0001
0000
0010
0000
0110
0000
0010
0000
0001
0000
0010
0001
,
0100
0000
0001
0100
0010
0000
1000
0000
0100
0000
0002
0000
0000
0000
0103
0000
,
1000
0000
0010
0000
1000
0000
0001
0000
0100
0000
0010
0000
1000
0000
0100
1000
,
0010
0000
1000
0010
0100
0000
0001
0000
0010
0000
2000
0000
0000
0000
3010
0000
,
0001
0000
0100
0000
0010
0000
0010
0100
0010
0100
0010
0000
1000
0100
0010
0001
,
1000
0100
0010
0001
0200
0000
0001
0000
0310
0000
0010
1000
0001
0010
0100
1000
,
0001
0010
0100
1000
0002
0000
1000
0000
0013
0000
0010
0001
1000
0010
0100
0001
,
0010
0100
1000
0010
0100
0000
0100
0001
1000
0000
1000
0100
0010
0001
0100
0010
,
1000
0100
1000
0001
0010
0000
0100
0000
0110
0000
0100
0000
1000
0000
0010
1000
,
0100
0000
1000
0100
0010
0000
0001
0000
0100
0000
2000
0000
0000
0000
3100
0000
,
0001
0000
0010
0000
0001
0000
1000
0000
0100
0000
0010
0000
0001
0000
0100
0001
,
0010
0000
0001
0010
0100
0000
1000
0000
0010
0000
0000
0000
0002
0000
0000
0000
,
0000
0000
0003
0000
0110
0000
0100
0001
,
0010
0001
1000
0100
0010
0100
1000
0000
,
1000
0001
0000
0000
1001
0000
0000
0000
;

//---------------dance-single - Spork!----------------
#NOTEDATA:;
#CHARTNAME:Heavy;
#STEPSTYPE:dance-single;
#DESCRIPTION:Spork!;
#CHARTSTYLE:;
#DIFFICULTY:Hard;
#METER:12;
#RADARVALUES:0.398791,0.493045,0.142912,0.209604,0.090511,293.000000,278.000000,15.000000,22.000000,0.000000,0.000000,0.000000,0.000000,0.000000,0.398791,0.493045,0.142912,0.209604,0.090511,293.000000,278.000000,15.000000,22.000000,0.000000,0.000000,0.000000,0.000000,0.000000;
#CREDIT:A. King;
#DISPLAYBPM:72.000000:144.000000;
#NOTES:
0000
0000
0000
0000
,
0000
0000
0000
0000
,
0000
0000
0000
0000
,
0000
0000
0000
0000
0000
0000
0000
1000
,
2000
0000
0001
0000
,
3200
0000
1000
0000
,
0320
0000
0100
0000
,
0032
0000
1000
0003
,
0002
0000
1000
0000
,
0203
0000
0001
0000
,
0310
0000
0000
0000
,
0200
0300
1001
0000
0000
0000
0000
0000
0001
0000
0100
0000
0001
0000
0000
0000
,
0100
1000
0100
0000
1000
0010
1000
0000
,
0010
0000
0010
0001
1000
0100
1000
0000
,
0100
0001
0100
0000
0001
0010
0001
0000
,
0010
0000
0010
1000
0001
0010
0001
0000
,
0010
1000
0010
0000
1000
0100
1000
0000
,
0100
0000
0100
0001
1000
0010
1000
0000
,
0010
0001
0010
0000
0001
0000
0100
0001
,
0000
0100
1000
0000
0001
0100
0001
0100
,
1000
0100
1000
0100
0001
0100
1000
0001
,
0010
1000
0001
0001
1000
0100
1000
0100
,
0001
0100
0001
0100
1000
0100
0001
1000
,
0010
0001
1000
1000
0001
0010
0001
0010
,
1000
0010
1000
0010
0001
0010
1000
0001
,
0100
1000
0010
0100
0001
0000
0100
0000
,
0010
0000
0000
0000
1000
0000
0001
1000
0001
0000
0000
0000
0000
0000
0000
0000
,
0000
0000
0002
0100
,
1000
0010
0023
0100
,
0001
0100
0230
1000
,
0010
1000
2300
0100
,
0001
3010
2000
0100
,
0001
0010
3020
0100
,
1000
0100
0130
0000
,
0000
0000
0100
0000
,
0000
0000
0000
0000
0000
0000
0000
0000
0001
0100
0002
0000
0000
0000
0000
0000
,
0103
0010
0200
0000
0000
0000
0000
0000
0310
1000
0020
0000
0000
0000
0000
0000
,
1030
0001
1000
0000
0000
0000
0000
0000
1000
0010
2000
0000
0000
0000
0000
0000
,
3100
0010
0200
0000
0000
0000
0000
0000
0310
0001
0020
0000
0000
0000
0000
0000
,
0031
1000
0001
0000
0000
0000
0000
0000
1001
0000
0000
0000
1000
0000
0000
0000
,
0010
0000
1010
0000
1000
0100
0000
0010
,
0000
0110
0000
0100
1000
0010
0210
0000
,
0301
0000
0120
0000
1030
0000
0001
0010
,
1000
0000
0010
0000
0001
0000
0000
0000
0010
0000
0001
0000
0100
0000
0000
0100
,
0010
0000
0000
0010
1000
0000
0010
0000
1000
0000
0001
0000
0000
0000
0100
0000
,
0001
0000
0010
0000
0100
0000
1000
0000
0010
0000
1000
0000
0100
0000
0000
0100
,
0010
0000
0000
0010
0001
0000
0010
0000
0001
0000
1000
0000
0000
0000
1000
0000
,
0010
0000
0100
0000
0001
0000
1000
0001
1000
0001
1000
0000
0001
0000
0000
0000
,
0010
0000
0110
0000
0010
0001
0000
0100
,
0000
0110
0000
0100
0001
0010
0110
0000
,
0010
1001
0000
0100
0000
1010
0000
0101
,
1100
0000
0000
0000
1001
0000
0000
0000
0100
0000
1000
0000
0010
0000
0000
0010
,
0100
0000
0000
0100
0001
0000
0100
0000
0001
0000
1000
0000
0000
0000
1000
0000
,
0010
0000
0100
0000
0001
0000
0010
0000
0001
0000
1000
0000
0100
0000
0000
0100
,
1000
0000
0000
1000
0001
0000
1000
0000
0010
0000
0000
0000
0200
0000
0000
0000
,
0000
0000
0000
0000
0310
0000
0100
0001
,
0010
0001
1000
0100
0010
0100
1000
0000
,
1000
0001
0000
0000
1001
0000
0000
0000
;

//---------------dance-double - Spork!----------------
#NOTEDATA:;
#CHARTNAME:Standard;
#STEPSTYPE:dance-double;
#DESCRIPTION:Spork!;
#CHARTSTYLE:;
#DIFFICULTY:Medium;
#METER:6;
#RADARVALUES:0.206882,0.301305,0.066692,0.161966,0.000000,152.000000,145.000000,7.000000,17.000000,0.000000,0.000000,0.000000,0.000000,0.000000,0.206882,0.301305,0.066692,0.161966,0.000000,152.000000,145.000000,7.000000,17.000000,0.000000,0.000000,0.000000,0.000000,0.000000;
#CREDIT:A. King;
#DISPLAYBPM:72.000000:144.000000;
#NOTES:
00000000
00000000
00000000
00000000
,
00000000
00000000
00000000
00000000
,
00000000
00000000
00000000
00000000
,
00000000
00000000
00000000
00000000
,
00002000
00000000
00000000
00000000
,
00003200
00000000
00000000
00000000
,
00000320
00000000
00000000
00000000
,
00000032
00000000
00000000
00000003
,
00000002
00000000
00000000
00000000
,
00000203
00000000
00000000
00000000
,
00000310
00000000
00000000
00000000
,
00002002
00003003
00000000
00000000
00000000
00000000
00001000
00000000
,
00000010
00010000
00001000
00100000
,
01000000
00000000
01000000
10000000
00000000
00000000
00010000
00000000
,
01000000
00001000
00010000
00000010
,
00001000
00000000
00001000
00000001
00000000
00000000
00001000
00000000
,
00000100
00010000
00001000
01000000
,
00010000
00000000
00010000
10000000
00000000
00000000
00010000
00000000
,
00100000
00000000
00001000
00000000
00010000
00000000
00000010
00010000
,
00000000
00010000
00001000
00000000
00011000
00000000
00001000
00000000
,
00100000
01000000
10000000
01000000
,
00100000
00001000
00011000
00010000
,
00000010
00000100
00000001
00000100
,
00000010
00010000
00011000
00001000
,
01000000
00100000
10000000
00100000
,
01000000
00001000
00022000
00000000
,
00000000
00000000
00033000
00000000
,
00000000
00000000
00020000
00000000
,
00000000
00000000
00230000
00000000
,
00000000
00000000
02300000
00000000
,
00000000
00000000
23000000
00000000
,
00000000
30000000
20000000
00000000
,
00000000
00000000
32000000
00000000
,
00000000
00000000
03100000
00000000
,
00000000
00000000
00100000
00000000
,
00000000
00000000
00000000
00000000
00001000
01000000
00000000
00000000
,
00010000
10000000
00000000
00000000
00010000
00100000
00000000
00000000
,
00001000
00010000
00000000
00000000
00010000
00000010
00000000
00000000
,
00001000
00000001
00000000
00000000
00001000
00000100
00000000
00000000
,
00010000
00001000
00000000
00000000
00001001
00000000
00000001
00000000
,
00000010
00001000
00000000
00010000
,
00100000
10000000
00000000
00010000
,
00010000
10000000
10000000
01000000
,
00100000
00001000
00000000
00010000
,
00000010
00000001
00000010
00010000
,
00000000
00001000
00010000
00001000
,
00100000
10000000
00100000
00001000
,
00000000
00000000
00000000
00010000
00010000
00010000
10000000
00000000
,
01000000
00010000
00000000
00001000
,
00000100
00000001
00000000
00001000
,
00001000
00000000
00000001
00000000
00000000
00000100
00000000
00000100
,
00000010
00010000
00000000
00001000
,
01000000
10000000
01000000
00001000
,
00000000
00010000
00001000
00010000
,
00000100
00000001
00000100
00010000
,
00000000
00000000
00000000
00000020
,
00000000
00000000
00000000
00000000
,
00000000
00000030
00001001
00000000
;

//---------------dance-double - Spork!----------------
#NOTEDATA:;
#CHARTNAME:Heavy;
#STEPSTYPE:dance-double;
#DESCRIPTION:Spork!;
#CHARTSTYLE:;
#DIFFICULTY:Hard;
#METER:13;
#RADARVALUES:0.485899,0.520436,0.276296,0.190549,0.171494,357.000000,328.000000,29.000000,20.000000,0.000000,0.000000,0.000000,0.000000,0.000000,0.485899,0.520436,0.276296,0.190549,0.171494,357.000000,328.000000,29.000000,20.000000,0.000000,0.000000,0.000000,0.000000,0.000000;
#CREDIT:A. King;
#DISPLAYBPM:72.000000:144.000000;
#NOTES:
00000000
00000000
00000000
00000000
,
00000000
00000000
00000000
00000000
,
00000000
00000000
00000000
00000000
,
00000000
00000000
00000000
00000000
00000000
00000000
00000000
00010000
,
00002000
00010000
10000000
01000000
,
02003000
00100000
00010000
00001000
,
03000200
00010000
00001000
00010000
,
00200300
00010000
00001000
00301000
,
00020000
00001000
00000001
00000010
,
00030020
00000100
00001000
00010000
,
00200030
00000000
00000000
00000000
,
02000000
03300000
10010000
00000000
00000000
00000000
00000000
00000000
00010000
00000000
00100000
00000000
01000000
00000000
00100000
00000000
,
00010000
00100000
01000000
10000000
01000000
00100000
00010000
01000000
,
00001000
00010000
00000010
00000010
00001000
00000100
00000010
00000100
,
00001000
00000100
00000010
00000001
00000010
00000100
00001000
00000010
,
00010000
00001000
00100000
00100000
00010000
01000000
00100000
01000000
,
00010000
01000000
00100000
10000000
00100000
01000000
00010000
00100000
,
00001000
00010000
00000100
00000100
00001000
00000010
00000100
00000010
,
00001000
00000010
00000100
00000001
00001000
00000000
00001000
00000100
,
00000000
00000000
00000100
00000000
00000010
00000000
00000000
00000000
00000001
00000000
00000010
00000001
00000010
00000000
00000001
00000000
,
00000100
00001000
00010000
01000000
10000000
01000000
00010000
00001000
,
00010000
00000000
00100000
00000000
10000000
00000000
00010000
00000000
10000000
00000000
01000000
10000000
01000000
00000000
10000000
00000000
,
00100000
00010000
00001000
00000010
00000001
00000010
00001000
00010000
,
00001000
00000000
00000100
00000000
00000001
00000000
00001000
00000000
00000001
00000000
00000100
00000001
00000100
00000000
00000001
00000000
,
00000010
00001000
00010000
00100000
10000000
00100000
00010000
00001000
,
00010000
01000000
00010000
00001000
00022000
00000000
00000000
00000000
,
00000000
00000000
00033000
00000000
,
00000000
00000000
00000000
00000000
00000000
00000000
00000000
00000000
00001000
00000000
00000000
00001000
01000000
00000000
00000000
01000000
,
00010000
00000000
00000000
00010000
10000000
00000000
00000000
10000000
00100000
00000000
00000000
00100000
00001000
00000000
00000000
00001000
,
00000010
00000000
00000000
00000010
00010000
00000000
00001000
00000000
00010000
00000000
00000000
00010000
00000100
00000000
00000000
00000100
,
00001000
00000000
00000000
00001000
00000001
00000000
00000000
00000001
00000010
00000000
00000000
00000010
00010000
00000000
00000000
00010000
,
00100000
00000000
00000000
00100000
00001000
00000000
00010000
00000000
00001000
00000000
00000000
00001000
00100000
00000000
00000000
00100000
,
00010000
00000000
00000000
00010000
10000000
00000000
00000000
10000000
01000000
00000000
00000000
01000000
00001000
00000000
00000000
00001000
,
00000100
00000000
00000000
00000100
00010000
00000000
00001000
00000000
00010000
00000000
00000010
00000000
00010000
00000000
00010000
00000000
,
00001000
01000000
00001000
00001000
00010000
00000100
00001000
00000001
,
00000100
00000000
00000000
00000000
00000010
00000000
00000000
00000000
00010000
00001000
01000000
00020000
00000000
00000000
00030000
00000000
,
00100000
00010000
20000000
00000000
00000000
00000000
30000000
00000000
01000000
10000000
00200000
00000000
00000000
00000000
00300000
00000000
,
01000000
00001000
00020000
00000000
00000000
00000000
00030000
00000000
00010000
00000100
00002000
00000000
00000000
00000000
00003000
00000000
,
00000010
00001000
00000002
00000000
00000000
00000000
00000003
00000000
00000100
00000001
00000020
00000000
00000000
00000000
00000030
00000100
,
00001000
00000010
00000200
00000000
00000000
00000000
00000000
00000000
00000020
00000330
00000000
00000000
00001001
00000000
00000000
00000000
,
00011000
00000000
10010000
00000000
00000000
01100000
00000000
00011000
,
00000000
00000110
00000000
00000000
00001000
00000000
00000101
00000000
,
00011000
00000011
00011000
10100000
,
00011000
00000000
11000000
00000000
00010000
10000000
00100000
01000000
,
00010000
01000000
00100000
10000000
01000000
00010000
00000000
00010000
,
00001000
00000000
00010000
00000010
00001000
00000001
00000100
00000010
,
00001000
00000010
00000100
00000001
00000010
00001000
00010000
00000000
,
00001000
00000000
00000000
00000000
01000000
00000000
00010000
10000000
00010000
10000000
00010000
00000000
10010000
00000000
00000000
00000000
,
00011000
00000000
00001001
00000000
00000000
00000110
00000000
00011000
,
00000000
01100000
00000000
00000000
00010000
00000000
11000000
00000000
,
00011000
00000000
10100000
00000000
00000000
00011000
00000000
00000011
,
00000110
00000000
00001001
00000000
00001000
00000001
00000010
00000100
,
00001000
00000100
00000010
00000001
00000100
00001000
00010000
00000000
,
00001000
00010000
00001000
01000000
00010000
10000000
01000000
00100000
,
00010000
00100000
01000000
10000000
00100000
00010000
00002000
00000000
,
00000000
00000000
00000000
00000000
00003000
00000000
00100000
01000000
,
10000000
00100000
00010000
00001000
00000010
00000001
00000100
00000000
,
00000100
00000010
00000000
00000000
00001001
00000000
00000000
00000000
;

//---------------dance-double - Spork!----------------
#NOTEDATA:;
#CHARTNAME:Expert;
#STEPSTYPE:dance-double;
#DESCRIPTION:Spork!;
#CHARTSTYLE:;
#DIFFICULTY:Challenge;
#METER:15;
#RADARVALUES:0.509037,0.630002,0.104802,0.161966,0.233422,374.000000,363.000000,11.000000,17.000000,24.000000,0.000000,1.000000,0.000000,0.000000,0.509037,0.630002,0.104802,0.161966,0.233422,374.000000,363.000000,11.000000,17.000000,24.000000,0.000000,1.000000,0.000000,0.000000;
#CREDIT:A. King;
#DISPLAYBPM:72.000000:144.000000;
#NOTES:
// measure 0
00000000
00000000
00000000
00000000
,  // measure 1
00000000
00000000
00000000
00000000
,  // measure 2
00000000
00000000
00000000
00000000
,  // measure 3
00000000
00000000
00000000
00000000
00000000
00000000
00000000
00010000
,  // measure 4
20000000
01000000
00010000
00100000
,  // measure 5
30200000
10000000
01000000
00010000
,  // measure 6
00320000
00001000
00000010
00000100
,  // measure 7
00030200
00010000
00001000
00000310
,  // measure 8
00000002
00000010
00001000
00000100
,  // measure 9
00000203
00000001
00000010
00001000
,  // measure 10
00002300
00000000
00000000
00000000
,  // measure 11
04000000
03003000
10010000
00000000
00000000
00000000
00000000
00000000
00001000
00000000
00010000
00000000
01000000
00000000
10000000
00000000
,  // measure 12
00100000
00010000
00001000
00000010
00000001
00000100
00001000
00000100
,  // measure 13
00000001
00000010
00001000
00011000
00010000
00001000
00000100
00000001
,  // measure 14
00000010
00001000
00010000
00100000
10000000
01000000
00010000
01000000
,  // measure 15
10000000
00100000
00010000
00011000
00001000
00010000
00100000
10000000
,  // measure 16
01000000
00010000
00001000
00000100
00000001
00000010
00001000
00000010
,  // measure 17
00000001
00000100
00001000
00011000
00010000
00001000
00000010
00000001
,  // measure 18
00000100
00001000
00010000
01000000
10000000
00000000
10000000
00100000
,  // measure 19
00000000
00000000
00100000
00000000
01000000
00000000
00000000
00000000
00010000
00100000
01000000
10000000
00010000
00000000
01000000
00000000
,  // measure 20
00001000
00000000
00010000
00000000
00000010
00000000
00001000
00000000
00000001
00000010
00000100
00001000
00000001
00000000
00000100
00000000
,  // measure 21
00000010
00000000
00010000
00000000
00000010
00000000
00001010
00000000
00001000
00000100
00000010
00000001
00001000
00000000
00000010
00000000
,  // measure 22
00010000
00000000
00001000
00000000
01000000
00000000
00010000
00000000
10000000
01000000
00100000
00010000
10000000
00000000
00100000
00000000
,  // measure 23
01000000
00000000
00001000
00000000
01000000
00000000
01010000
00000000
00010000
01000000
00100000
10000000
00010000
00000000
00100000
00000000
,  // measure 24
00001000
00000000
00010000
00000000
00000100
00000000
00000010
00000000
00000001
00000100
00000010
00001000
00000001
00000000
00000010
00000000
,  // measure 25
00000100
00000000
00010000
00000000
00000100
00000000
00000010
00000000
00000001
00000000
00000000
00000001
00001000
00000000
00000000
00001000
,  // measure 26
00000010
00000000
00000000
00000010
00010000
00000000
00000100
00000000
00021000
00000000
00000000
00000000
00000000
00000000
00000000
00000000
,  // measure 27
00000000
00000000
00030002
00000010
,  // measure 28
00001000
00000100
00000203
00000001
,  // measure 29
00000010
00001000
00002300
00010000
,  // measure 30
01000000
00100000
00203000
00001000
,  // measure 31
00010000
01300000
20000000
01000000
,  // measure 32
00010000
00100000
30200000
10000000
,  // measure 33
01000000
00000000
00010000
00000000
00310000
00001000
00010000
00000010
,  // measure 34
00001000
00000100
00000010
00000010
00001000
00010000
00001000
00100000
,  // measure 35
00010000
00000000
00000000
00000000
01000000
00000000
00000000
00000000
00100000
00000000
00000000
00000000
00100000
00000000
00000000
00000000
10000000
00000000
01000000
00000000
00010000
00000000
00000000
00000000
0000000M
00000000
00000M00
00000000
00000000
0000M000
00000000
00000000
,  // measure 36
01000000
00000000
00010000
00000000
00001000
00000000
00000000
00000000
M0000000
00000000
00M00000
00000000
00000000
0M000000
00000000
00000000
00010000
00000000
00001000
00000000
00000100
00000000
00000000
00000000
0000000M
00000000
0000M000
00000000
00000000
000000M0
00000000
00000000
,  // measure 37
00001000
00000000
00000100
00000000
00000001
00000000
00000000
00000000
000M0000
00000000
0000M000
00000000
00000000
000M0000
00000000
00000000
00000001
00000000
00000010
00000000
00001000
00000000
00000000
00000000
M0000000
00000000
00M00000
00000000
00000000
000M0000
00000000
00000000
,  // measure 38
00000010
00000000
00001000
00000000
00010000
00000000
00000000
00000000
0000000M
00000000
00000M00
00000000
00000000
000000M0
00000000
00000000
00001000
00000000
00010000
00000000
00100000
00000000
00000000
00000000
M0000000
00000000
000M0000
00000000
00000000
0M000000
00000000
00000000
,  // measure 39
00010000
00000000
00100000
00000000
10000000
00000000
00000000
00000000
0000M000
00000000
000M0000
00000000
00000000
0000M000
00000000
00000000
20020000
00000000
30030000
00000000
00000000
00000000
00000000
00000000
10000000
00000000
00000000
00000000
00001000
00000000
00000000
00000000
,  // measure 40
00010000
00000001
00000100
00000010
00000010
00000100
00000001
00010000
,  // measure 41
00001000
10000000
01000000
00100000
00100000
00010000
01000000
00000010
,  // measure 42
00100000
00000100
00001000
00000001
00010000
00001000
10000000
00100000
,  // measure 43
00010000
00000000
00001000
00000000
00000010
00000000
00000001
00000000
00000110
00000000
00001000
00000000
00000001
00000000
00000100
00000001
,  // measure 44
00000010
00000000
00000100
00001000
00000010
00000000
00000100
00000000
00000001
00000000
00001000
00000000
00000000
00000000
00001000
00000000
,  // measure 45
00000010
00000000
00000100
00000000
00001000
00000000
00010000
00000000
01000000
00000000
00100000
00000000
00010000
00000000
01000000
00010000
,  // measure 46
00100000
00000000
01000000
10000000
00100000
00000000
01000000
00000000
00001000
00000000
00010000
00000000
00000000
00000000
00010000
00000000
,  // measure 47
00000100
00000000
00000010
00000000
00000001
00000000
00001000
00000001
00001000
00000001
00001000
00000000
00000001
00000000
00010000
00000000
,  // measure 48
00001000
10000000
00100000
01000000
01000000
00100000
10000000
00001000
,  // measure 49
00010000
00000001
00000010
00000100
00000100
00001000
00000010
01000000
,  // measure 50
00000100
00100000
00010000
10000000
00001000
00010000
00000001
00000010
,  // measure 51
00001000
00000000
00010000
00000000
00100000
00000000
10000000
00000000
01100000
00000000
00010000
00000000
10000000
00000000
01000000
10000000
,  // measure 52
00100000
00000000
01000000
00010000
00100000
00000000
01000000
00000000
10000000
00000000
00010000
00000000
00000000
00000000
00010000
00000000
,  // measure 53
00100000
00000000
01000000
00000000
00010000
00000000
00001000
00000000
00000100
00000000
00000010
00000000
00001000
00000000
00000100
00001000
,  // measure 54
00000010
00000000
00000100
00000001
00000010
00000000
00000001
00000000
00001000
00000000
00000000
00000000
00000002
00000000
00000000
00000000
,  // measure 55
00000000
00000000
00000000
00000000
00001003
00000000
00000100
00000010
,  // measure 56
00000001
00000100
00001000
00010000
01000000
10000000
00100000
00000000
,  // measure 57
00100000
01000000
00000000
00000000
10010000
00000000
00000000
00000000
;
