#TITLE:Liubi, Liubi, I Love You;
#SUBTITLE:;
#ARTIST:Todomondo;
#TITLETRANSLIT:;
#SUBTITLETRANSLIT:;
#ARTISTTRANSLIT:;
#CREDIT:;
#BANNER:Liubi Liubi I Love You.png;
#BACKGROUND:Liubi Liubi I Love You-bg.PNG;
#LYRICSPATH:;
#CDTITLE:;
#MUSIC:Liubi Liubi I Love You.mp3;
#OFFSET:-0.020;
#SAMPLESTART:144.280;
#SAMPLELENGTH:13.120;
#SELECTABLE:YES;
#DISPLAYBPM:90.000:140.000;
#BPMS:0.000=90.200,16.000=90.000,32.000=95.000,64.000=100.000,96.000=105.000,128.000=110.000,160.000=115.000,192.000=120.000,224.000=125.000,240.000=130.000,256.000=135.000,272.000=140.000,286.000=190.000;
#STOPS:;
#BGCHANGES:-0.500=Liubi Liubi I Love You.avi=1.000=1=1=0,
356.000=Liubi Liubi I Love You-bg.PNG=1.000=1=0=1,
99999=-nosongbg-=1.000=0=0=0 // don't automatically add -songbackground-
;

//---------------dance-double - ----------------
#NOTES:
     dance-double:
     :
     Hard:
     13:
     0.615,0.617,0.306,0.195,0.322: // measure 1
00000000
00000000
00000000
00000000
,  // measure 2
00000000
00000000
00000000
00000000
,  // measure 3
00000000
00000000
00000000
00000000
,  // measure 4
00000000
00000000
00000000
00000000
,  // measure 5
00001000
00000000
00000000
00000000
00000000
00000000
00100000
00000000
00000000
00001000
00000000
00000000
00000000
00000000
00000000
00000000
00010000
00000000
00000000
00000000
00000100
00000000
00000000
00000000
00001000
00000000
00000000
00000000
00000000
00000000
00000010
00000000
00000000
00002000
00000000
00000000
00000000
00000000
00000000
00000000
00000000
00000000
00003100
00000000
00000000
00010000
00000000
00000000
,  // measure 6
00001000
00000000
00000000
00010000
00000000
00000000
00001000
00000000
00000000
00100000
00000000
00000000
00000000
00000000
00000000
00000000
01000000
00000000
00000000
00000000
00100000
00000000
00000000
00000000
00001000
00000000
00010000
00000000
00001000
00000000
00020000
00000000
00000000
00000000
00000000
00000000
00000000
00000000
00000000
00000000
00000000
00000000
00031000
00000000
00000000
00010000
00000000
00000000
,  // measure 7
00001000
00100000
00001000
01000000
00020000
00000000
00000000
00000000
02030000
00000000
00000000
00000000
03001000
00000000
00100000
00000000
,  // measure 8
01000000
00000000
00100000
00000000
00001000
00000000
00010000
00000000
00000010
00000000
00000100
00000000
00002000
00000000
00000000
00020000
00000000
00000000
00033000
00000000
00000000
00000000
00000000
00000000
,  // measure 9
00100000
00000000
00001000
00000000
00010000
00000000
00000000
00001000
00100000
00000000
00001000
00000000
00010000
00000000
00000000
00000000
,  // measure 10
00000010
00000000
00001000
00000000
00000100
00000000
00000000
00001000
00000010
00000000
00001000
00000000
M000110M
00000000
00000000
00000000
,  // measure 11
00010000
00000000
00001000
00000000
00100000
00000000
01000000
00100000
00001000
00000000
00010000
00000000
00000100
00000000
00000000
00000000
,  // measure 12
00010000
00000000
00000100
00000000
00001000
00000000
00000000
00000100
00010000
00000000
00000100
00000000
M001010M
00000000
00000000
00001000
,  // measure 13
00100000
01000000
00010000
00001000
00010000
00000010
00000200
00000000
,  // measure 14
00000310
00010000
00000100
00010000
00002000
00000000
02003000
00000000
,  // measure 15
03100000
01000000
00010000
00100000
00001000
00010000
00000100
00001000
,  // measure 16
00000010
00000010
00010000
00001000
00022000
00000000
M003300M
00000000
,  // measure 17
00100000
00001000
00010000
00000100
00010000
00001000
01000000
00001000
,  // measure 18
00010000
00000100
00000010
00000100
00010000
00001000
01000000
00010000
,  // measure 19
01000000
00010000
01000000
00010000
01000000
00000000
00001000
00000000
00010000
00001000
00010000
00001000
00010000
00000000
00000100
00000000
,  // measure 20
00000010
00000100
00001000
00000100
00000010
00000000
00000100
00000000
00010000
00000000
00001000
00000000
00010000
00001000
00100000
00001000
,  // measure 21
02000000
00000000
00100000
00000000
00001000
00000000
00010000
00000000
03002000
00000000
00100000
00000000
00010000
00000000
01003000
00001000
,  // measure 22
00020000
00000010
00001000
00000100
00030200
00000010
00001300
00000000
,  // measure 23
00000100
00010000
00001000
00010000
00000100
00000000
00001000
00000000
00000010
00000100
00000010
00000000
00010000
00000000
00001000
01000000
,  // measure 24
00100000
00000000
01000000
00000000
00100000
00000000
01000000
00000000
00000000
00000000
00000000
00000000
00010000
00000000
00000000
00000000
00000000
00000000
00100000
00000000
00000000
00000000
00000000
00000000
00110000
00000000
00000000
00000000
00000000
00000000
00001000
00000000
00000000
00010000
00000000
00000000
00001000
00000000
00000000
00000000
00000000
00000000
00000000
00000000
00000000
00000000
00000000
00000000
,  // measure 25
00101000
00000000
00000000
00000010
00001000
00000000
00000010
00000000
00000100
00000000
00000000
00010000
01000000
00000000
00010000
00000000
,  // measure 26
00100000
00000000
00000000
00100000
00001000
00000000
00010000
00000000
00000100
00000000
00001000
00000010
00000100
00000000
00000010
00000000
,  // measure 27
00001000
00000000
00000100
00010000
00000000
00001000
00010000
00000000
00001000
00000000
00100000
00010000
00000000
01000000
00001000
00000000
,  // measure 28
00010000
00000000
00000100
00001000
00000010
00000000
00000100
00000000
00000010
00000000
00010000
00000000
00001000
00010000
00001000
00010000
,  // measure 29
00001000
00000000
00100000
00010000
00100000
00000000
00001000
00000000
00010000
00000000
00000010
00020000
00000000
00000000
00031000
00000000
,  // measure 30
00100000
00000000
00001000
00000010
00000000
00000010
00000100
00000000
00010000
00000000
00001000
00010000
01000000
00010000
00001000
00010000
,  // measure 31
01000000
00000000
00010000
00000000
00000100
00000000
00001000
00000010
00001000
00000000
00000010
00020000
00000000
00000000
00031000
00000000
,  // measure 32
00100000
00010000
01000000
00001000
00022000
00000000
00033000
00000000
,  // measure 33
00010000
00001000
00001010
00000000
00001000
00010000
00110000
00000000
,  // measure 34
00010000
00000100
00001000
00000010
00000100
00000010
00000110
00000000
,  // measure 35
00000010
00000000
00001000
00000000
00010100
00000000
00000000
00001000
00100000
00000000
00010000
00000000
01001000
00000000
00000000
00000000
,  // measure 36
00100000
00010000
00000010
00010000
01000000
00100000
01100000
0MM00000
,  // measure 37
01010000
00000000
00010000
00100000
00010000
00000000
00100000
00000000
00001000
00000000
00000100
00000000
00000010
00000000
00001000
00000000
,  // measure 38
00000100
00010000
00001000
00010000
00011000
00001000
01001000
0M00M000
,  // measure 39
00110000
00000000
00000000
00001000
00010000
00000000
00100000
00000000
01000000
00000000
00010000
00000000
00100000
00000000
01000000
00000000
,  // measure 40
00100000
00001000
00011000
00001100
00000220
00000000
00000330
00000000
,  // measure 41
00000010
00000000
00000100
00000000
00020000
00000000
00000000
00000000
00031000
00000000
00100000
00001000
01000000
00000000
00010000
00000000
,  // measure 42
00100000
00000000
00000000
00000000
00010000
00000000
00000000
00000000
00100000
00000000
00000000
00000000
00001000
00000000
00000000
00000000
00010000
00000000
00000000
00000000
00000100
00000000
00000000
00000000
00001000
00000000
00000000
00000000
00000000
00000000
00000010
00000000
00000000
00001000
00000000
00000000
00000010
00000000
00000000
00000000
00000000
00000000
00000100
00000000
00000000
00000000
00000000
00000000
,  // measure 43
00000120
00000000
00001030
00000100
00020100
00000000
00031000
01000000
,  // measure 44
00010000
00000000
00000000
00000000
00000000
00000000
00100000
00000000
00000000
00010000
00000000
00000000
00100000
00000000
00000000
00001000
00000000
00000000
00010000
00000000
00000000
00000000
00000000
00000000
00001000
00000000
00000000
00000000
00000000
00000000
00000000
00000000
00000000
00001000
00000000
00000000
00100000
00000000
00000000
00000000
00010000
00000000
00000000
00000000
01000000
00000000
00000000
00000000
,  // measure 45
00100000
00000000
01000000
00010000
00000000
01000000
00001000
00000000
00010000
00000000
00001000
00010000
00000100
00000000
00000010
00000100
,  // measure 46
00001000
00000000
00000010
00001000
00000000
00000100
00010000
00000000
00001000
01000000
00100000
00000000
01000000
00000000
00010000
00100000
,  // measure 47
00010000
01000000
00001000
00010000
00100000
00010000
00001000
00000010
,  // measure 48
00000100
00000000
00000000
00000000
00001000
00000000
00000000
00000000
00000100
00000000
00000000
00000000
00010000
00000000
00000000
00000000
00001000
00000000
00000000
00000000
00010000
00000000
00000000
00000000
00022000
00000000
00000000
00000000
00000000
00000000
00000000
00000000
00000000
00000000
00000000
00000000
00033000
00000000
00000000
00000000
00000000
00000000
01000000
00000000
00000000
00010000
00000000
00000000
,  // measure 49
02000000
00000000
00000000
00000000
03010000
00000000
00100000
00001000
00010000
00000000
00001000
00000000
00010000
00000000
00000100
00000000
,  // measure 50
00000010
00000000
00000100
00000000
00010000
00000000
00000010
00000000
00010000
00001000
00000000
00011000
00000000
00000000
00010000
00000000
,  // measure 51
00000010
00001000
01010000
00000000
00100000
00010000
00001100
00000000
,  // measure 52
00100000
00010000
01000000
00001000
00010000
00000010
00001100
00000000
,  // measure 53
00100000
00010000
02000000
00000000
03100000
00010000
00002000
00000000
,  // measure 54
00013000
00000000
00000000
00000010
00000000
00000000
00001000
00000000
00000100
00000000
00001000
00000000
00000010
00000000
00000000
00001000
00000000
00000000
00010200
00000000
00000000
00000000
00000000
00000000
,  // measure 55
00010300
00000000
00001000
00000000
01000000
00000000
00001000
00000000
00010000
00000100
00000000
00001100
00000000
00000000
00001000
00000000
,  // measure 56
00000010
00000000
00000000
00000100
00000000
00000000
00000010
00000000
00000000
00001000
00000000
00000000
00000100
00000000
00000100
00001000
00000000
00001000
00000100
00000000
00000100
00010000
00000000
00010000
,  // measure 57
00001000
00100000
01100000
00000000
00100000
00001000
00001100
00000000
,  // measure 58
00000010
00000000
00000000
00001000
00000000
00000000
00000100
00000000
00000000
00010000
00000000
00000000
00001000
00000000
00100000
00001000
00000000
00100000
00010000
00000000
00100000
00001000
00000000
00100000
,  // measure 59
00010000
00000000
00100000
00000000
01000000
00000000
00100000
00001000
00010000
00000000
00000100
00000000
00001100
00000000
00000000
00000000
,  // measure 60
00010000
00000000
00000000
00000010
00000000
00000000
00001000
00000000
00000000
00000010
00000000
00000000
00000100
00000000
00000010
00001000
00000000
00000010
00010000
00000000
00000010
00001000
00000000
00000010
,  // measure 61
00000100
00000000
00000010
00000000
00010000
00000000
00001000
00100000
00001000
00000000
00010000
00000000
00011000
00000000
00000000
00000000
,  // measure 62
00001000
00000000
00000000
00100000
00000000
00000000
01000000
00000000
00000000
00100000
00000000
00000000
00001000
00000000
00001000
00010000
00000000
00000100
00010000
00000000
00000100
00000010
00000000
00000100
,  // measure 63
00001000
00000000
00000100
00000000
00010100
00000000
00001000
00000000
00100000
00000000
00010000
00000000
01001000
00000000
00100000
00001000
,  // measure 64
00010000
00000100
00000110
00010100
00022000
00000000
00033000
00000000
,  // measure 65
00001000
00000000
00100000
00000000
00010000
00000000
01000000
00001000
01000000
00000000
00001000
00000000
00010000
00000000
00000100
00000000
,  // measure 66
00000010
00000100
00001000
00000100
00010000
00001000
00000100
00000010
,  // measure 67
00010000
00001000
00100000
00010000
00100000
01000000
00100000
00001000
,  // measure 68
00010000
00010000
00000100
00000100
00001000
00000010
00001010
00000000
,  // measure 69
00010000
00000100
00101000
00000000
00001000
01000000
00010100
00000000
,  // measure 70
00001000
01000000
00100000
01000000
00002000
00000000
00013000
00000000
,  // measure 71
00010000
00000000
00000100
00000000
00001100
00000000
00000000
00000000
00010000
00000000
00001000
00000000
00101000
00000000
00010000
00100000
,  // measure 72
00001000
00010000
00000010
00010000
M002200M
00000000
M000000M
00000000
,  // measure 73
M000000M
M003300M
M001100M
M001100M
,  // measure 74
00001000
00100000
01000000
00100000
00001000
00010000
00001000
00000000
,  // measure 75
00010000
00000010
00000100
00000010
00010000
00001000
M001000M
00000000
,  // measure 76
00001000
00010000
00000010
00000100
00001000
00000100
00000010
00010000
,  // measure 77
00000100
00010000
00001000
01000000
00100000
00100000
M100000M
00000000
,  // measure 78
00010000
00100000
00110000
00000000
00000100
00001000
00001100
00000000
,  // measure 79
00000010
00000000
00010000
00000000
00001000
00000000
01000000
00000000
00010000
01000000
00010000
00000000
M101000M
00000000
00000000
00000000
,  // measure 80
00100000
00000000
00001000
00000000
00010000
00000000
00000000
00000000
00010000
00000000
00000010
00000000
00000100
00000000
00000000
00000010
,  // measure 81
00010000
00001000
01000000
00010000
01000000
00000000
M101000M
00000000
,  // measure 82
01000000
00010000
01000000
00001000
00010000
00000100
00000010
00000100
,  // measure 83
00001000
00000010
00000100
00000010
00010000
00001000
M001100M
00000000
,  // measure 84
00001000
00100000
00010000
01000000
00100000
00010000
00100000
01000000
,  // measure 85
00001000
00010000
00001000
00000010
00000100
00010000
M001100M
00000000
,  // measure 86
00001000
00100000
01000000
01000000
00100000
00001000
00010000
00010000
,  // measure 87
00000100
00001000
00000010
00000100
00000010
00010000
M001100M
00000000
,  // measure 88
00001000
00100000
01000000
00100000
00010000
01000000
00001000
00010000
,  // measure 89
00000100
00010100
00000000
01000000
01001000
00000000
M001100M
00000000
;

//---------------dance-double - ----------------
#NOTES:
     dance-double:
     :
     Medium:
     10:
     0.457,0.444,0.211,0.178,0.042:
00000000
00000000
00000000
00000000
,
00000000
00000000
00000000
00000000
,
00000000
00000000
00000000
00000000
,
00000000
00000000
00000000
00000000
,
00100000
00000000
00000000
00001000
00000000
00000000
00100000
00000000
00010000
00000000
00000000
01000000
00000000
00000000
00010000
00000000
,
00100000
00000000
00000000
00001000
00000000
00000000
00010000
00000000
00000200
00000000
00000000
00000000
00000300
00000000
00000010
00000000
,
00000100
00001000
00000100
00010000
00001000
00000000
00010000
00000000
,
00001000
00000000
00100000
00010000
00220000
00330000
00000000
00000000
,
00100000
00100000
00100000
00000000
00001000
00001000
00001000
00000000
,
00010000
00000100
00010000
00000000
00000010
00001000
00000010
00000000
,
00010000
00000100
00001000
00000000
00000100
00010000
00001000
00000000
,
00010000
00001000
00100000
00010000
00100000
00010000
01000000
00000000
,
00100000
01000000
00001000
00000000
00010000
00000100
00000010
00000000
,
00000100
00010000
00001000
00010000
00000020
00000000
00001030
00000000
,
00000100
00010000
00001000
00010000
00001000
01000000
00010000
00000000
,
00100000
01000000
00010000
00002000
00020000
00003000
00030000
00000000
,
00010100
00000000
00001100
00000000
00000010
00001000
00000100
00000000
,
00001000
00000010
00010000
00001000
00010000
00001000
01000000
00000000
,
00110000
00000000
01010000
00000000
00100000
00001000
00010000
00000000
,
00001000
00010000
00000100
00001000
00000100
00010000
00011000
00000000
,
00002000
00010000
00203000
00010000
,
02300000
00100000
03200000
00301000
,
00001000
00010000
00000100
00000000
00001000
00000100
00010000
00000000
,
00000010
00010000
00000100
00010000
00022000
00000000
00033000
00000000
,
01010000
00000000
00000000
01000000
00010000
00000000
00000000
00000000
00101000
00000000
00000000
00100000
00001000
00000000
00000000
00000000
,
00010100
00000000
00000000
00000100
00010000
00000000
00000000
00000000
00001010
00000000
00000000
00000010
00001000
00000000
00000010
00000000
,
00001000
00000000
00000100
00000000
00010000
00000000
00001000
00000000
00100000
00000000
00010000
01000000
00000000
00000000
00010000
00000000
,
00100000
00001000
00010000
00000100
00000010
00000100
00010100
00000000
,
00010000
00001000
01000000
00000000
00100000
01000000
00001000
00000000
,
00010000
00000100
00000010
00000100
00020100
00000000
00031000
00000000
,
00001000
00100000
00010000
00100000
01000000
00100000
01000000
00000000
,
00100000
00001000
00010000
00001000
00022000
00000000
00033000
00000000
,
00000010
00000010
00001010
00000000
00001000
00001000
00001100
00000000
,
00000100
00010000
00001000
00000000
00010000
00001000
01001000
00000000
,
00010000
00010000
00110000
00000000
01000000
01000000
01010000
00000000
,
00100000
00001000
00010000
00000000
00000100
00010000
00011000
00000000
,
00010100
00000000
01001000
00000000
00001000
00100000
00001000
00000000
,
00010000
00000100
00001000
00000010
00000200
00000000
00000310
00000000
,
00001000
00000010
00010000
00000000
00000100
00010000
00001000
00100000
,
00010000
01000000
00001000
00001000
00022000
00000000
00033000
00000000
,
00100000
00000000
00000000
00000000
01010000
00000000
00000000
00000000
00100000
00000000
00000000
01000000
00001000
00000000
00000000
00000000
,
00010000
00001000
00010000
00000010
00000100
00000000
00001010
00000000
,
00000010
00000000
00000000
00000000
00010100
00000000
00000000
00000000
00001000
00000000
00000000
00000100
00010000
00000000
00001000
00000000
,
00100000
00010000
01000000
00000000
00100000
01000000
00001000
00010000
,
01000000
00000000
00000000
01000000
00000000
00000000
00100000
00000000
00001000
00000000
00000000
00001000
00000000
00000000
00010000
00000000
,
00000100
00000000
00000000
00000100
00000000
00000000
00001000
00000000
00000010
00000000
00001000
00000000
00000100
00000000
00001000
00000000
,
00000100
00010000
00001000
01000000
00010000
00000000
00110000
00000000
,
00100000
00001000
00010000
00001000
00020000
00000000
00030000
00000000
,
00020200
00000000
00030300
00000000
00010000
00000100
00010000
00000000
,
00000100
00000000
00001000
00000000
00000010
00000000
00000100
00000000
00000010
00000000
00000000
00001000
00000000
00000000
00000010
00000000
,
00001000
00000100
00010000
00000000
00001000
00100000
00010000
00000000
,
00100000
00010000
01000000
00100000
00010000
00100000
01000000
00000000
,
00001000
00010000
00001000
00000000
00010000
00000100
00000010
00000000
,
00000100
00010000
00001000
00100000
00220000
00000000
00330000
00000000
,
00100000
00000000
00001000
00000000
00010000
00000000
00000100
00000000
00001000
00000000
00000000
00000010
00000000
00000000
00001000
00000000
,
00000100
00000100
00010000
00010000
00022000
00000000
00033000
00000000
,
00000100
00010000
00000100
00001000
00000100
00001000
00000010
00000000
,
00000010
00001000
00000100
00010000
00001000
01000000
00010000
00000000
,
01000000
00010000
00100000
00000000
00100000
00001000
00010000
00000000
,
00000100
00010000
00001000
00100000
00001000
00010000
00001000
00000000
,
00100000
00010000
01000000
00100000
01000000
00001000
00010000
00000000
,
00010000
00000100
00000010
00000100
00002000
00000000
00003100
00000000
,
00001000
00000010
00000100
00000010
00010000
00001000
00010000
00000000
,
00001000
00100000
01000000
00100000
00220000
00000000
00330000
00000000
,
00100000
00010000
01000000
00000000
00100000
01000000
00001000
00000000
,
00010000
00000100
00010000
00000100
00000010
00000100
00001000
00000000
,
00000010
00001000
00000100
00000000
00010000
00001000
01000000
00000000
,
00100000
01000000
00010000
00100000
00001000
00010000
00001000
00000000
,
00010000
00000100
00010000
00000000
00000010
00001000
00000010
00000000
,
00010000
00000010
00001000
00000100
00010000
00000000
00011000
00000000
,
00001000
01000000
00010000
00000000
00010000
00100000
01000000
00000000
,
00100000
00001000
00010000
00001000
00022000
00000000
00000000
00000000
,
00000000
00033000
00011000
00011000
,
00010000
00000100
00010000
00000000
00001000
00000010
00001000
00000000
,
00000010
00001000
00000010
00001000
00000100
00000000
00001000
00000000
,
00000100
00010000
00001000
00000000
00010000
00001000
01000000
00000000
,
00010000
00100000
01000000
00100000
00010000
00000000
00100000
00000000
,
00001000
00010000
00000100
00000000
00000100
00010000
00000010
00000000
,
00001000
00000010
00010000
00001000
00020000
00000000
01030000
00000000
,
00100000
00010000
01000000
00000000
00100000
01000000
00001000
00000000
,
00010000
00000100
00010000
00001000
00200000
00000000
00301000
00000000
,
00010000
00010000
00010000
00000000
00001000
00001000
00001000
00000000
,
00010000
00000100
00001000
00000010
00000100
00000000
00000010
00000000
,
00001000
00000010
00010000
00000000
00000100
00010000
00001000
00000000
,
00100000
00010000
01000000
00100000
01000000
00000000
01010000
00000000
,
00010000
00100000
00001000
00000000
00001000
00100000
01000000
00000000
,
00100000
00001000
00010000
00000100
00000010
00000000
00000110
00000000
,
00000100
00010000
00001000
00000000
00010000
00001000
01000000
00000000
,
00010000
00100000
00000000
00100000
00001000
00000000
00011000
00000000
;

//---------------dance-double - ----------------
#NOTES:
     dance-double:
     :
     Easy:
     6:
     0.284,0.345,0.167,0.156,0.000:
00000000
00000000
00000000
00000000
,
00000000
00000000
00000000
00000000
,
00000000
00000000
00000000
00000000
,
00000000
00000000
00000000
00000000
,
00000100
00001000
00000100
00010000
,
00001000
01000000
00100000
00000000
,
01000000
00010000
00100000
00001000
,
00010000
00000100
00022000
00033000
,
00001000
00100000
00010000
00000000
,
00100000
00001000
00010000
00000100
,
00000010
00000100
00001000
00000000
,
00000010
00001000
00000100
00010000
,
00001000
00001000
00010000
00010000
,
01000000
00010000
00002000
00003000
,
00010000
00000010
00000100
00000010
,
00010000
00001000
00022000
00033000
,
00100000
00010000
01000000
00010000
,
00100000
00001000
00010000
00000100
,
00000010
00000100
00001000
00000010
,
00000100
00000010
00000220
00000330
,
00000010
00001000
00000100
00000010
,
00000100
00010000
00001000
00000000
,
00010000
00001000
00100000
01000000
,
00100000
00001000
00022000
00033000
,
00010000
00001000
00100000
00000000
,
00001000
00010000
00000100
00000000
,
00001000
00000000
00000010
00000000
,
00000100
00000010
00001000
00000000
,
00000100
00010000
00001000
00100000
,
01000000
00100000
00001000
00000000
,
00100000
00010000
01000000
00001000
,
00100000
00001000
00022000
00033000
,
00000110
00000100
00010100
00010000
,
00011000
00001000
01001000
01000000
,
00010000
00100000
02000000
03000000
,
00100000
00001000
00010000
00011000
,
00001000
00010000
00000100
00000010
,
00000100
00001000
00001010
00000000
,
00000010
00001000
00000100
00010000
,
00001000
00100000
00202000
00303000
,
00101000
00010000
00101000
00010000
,
00001000
00100000
00001000
00000010
,
00000110
00001000
00000110
00000010
,
00000100
00001000
00000010
00000100
,
00010010
00001000
00010010
00001000
,
00000100
00010000
00100000
01000000
,
01001000
00010000
01001000
00010000
,
00100000
00001000
00022000
00033000
,
00022000
00033000
00001000
00100000
,
01000000
00100000
00001000
00000000
,
00010000
00000100
00010000
00000010
,
00010000
00001000
00011000
00000000
,
00100000
00100000
00010000
01000000
,
00100000
00010000
02000000
03000000
,
00010000
00100000
00001000
00001000
,
00010000
00000100
00000220
00000330
,
00000010
00000100
00001000
00000100
,
00000010
00000100
00010000
00010000
,
00001000
00100000
01000000
00100000
,
00001000
00100000
01000000
01000000
,
00100000
00010000
00100000
00001000
,
00010000
00000010
00000100
00000100
,
00000010
00001000
00000100
00010000
,
00001000
00010000
00022000
00033000
,
00010000
01000000
00001000
00010000
,
00000100
00010000
00001000
00010000
,
00000010
00010000
00100000
00010000
,
00000010
00001000
00000100
00000100
,
00010000
00010000
00000100
00000100
,
00010000
00001000
02000000
03000000
,
00100000
01000000
00010000
00100000
,
00001000
00010000
00022000
00000000
,
00000000
00033000
00011000
00011000
,
00001000
00000000
00100000
00000000
,
00010000
00100000
00001000
00010000
,
00000100
00000000
00000100
00000000
,
00000010
00000100
00001000
00000010
,
00000100
00000000
00000010
00000000
,
00001000
00000010
00001000
00000000
,
00000100
00000000
00010000
00000000
,
00001000
00010000
00022000
00033000
,
00001000
00100000
00010000
01000000
,
00100000
01000000
00001000
00001000
,
00001000
00010000
00000100
00000010
,
00000100
00001000
00000010
00000010
,
00000010
00000100
00000010
00001000
,
00000100
00010000
00001000
00100000
,
00010000
01000000
00010000
00100000
,
00001000
00001000
00010000
00011000
;
