#TITLE:Laarbasses;
#SUBTITLE:;
#ARTIST:Safri Duo feat. Clark Anderson;
#TITLETRANSLIT:;
#SUBTITLETRANSLIT:;
#ARTISTTRANSLIT:;
#GENRE:;
#CREDIT:;
#BANNER:Laarbasses - Safri Duo feat. Clark Andersonbn.PNG;
#BACKGROUND:Laarbasses - Safri Duo feat. Clark Andersonbg.PNG;
#LYRICSPATH:Laarbasses - Safri Duo feat. Clark Anderson.lrc;
#CDTITLE:encorefundamentals.png;
#MUSIC:Laarbasses - Safri Duo feat. Clark Anderson.ogg;
#OFFSET:0.003640;
#SAMPLESTART:57.834793;
#SAMPLELENGTH:16.531719;
#SELECTABLE:YES;
#BPMS:0.000000=116.000000
;
#STOPS:
;
#BGCHANGES:;
#KEYSOUNDS:;
#ATTACKS:;

//---------------dance-single - Spork!----------------
#NOTES:
     dance-single:
     Beginner:
     Beginner:
     2:
     0.071748,0.117188,0.066965,0.066965,0.000000,60.000000,52.000000,8.000000,8.000000,0.000000,0.000000,0.071748,0.117188,0.066965,0.066965,0.000000,60.000000,52.000000,8.000000,8.000000,0.000000,0.000000:
0000
0000
0000
0000
,
0000
0000
0000
0000
,
0000
0000
0000
0000
,
0000
0000
0000
0000
,
0001
0000
0000
0000
,
0001
0000
0000
0000
,
1000
0000
0000
0000
,
1000
0000
0000
0000
,
0010
0000
0000
0000
,
1000
0000
0001
0000
,
0010
0000
0000
0000
,
0100
0000
0000
0000
,
0010
0000
0000
0000
,
0001
0000
1000
0000
,
0010
0000
0000
0000
,
0100
0000
0000
0000
,
0010
0000
0010
0000
,
0010
0000
0000
0000
,
0100
0000
0100
0000
,
0100
0000
0000
0000
,
0001
0000
0001
0000
,
0001
0000
0000
0000
,
1000
0000
1000
0000
,
1000
0000
0000
0000
,
0002
0000
0000
0000
,
0100
0000
0000
0000
,
2000
0000
0000
0000
,
3003
0000
0000
0000
,
1001
0000
0000
0000
,
0100
0000
0000
0000
,
1001
0000
0000
0000
,
0010
0000
0000
0000
,
0110
0000
0000
0000
,
0001
0000
0000
0000
,
0110
0000
0000
0000
,
1000
0000
0000
0000
,
0002
0000
0000
0000
,
0003
0000
0000
0000
,
2000
0000
0000
0000
,
3000
0000
0000
0000
,
0020
0000
0000
0000
,
0030
0000
0000
0000
,
0200
0000
0000
0000
,
0300
0000
0000
0000
,
0000
0000
0000
0000
,
1001
0000
0000
0000
,
0010
0000
0000
0000
,
1001
0000
0000
0000
,
0100
0000
0000
0000
,
0110
0000
0000
0000
,
1000
0000
0000
0000
,
0110
0000
0000
0000
,
0001
0000
0000
0000
,
2000
0000
0000
0000
,
0100
0000
0000
0000
,
0002
0000
0000
0000
,
3003
0000
0000
0000
;

//---------------dance-single - Spork!----------------
#NOTES:
     dance-single:
     Light:
     Easy:
     5:
     0.193719,0.238562,0.125559,0.159041,0.000000,162.000000,147.000000,15.000000,19.000000,0.000000,0.000000,0.193719,0.238562,0.125559,0.159041,0.000000,162.000000,147.000000,15.000000,19.000000,0.000000,0.000000:
0000
0000
0000
0000
,
0000
0000
0000
0000
,
0000
0000
0000
0000
,
0000
0000
0000
0000
,
0001
0000
1000
0000
,
0100
1000
0001
0000
,
1000
0000
0001
0000
,
0020
0000
0000
0030
,
0001
0100
0000
0100
,
0000
0100
0010
1000
,
0001
0000
1000
0000
,
0002
0000
0000
0003
,
1000
0100
0000
0100
,
0000
0100
0010
0001
,
1000
0000
0001
0000
,
2000
0000
0000
3000
,
0101
0000
0011
0000
,
0010
0100
1001
0000
,
1100
0000
1010
0000
,
0010
0100
1001
0000
,
0011
0000
0101
0000
,
0100
0010
1001
0000
,
0110
0000
0110
0000
,
0110
0000
0000
0000
,
0001
0100
0001
0001
,
1000
0100
1000
1000
,
0001
1000
0001
0001
,
2002
0000
0000
3003
,
1000
0100
0001
0100
,
1000
1000
0001
0000
,
0001
0100
1000
0100
,
0001
0001
1000
0001
,
1000
0010
0001
0010
,
1000
1000
0001
0000
,
0001
0010
1000
0010
,
0001
0001
1000
0001
,
0200
0000
0320
0000
,
2030
0000
3100
0000
,
0200
0000
0320
0000
,
0032
0000
0013
0000
,
0020
0000
0230
0000
,
2300
0000
3010
0000
,
0020
0000
0230
0000
,
0302
0000
1003
0000
,
1001
0000
0000
0000
,
0001
0010
1000
0010
,
0001
0001
1000
0000
,
1000
0010
0001
0010
,
1000
1000
0001
1000
,
0001
0100
1000
0100
,
0001
0001
1000
0000
,
1000
0100
0001
0100
,
1000
1000
0001
0001
,
1000
0010
1000
1000
,
0001
0010
0001
0001
,
1000
0001
1000
1000
,
2002
0000
0000
0000
,
3003
0000
0000
0000
;

//---------------dance-single - Spork!----------------
#NOTES:
     dance-single:
     Standard:
     Medium:
     8:
     0.248726,0.310130,0.108818,0.142300,0.058594,208.000000,195.000000,13.000000,17.000000,0.000000,0.000000,0.248726,0.310130,0.108818,0.142300,0.058594,208.000000,195.000000,13.000000,17.000000,0.000000,0.000000:
0000
0000
0000
0000
,
0000
0000
0000
0000
,
0000
0000
0000
0000
,
0000
0000
0000
0000
,
1000
0000
0000
1000
0000
0000
0000
0000
0000
0000
1000
0000
0000
0000
0000
0000
,
0001
0100
0010
1001
,
0001
0000
0000
0001
0000
0000
0000
0000
0000
0000
0001
0000
0000
0000
0000
0000
,
0020
0000
0030
1001
,
1000
0100
0000
0100
,
1000
0010
0100
0001
,
0010
0000
0010
0000
,
0001
0000
1000
0000
0000
1001
0000
0000
,
0001
0100
0000
0100
,
0001
0010
0100
1000
,
0010
0000
0010
0000
,
1000
0000
0001
0000
0000
1001
0000
1000
,
0100
0000
0000
0100
0010
0000
0000
0010
,
0001
0000
0100
0000
0010
0000
1001
0001
,
0100
0000
0000
0100
0010
0000
0000
0010
,
1000
0000
0100
0000
0010
0000
1001
0001
,
0010
0000
0000
0010
0100
0000
0000
0100
,
1000
0000
0010
0000
0100
0000
1001
1000
,
0010
0000
0000
1000
0010
0000
0000
1000
,
0010
0000
0000
0000
0000
1000
1000
0000
,
0001
0000
0000
0010
0000
0000
0001
0000
0000
0010
0000
0000
0100
0000
0000
0000
,
0010
0000
0000
0100
0000
0000
0010
0000
0000
0100
0000
0000
1000
0000
0000
0000
,
0100
0000
0000
1000
0000
0000
0100
0000
0000
1000
0000
0000
0001
0000
0000
0000
,
2002
0000
0000
3003
,
1000
0000
0010
0000
0100
0001
0010
0000
,
0100
0010
0001
1001
,
0001
0000
0100
0000
0010
1000
0100
0000
,
0010
0000
0100
0000
1000
0001
1001
0000
,
0001
0000
0010
0000
0100
1000
0010
0000
,
0100
0010
1000
1001
,
1000
0000
0100
0000
0010
0001
0100
0000
,
0010
0000
0100
0000
0100
0001
0010
0100
,
2000
0000
3200
0000
,
0302
0000
0103
1000
,
0002
0000
0203
0000
,
2300
0000
3100
0001
,
2000
0000
3020
0000
,
0032
0000
0013
1000
,
0002
0000
0023
0000
,
2030
0000
3001
0000
,
1001
0000
0000
0000
,
0001
0000
0100
0000
0010
1000
0100
0000
,
0010
0100
1000
0000
,
1000
0000
0010
0000
0100
0001
0010
0000
,
0100
0010
0001
0000
,
1000
0000
0100
0000
0010
0001
0100
0000
,
0010
0100
0001
0000
,
0001
0000
0010
0000
0100
1000
0010
0000
,
0010
1000
0001
0000
1000
0000
0000
0000
,
1000
0000
0000
0100
0000
0000
1000
0000
0000
0100
0000
0000
0010
0000
0000
0000
,
0100
0000
0000
0010
0000
0000
0100
0000
0000
0010
0000
0000
0001
0000
0000
0000
,
0010
0000
0000
0001
0000
0000
0010
0000
0000
0001
0000
0000
1000
0000
0000
0000
,
2002
0000
0000
0000
,
3003
0000
0000
0000
;

//---------------dance-single - Spork!----------------
#NOTES:
     dance-single:
     Heavy:
     Hard:
     11:
     0.370697,0.453267,0.100447,0.167412,0.213450,310.000000,298.000000,12.000000,20.000000,0.000000,0.000000,0.370697,0.453267,0.100447,0.167412,0.213450,310.000000,298.000000,12.000000,20.000000,0.000000,0.000000:
0000
0000
0000
0000
,
0000
0000
0000
0000
,
0000
0000
0000
0000
,
0000
0000
0000
0000
,
0001
0000
0000
0001
0000
0000
0000
0000
0000
0000
0001
0000
0000
0000
0000
0000
,
0100
0000
0000
0001
0000
0000
1000
0000
0000
0000
0000
0100
0000
0000
0000
0010
0000
0000
1001
0000
0000
0000
0000
0000
,
1000
0000
0000
1000
0000
0000
0000
0000
0000
0000
1000
0000
0000
0000
0000
0000
,
0010
0000
0000
0100
0000
0000
0010
0000
0000
0000
0000
0000
1000
0000
0000
0000
0000
0000
0000
0000
0000
0000
0001
0000
0000
0000
0000
0000
1000
0000
0001
0000
0000
0000
0000
0000
1001
0000
0000
0000
0000
0000
0000
0000
0000
0000
0000
0000
,
0002
0020
0000
0033
,
0100
1000
0010
0000
0100
0001
0010
0000
,
0001
0000
0000
0001
0000
0000
0000
0000
0000
0000
0001
0000
0000
0000
0000
0000
,
0010
0000
0000
0100
0000
0000
0010
0000
0000
0000
0000
0000
0001
0000
0000
0000
0000
0000
0000
0000
0000
0000
1000
0000
0000
0000
0000
0000
0000
0000
0110
0000
0000
0000
0000
0000
0000
0000
0000
0000
1000
0000
0000
0000
0000
0000
0000
0000
,
0000
0000
0000
0000
0000
0000
0000
0000
0010
0000
0000
0000
0000
0000
0000
0000
0000
0000
0000
0000
0000
0000
0000
0000
0000
0000
0000
0000
0000
0000
0000
0000
0000
0000
0000
0000
0000
0000
0000
2000
0000
0000
0000
0000
0000
0000
0000
0000
0000
0000
0000
0000
0000
0000
0000
0000
0000
0000
0000
0000
0000
0000
0000
0000
0000
0000
0000
0000
0000
0000
0000
0000
0200
0000
0000
0000
0000
0000
0000
0000
0000
0000
0000
0000
0000
0000
0000
0000
0000
0000
0000
0000
0000
0000
0000
0000
0000
0000
0000
0000
0000
0000
0000
0000
0000
0000
0000
0000
0000
0000
0000
0000
0000
0000
0000
0000
0000
0000
0000
0000
0000
0000
0000
0000
0000
0000
0000
0000
0000
0000
0000
0000
0000
0000
0000
0000
0000
0000
0000
0000
0000
0000
0000
0000
3300
0000
0000
0000
0000
0000
0000
0000
0000
0000
0000
0000
0000
0000
0000
0000
0000
0000
0000
0000
0000
0000
0000
0000
0000
0000
0000
0000
0000
0000
0000
0000
0000
0000
0000
0000
0000
0000
0000
0000
0000
0000
0000
0000
0000
0000
0000
0000
,
0010
0001
0100
0000
0010
1000
0100
0000
,
1000
0000
0000
1000
0000
0000
0000
0000
0000
0000
1000
0000
0000
0000
0000
0000
,
0100
0000
0000
0010
0000
0000
0100
0000
0000
0000
0000
0000
1000
0000
0000
0000
0000
0000
0000
0000
0000
0000
0001
0000
0000
0000
0000
0000
0000
0000
0110
0000
0000
0000
0000
0000
0000
0000
0000
0000
0000
0000
0001
0000
0000
0000
0000
0000
,
0100
0000
0000
0100
1000
0000
0000
1000
,
0100
0000
0000
0001
0000
0000
0010
0000
0000
0001
0000
1000
0000
0000
0000
0100
0000
0000
1001
0000
0000
1000
0000
0000
,
0100
0000
0000
0100
0001
0000
0000
0001
,
0100
0000
0000
1000
0000
0000
0010
0000
0000
1000
0000
0001
0000
0000
0000
0010
0000
0000
1001
0000
0000
0001
0000
0000
,
0010
0000
0000
0010
1000
0000
0000
1000
,
0010
0000
0000
0001
0000
0000
0100
0000
0000
0001
0000
1000
0000
0000
0000
0100
0000
0000
1001
0000
0000
1000
0000
0000
,
0010
0000
0000
1000
0010
0000
0000
1000
,
0010
0000
0000
0000
0000
0000
0000
0000
0000
0000
1000
0001
1000
0000
0000
0000
,
1000
0000
0000
0100
0000
0000
0001
0000
0000
0010
0000
0000
1000
0000
0000
0000
,
0001
0000
0000
0100
0000
0000
1000
0000
0000
0010
0000
0000
0001
0000
0000
0000
,
1000
0000
0000
0100
0000
0000
0001
0000
0000
0010
0000
0000
1000
0000
0000
0000
,
2002
0000
0000
3003
,
1000
0000
0000
0001
0000
0000
0010
0000
0000
0100
0000
0000
0010
0000
0000
0001
0000
0100
0000
0000
0000
0010
0000
0000
,
1000
0000
0000
0100
0000
0000
1000
0000
0000
0010
0000
0100
0000
0000
0000
0100
0000
0000
1001
0000
0000
0000
0000
0000
,
0001
0000
0000
1000
0000
0000
0010
0000
0000
0100
0000
0000
0010
0000
0000
1000
0000
0100
0000
0000
0000
0010
0000
0000
,
0001
0100
0001
0010
0100
0100
1001
0010
,
0001
0000
0000
1000
0000
0000
0100
0000
0000
0010
0000
0000
0100
0000
0000
1000
0000
0010
0000
0000
0000
0100
0000
0000
,
0001
0000
0000
0010
0000
0000
0001
0000
0000
0100
0000
0010
0000
0000
0000
0010
0000
0000
1001
0000
0000
0000
0000
0000
,
0001
0000
0000
0000
0000
0000
1000
0000
0000
0000
0000
0000
0100
0000
0000
0010
0000
0000
0100
0000
0000
0000
0000
0000
0010
0000
0000
0000
0000
0000
0001
0000
0000
0000
0100
0000
0000
0000
0000
0000
0000
0000
0100
0000
0000
0000
0000
0000
,
0010
1000
0100
1000
0001
0001
0001
1000
,
0002
0010
0203
0001
,
0320
0000
1000
0000
0130
0001
0010
0100
,
2000
0100
3020
1000
,
0230
0000
0001
0000
0310
1000
0100
0010
,
0002
0100
0023
0001
,
0230
0000
1000
0000
0310
0001
0100
0010
,
2000
0010
3200
1000
,
0320
0100
0001
0031
,
0100
0000
0000
0000
0010
0000
0000
0000
0100
0000
0000
0000
0000
0000
0000
0000
0001
0000
0000
0000
0000
0000
0000
0000
0000
0000
0000
0000
0000
1000
0000
0000
0000
0000
0000
0000
0000
0001
0000
0000
0000
1000
0000
0000
0000
0000
0000
0000
0000
0001
0000
0000
0000
0000
0000
0000
0000
0000
0000
0000
0000
0000
0000
0000
,
0001
0000
0000
1000
0000
0000
0100
0000
0000
0001
0000
0000
0100
0000
0000
1000
0000
0010
0000
0000
0000
0010
0000
0000
,
0100
0000
0000
0001
0000
0000
1000
0000
0000
0001
0000
1000
0000
0000
0000
0000
0000
0000
0001
0000
0000
0000
0000
0000
,
1000
0000
0000
0001
0000
0000
0100
0000
0000
1000
0000
0000
0100
0000
0000
0001
0000
0010
0000
0000
0000
0010
0000
0000
,
0100
1000
0010
0000
0010
1000
0001
0000
,
1000
0000
0000
0001
0000
0000
0010
0000
0000
1000
0000
0000
0010
0000
0000
0001
0000
0100
0000
0000
0000
0100
0000
0000
,
0010
0000
0000
1000
0000
0000
0100
0000
0000
1000
0000
0001
0000
0000
0000
0000
0000
0000
0001
0000
0000
0000
0000
0000
,
1000
0000
0000
0000
0000
0000
0001
0000
0000
0000
0000
0000
0100
0000
0000
0010
0000
0000
0100
0000
0000
0000
0000
0000
0010
0000
0000
0000
0000
0000
1000
0000
0000
0000
0100
0000
0000
0000
0000
0000
0000
0000
0100
0000
0000
0000
0000
0000
,
0010
0000
0000
0001
0000
0000
1000
0000
0000
0000
0000
0001
0000
0000
0000
0000
0000
0000
1000
0000
0000
0000
0000
0000
,
0001
0000
0000
0010
0000
0000
1000
0000
0000
0100
0000
0000
0001
0000
0000
0000
,
1000
0000
0000
0010
0000
0000
0001
0000
0000
0100
0000
0000
1000
0000
0000
0000
,
0001
0000
0000
0010
0000
0000
1000
0000
0000
0100
0000
0000
0001
0000
0000
0000
,
2002
0000
0000
0000
,
3003
0000
0000
0000
;

//---------------dance-single - Spork!----------------
#NOTES:
     dance-single:
     Expert:
     Challenge:
     15:
     0.573983,0.620260,0.443641,0.083706,0.631979,480.000000,427.000000,53.000000,10.000000,60.000000,0.000000,0.573983,0.620260,0.443641,0.083706,0.631979,480.000000,427.000000,53.000000,10.000000,60.000000,0.000000:
0M00
0000
0000
M000
0000
0000
0000
0000
0000
0000
00M0
0000
0000
0000
0000
0000
,
0000
0000
0000
0000
,
00M0
0000
0000
000M
0000
0000
0000
0000
0000
0000
0M00
0000
0000
0000
0000
0000
,
0000
0000
0000
0000
,
01M1
0000
0000
0000
0000
0000
0000
0000
0000
11M0
0000
0000
0000
0000
0000
0000
0000
0000
0000
0000
0000
0000
0000
0000
0000
0000
0000
0000
0000
0000
011M
0000
0000
0000
0000
0000
0000
0000
0000
0000
1000
0000
0100
0000
0000
0000
1000
0000
,
0100
0000
0000
0000
0000
0000
0010
0000
0000
0000
0000
0000
0001
0000
0000
0000
0000
0000
0100
0000
0000
0000
0010
0000
0000
0000
0000
0000
0000
0000
1000
0000
0000
0000
0000
0000
0004
0000
0000
0003
0000
0000
0000
0000
0000
0000
0000
0000
,
1M10
0000
0000
0M11
0000
0000
0000
0000
0000
0000
M110
0000
0000
0000
0000
0000
,
0001
0000
0010
0000
0001
0000
0010
0000
0000
0000
0000
0000
0100
0000
0000
0000
0000
0000
0000
0000
0000
0000
0100
0000
0000
0000
0000
0000
1000
0000
0001
0000
0000
0000
0000
0000
4000
0000
0000
3000
0000
0000
0000
0000
0000
0000
0000
0000
,
M001
0000
0010
0M00
1000
0000
0000
0000
0010
0000
100M
0000
0100
0000
0000
0000
,
1000
0010
0001
0100
1000
0100
0001
0010
,
M110
0000
0000
110M
0000
0000
0010
0000
1000
0000
10M1
0000
0000
0000
0100
0000
,
1000
0000
0010
0000
1000
0000
0010
0000
0000
0000
0000
0000
0100
0000
0000
0000
0000
0000
0001
0000
0000
0000
0100
0000
0000
0000
0000
0000
0001
0000
4000
0000
0000
3000
0000
0000
0001
0000
0000
0000
0000
0000
0000
0000
0000
0000
0000
0000
,
100M
0000
0100
00M0
0001
0000
0000
0000
0100
0000
M001
0000
0010
0000
0000
0000
,
0001
0100
1000
0010
0001
0010
1000
0100
,
011M
0000
0000
M011
0000
0000
0100
0000
0001
0000
1M01
0000
0000
0000
0010
0000
,
0001
0000
0100
0000
0001
0000
0100
0000
0000
0000
0000
0000
0010
0000
0000
0000
0000
0000
1000
0000
0000
0000
0010
0000
0000
0000
0000
0000
1000
0000
0004
0000
0000
0003
0000
0000
0000
0000
0000
0000
1000
0000
0100
0000
0000
0000
1000
0000
,
010M
0000
0000
0000
0000
0000
0000
0000
0000
11M0
0000
0000
0000
0000
0000
0000
0100
0000
0001
0000
0000
0000
0100
0000
0001
0000
0000
0000
0000
0000
M101
0000
0000
0000
0000
0000
0000
0000
0000
0000
0001
0000
0010
0000
0000
0000
0001
0000
,
0010
0000
0000
0000
0000
0000
0001
0000
0000
0000
0000
0000
0010
0000
0000
0000
0000
0000
1000
0000
0000
0000
0100
0000
0000
0000
0000
0000
0000
0000
0100
0000
0000
0000
0000
0000
4000
0000
0000
3000
0001
0000
0100
0000
0000
0000
0001
0000
,
M100
0000
0000
0000
0000
0000
0000
0000
0000
01M1
0000
0000
0000
0000
0000
0000
0100
0000
1000
0000
0000
0000
0100
0000
1000
0000
0000
0000
0000
0000
110M
0000
0000
0000
0000
0000
0000
0000
0000
0000
1000
0000
0010
0000
0000
0000
1000
0000
,
0010
0000
0000
0000
0000
0000
1000
0000
0000
0000
0000
0000
0010
0000
0000
0000
0000
0000
0001
0000
0000
0000
0100
0000
0000
0000
0000
0000
0000
0000
0100
0000
0000
0000
0000
0000
0004
0000
0000
0003
1000
0000
0010
0000
0000
0000
1000
0000
,
001M
0000
0000
0000
0000
0000
0000
0000
0000
1M10
0000
0000
0000
0000
0000
0000
0010
0000
0001
0000
0000
0000
0010
0000
0001
0000
0000
0000
0000
0000
M011
0000
0000
0000
0000
0000
0000
0000
0000
0000
0001
0000
0100
0000
0000
0000
0001
0000
,
0100
0000
0000
0000
0000
0000
0001
0000
0000
0000
0000
0000
0100
0000
0000
0000
0000
0000
1000
0000
0000
0000
0010
0000
0000
0000
0000
0000
0000
0000
0010
0000
0000
0000
0000
0000
4000
0000
0000
3000
0001
0000
0010
0000
0000
0000
0001
0000
,
M010
0000
0000
0000
0000
0000
0000
0000
0000
0M11
0000
0000
0000
0000
0000
0000
0010
0000
1000
0000
0000
0000
0010
0000
1000
0000
0000
0000
0000
0000
101M
0000
0000
0000
0000
0000
0000
0000
0000
0000
1000
0000
0100
0000
0000
0000
1000
0000
,
0100
0000
0000
0000
1000
0000
0000
0000
0100
0000
0001
1000
0001
0000
0000
0000
,
0011
0000
0000
0110
0000
0000
1100
0000
0000
0101
0000
0000
1001
0000
0000
0000
,
1010
0000
0000
0110
0000
0000
0101
0000
0000
1100
0000
0000
1001
0000
0000
0000
,
0101
0000
0000
0110
0000
0000
1010
0000
0000
0011
0000
0000
1001
0000
0000
0000
,
0220
0000
0000
0330
,
010M
0000
0000
0000
0000
0000
1000
0000
0000
000M
0000
0000
0010
0000
0000
0000
0000
0000
0100
0000
0000
0000
0000
0000
0010
0000
0000
0000
1000
0000
001M
0000
0000
0000
0100
0000
0000
0000
0000
0000
0000
0000
0100
0000
0000
0000
0001
0000
,
1000
0000
0000
0100
0000
0000
0010
0000
0100
0010
0000
0001
0000
0000
0000
1000
0000
0000
0004
0003
0000
0000
0000
0000
,
M010
0000
0000
0000
0000
0000
0001
0000
0000
M000
0000
0000
0100
0000
0000
0000
0000
0000
0010
0000
0000
0000
0000
0000
0100
0000
0000
0000
0001
0000
M100
0000
0000
0000
0010
0000
0000
0000
0000
0000
0000
0000
0010
0000
0000
0000
1000
0000
,
0001
0000
0000
0000
0000
0000
0010
0000
0000
0000
0001
0000
0010
0000
0000
0000
0000
0000
0100
0000
0000
0000
0000
0000
2000
0000
0000
0000
0000
0000
3002
0000
0000
0000
0000
0000
0403
0000
0000
0300
0000
0000
0020
0000
0000
0000
0000
0000
,
103M
0000
0000
0000
0000
0000
0100
0000
0000
000M
0000
0000
0010
0000
0000
0000
0000
0000
0100
0000
0000
0000
0000
0000
1000
0000
0000
0000
0000
0000
001M
0000
0000
0000
0100
0000
0000
0000
0000
0000
0000
0000
0100
0000
0000
0000
0001
0000
,
0010
0000
0000
0001
0000
0000
1000
0000
0000
0100
0000
0010
0000
0000
0000
0001
0000
0000
0400
0300
0000
0000
0000
0000
,
M001
0000
0000
0000
0000
0000
0010
0000
0000
M000
0001
0000
0100
0000
0000
0000
0001
0000
0010
0000
0000
0000
0001
0000
0100
0000
0000
0000
0000
0000
M010
0000
0000
0000
0100
0000
0000
0000
0000
0000
0000
0000
0100
0000
0000
0000
0001
0000
,
1000
0010
1000
0100
0010
0002
0203
0320
,
1030
0000
0000
0000
0000
0001
0010
0000
0000
0000
0000
0100
0001
0000
0000
0000
0000
0010
1000
0000
0000
0000
0000
0010
,
0001
0000
0000
0000
0000
0100
0010
0000
0000
0000
0000
0001
1000
0000
0000
0100
0000
0000
0100
0000
0000
0010
0000
0000
,
0001
0000
0000
0000
0000
1000
0010
0000
0000
0000
0000
0100
1000
0000
0000
0000
0000
0010
0001
0000
0000
0000
0000
0010
,
1000
0000
0000
0000
0000
0100
0010
0000
0000
0000
0000
1000
0001
0000
0000
0001
0000
0000
0010
0000
0000
0100
0000
0000
,
1000
0000
0000
0000
0000
0001
0100
0000
0000
0000
0000
0010
0001
0000
0000
0000
0000
0100
1000
0000
0000
0000
0000
0100
,
0001
0000
0000
0000
0000
0010
0100
0000
0000
0000
0000
0001
1000
0000
0000
0010
0000
0000
0010
0000
0000
0100
0000
0000
,
0001
0000
0000
0000
0000
1000
0100
0000
0000
0000
0000
0010
1000
0000
0000
0000
0000
0100
0001
0000
0000
0000
0000
0100
,
1000
0000
0000
0000
0000
0010
0100
0000
0000
0000
0000
1000
0001
0000
0000
0100
0000
0001
1000
0000
0000
0010
0000
0000
,
1000
0000
0000
0000
0000
0000
0000
0000
0100
0000
0000
0000
0000
0000
0000
0000
1000
0000
0000
0000
0000
0000
0000
0000
0100
0000
0000
0000
0000
0000
0000
0000
0000
0000
0000
0000
0000
0000
0000
0000
0000
0000
0000
0000
0000
0000
0000
0000
0010
0000
0000
0000
0000
0000
0000
0000
0000
0000
0000
0000
0000
0000
0000
0000
0000
0000
0000
0000
0000
0000
0000
0000
0000
0000
0000
0000
0000
0000
0000
0000
0000
0000
0000
0000
0000
0000
0000
0010
0000
0000
0000
0000
0000
0000
0000
0000
0000
0000
0000
0000
0000
0000
0000
0000
0000
0000
0000
0000
0000
0000
0000
0001
0000
0000
0000
0000
0000
0000
0000
0000
0000
0000
0000
1000
0000
0000
0000
0000
0000
0000
0000
0000
0000
0000
0000
0000
0000
0000
0000
0000
0000
0000
0000
0000
0000
0000
0000
1001
0000
0000
0000
0000
0000
0000
0000
0000
0000
0000
0000
0000
0000
0000
0000
0000
0000
0000
0000
0000
0000
0000
0000
0000
0000
0000
0000
0000
0000
0000
0000
0000
0000
0000
0000
0000
0000
0000
0000
0000
0000
0000
0000
0000
,
M010
0000
0000
0000
0000
0000
0001
0000
0000
M000
0000
0000
0100
0000
0000
0000
0000
0000
0010
0000
0000
0000
0000
0000
0100
0000
0000
0000
0001
0000
M100
0000
0000
0000
0010
0000
0000
0000
0000
0000
0000
0000
0010
0000
0000
0000
1000
0000
,
0001
0000
0000
0010
0000
0000
0100
0000
0010
0100
0000
1000
0000
0000
0000
1000
0000
0000
0001
0000
1000
0100
0000
1000
,
010M
0000
0000
0000
0000
0000
1000
0000
0000
000M
0000
0000
0010
0000
0000
0000
0000
0000
0100
0000
0000
0000
0000
0000
0010
0000
0000
0000
1000
0000
001M
0000
0000
0000
0100
0000
0000
0000
0000
0000
0000
0000
0100
0000
0000
0000
0001
0000
,
1000
0000
0000
0010
0000
1000
0100
0000
0000
0010
0000
0000
0001
0000
0000
1000
0000
0000
0010
0000
0100
0001
0000
0100
,
M001
0000
0000
0000
0000
0000
0010
0000
0000
M000
0000
0000
0100
0000
0000
0000
0000
0000
0010
0000
0000
0000
0000
0000
0001
0000
0000
0000
0000
0000
M100
0000
0000
0000
0010
0000
0000
0000
0000
0000
0000
0000
0010
0000
0000
0000
1000
0000
,
0100
0000
0000
1000
0000
0000
0010
0000
0000
0100
0000
0001
0000
0000
0000
0001
0000
0000
1000
0000
0100
0010
0000
0100
,
001M
0000
0000
0000
0000
0000
0100
0000
0000
000M
1000
0000
0010
0000
0000
0000
1000
0000
0100
0000
0000
0000
1000
0000
0010
0000
0000
0000
0000
0000
010M
0000
0000
0000
0010
0000
0000
0000
0000
0000
0000
0000
0010
0000
0000
0000
1000
0000
,
0001
0010
0001
0010
0000
0000
0100
0000
0000
1000
0000
0010
0000
0000
1000
0001
0000
0000
0100
0000
0001
0010
0000
0000
,
1100
0000
0000
0110
0000
0000
0011
0000
0000
1010
0000
0000
1001
0000
0000
0000
,
0101
0000
0000
0110
0000
0000
1010
0000
0000
0011
0000
0000
1001
0000
0000
0000
,
1010
0000
0000
0110
0000
0000
0101
0000
0000
1100
0000
0000
1001
0000
0000
0000
,
0220
0000
0000
0000
,
0330
0000
0000
0000
;

//---------------dance-double - Spork!----------------
#NOTES:
     dance-double:
     Light:
     Easy:
     3:
     0.119580,0.166993,0.041853,0.167412,0.000000,100.000000,95.000000,5.000000,20.000000,0.000000,0.000000,0.119580,0.166993,0.041853,0.167412,0.000000,100.000000,95.000000,5.000000,20.000000,0.000000,0.000000:
00000000
00000000
00000000
00000000
,
00000000
00000000
00000000
00000000
,
00000000
00000000
00000000
00000000
,
00000000
00000000
00000000
00000000
,
02200000
00000000
00000000
00000000
00000000
03300000
00000000
00000000
,
00000000
00000000
00000000
00000000
,
00000220
00000000
00000000
00000000
00000000
00000330
00000000
00000000
,
00000000
00000000
00000000
00000000
,
00000001
00001000
00000000
00000000
,
00000010
00000000
00010000
00000000
,
00001000
00000000
00001000
00000000
,
00200000
00000000
01300000
00000000
,
10000000
00010000
00000000
00000000
,
00100000
00000000
00001000
00000000
,
00010000
00000000
00010000
00000000
,
00000020
00000000
00000130
00000000
,
00000001
00000000
00000001
00000000
,
00000001
00001000
00000100
00000000
,
00010000
00000000
00010000
00000000
,
00001000
00100000
00010000
00000000
,
10000000
00000000
10000000
00000000
,
10000000
00010000
01000000
00000000
,
00001000
00000000
00001000
00000000
,
00001000
00000000
00000000
00010000
,
00002000
00000000
00000000
00000000
,
00203000
00000000
00000000
00000000
,
00320000
00000000
00000000
00000000
,
20000000
00000000
00000000
30030000
,
10000000
00000000
00100000
00000000
,
01000000
00000000
00001000
00011000
,
00010000
00000000
00000100
00000000
,
00000010
00000000
00000001
00001000
,
00000001
00000000
00000100
00000000
,
00000010
00000000
00010000
00011000
,
00001000
00000000
01000000
00000000
,
00100000
00000000
10000000
00010000
,
10000000
00000000
10000000
00000000
,
20000000
00000000
30000000
00000000
,
00010000
00000000
00010000
00000000
,
00020000
00000000
00030000
00000000
,
00001000
00000000
00001000
00000000
,
00002000
00000000
00003000
00000000
,
00000001
00000000
00000001
00000000
,
00000002
00000000
00000003
00000000
,
00001001
00000000
00000000
00000000
,
00000001
00000000
00000100
00000000
,
00000020
00000000
00010030
00000000
,
00001000
00000000
01000000
00000000
,
00100000
00000000
10000000
00010000
,
10000000
00000000
00100000
00000000
,
02000000
00000000
03001000
00000000
,
00010000
00000000
00000100
00000000
,
00001000
00000000
00000010
00000000
,
00020000
00000000
00000000
00000000
,
00030200
00000000
00000000
00000000
,
00002300
00000000
00000000
00000000
,
00000002
00000000
00000000
00000000
,
00003003
00000000
00000000
00000000
;

//---------------dance-double - Spork!----------------
#NOTES:
     dance-double:
     Standard:
     Medium:
     6:
     0.236768,0.286274,0.075335,0.167412,0.066965,198.000000,189.000000,9.000000,20.000000,0.000000,0.000000,0.236768,0.286274,0.075335,0.167412,0.066965,198.000000,189.000000,9.000000,20.000000,0.000000,0.000000:
// measure 0
00000000
00000000
00000000
00000000
,  // measure 1
00000000
00000000
00000000
00000000
,  // measure 2
00000000
00000000
00000000
00000000
,  // measure 3
00000000
00000000
00000000
00000000
,  // measure 4
00001000
00000000
00000000
00001000
00000000
00000000
00000000
00000000
00000000
00000000
00001000
00000000
00000000
00000000
00000000
00000000
,  // measure 5
00000010
00001000
00000001
00000110
,  // measure 6
00000001
00000000
00000000
00000001
00000000
00000000
00000000
00000000
00000000
00000000
00000001
00000000
00000000
00000000
00000000
00000000
,  // measure 7
00000020
00000000
00000030
00000110
,  // measure 8
00000001
00000100
00000000
00000000
,  // measure 9
00000010
00010000
00001000
00100000
,  // measure 10
00010000
00000000
00000000
00010000
00000000
00000000
00000000
00000000
00000000
00000000
00010000
00000000
00000000
00000000
00000000
00000000
,  // measure 11
01000000
00100000
01000000
00000000
00000000
10010000
00000000
00000000
,  // measure 12
10000000
01000000
00000000
00000000
,  // measure 13
00100000
00001000
00010000
00000010
,  // measure 14
00001000
00000000
00000000
00001000
00000000
00000000
00000000
00000000
00000000
00000000
00001000
00000000
00000000
00000000
00000000
00000000
,  // measure 15
00000100
00000010
00000100
00000000
00000000
00001001
00000000
00000001
,  // measure 16
00000100
00000000
00000000
00000100
00001000
00000000
00000000
00001000
,  // measure 17
00010000
00000000
01000000
00000000
10000000
00000000
00000000
10000000
,  // measure 18
00100000
00000000
00000000
00100000
00010000
00000000
00000000
00010000
,  // measure 19
00001000
00000000
00000010
00000000
00000001
00000000
00000000
00000001
,  // measure 20
00000010
00000000
00000000
00000010
00001000
00000000
00000000
00001000
,  // measure 21
00010000
00000000
00100000
00000000
10000000
00000000
00000000
10000000
,  // measure 22
01000000
00000000
00000000
10000000
00010000
00000000
00000000
10000000
,  // measure 23
00100000
00000000
00000000
00000000
00000000
01000000
01000000
00000000
,  // measure 24
00001000
00000000
00000000
00010000
00000000
00000000
00001000
00000000
00000000
00010000
00000000
00000000
00000100
00000000
00000000
00000000
,  // measure 25
00010000
00000000
00000000
00001000
00000000
00000000
00010000
00000000
00000000
00001000
00000000
00000000
00100000
00000000
00000000
00000000
,  // measure 26
00001000
00000000
00000000
00010000
00000000
00000000
00001000
00000000
00000000
00010000
00000000
00000000
00000010
00000000
00000000
00000000
,  // measure 27
00000220
00000000
00000000
00000330
,  // measure 28
00001000
00000000
00000100
00000000
00000010
00000100
00001000
00000000
,  // measure 29
00000010
00010000
00001000
00200000
,  // measure 30
00310000
00000000
01000000
00000000
00100000
01000000
00010000
00000000
,  // measure 31
00100000
00001000
00010000
00000200
,  // measure 32
00001300
00000000
00000010
00000000
00000100
00000001
00001000
00000000
,  // measure 33
00000100
00010000
00001000
02000000
,  // measure 34
03010000
10000000
00100000
00000000
01000000
00010000
10000000
00000000
,  // measure 35
01000000
00100000
01100000
00000000
,  // measure 36
20000000
00000000
32000000
00000000
,  // measure 37
03020000
00000000
00031000
00000000
,  // measure 38
00020000
00000000
00032000
00000000
,  // measure 39
00003200
00000000
00000301
00000000
,  // measure 40
00000002
00000000
00000203
00000000
,  // measure 41
00002300
00000000
00013000
00000000
,  // measure 42
00002000
00000000
00023000
00000000
,  // measure 43
02030000
00000000
13000000
00000000
,  // measure 44
10010000
00000000
00000000
00000000
,  // measure 45
10000000
00000000
01000000
00000000
00100000
00001000
00010000
00000000
,  // measure 46
00000010
00001000
00000001
00000000
,  // measure 47
00000001
00000000
00000010
00000000
00000100
00010000
00001000
00000000
,  // measure 48
01000000
00001000
00100000
00010000
,  // measure 49
10000000
00000000
00100000
00000000
01000000
00001000
00010000
00000000
,  // measure 50
00000100
00001000
00000001
00000000
,  // measure 51
00001000
00000001
00000100
00000000
00000010
00010000
00001000
00000000
,  // measure 52
00100000
00001000
00011000
00000000
,  // measure 53
00010000
00000000
00000000
00001000
00000000
00000000
00010000
00000000
00000000
00001000
00000000
00000000
01000000
00000000
00000000
00000000
,  // measure 54
00001000
00000000
00000000
00010000
00000000
00000000
00001000
00000000
00000000
00010000
00000000
00000000
00000010
00000000
00000000
00000000
,  // measure 55
00010000
00000000
00000000
00001000
00000000
00000000
00010000
00000000
00000000
00001000
00000000
00000000
00100000
00000000
00000000
00000000
,  // measure 56
20020000
00000000
00000000
00000000
,  // measure 57
30030000
00000000
00000000
00000000
;

//---------------dance-double - Spork!----------------
#NOTES:
     dance-double:
     Heavy:
     Hard:
     9:
     0.292970,0.333986,0.108818,0.175782,0.096262,245.000000,232.000000,13.000000,21.000000,0.000000,0.000000,0.292970,0.333986,0.108818,0.175782,0.096262,245.000000,232.000000,13.000000,21.000000,0.000000,0.000000:
// measure 0
00000000
00000000
00000000
00000000
,  // measure 1
00000000
00000000
00000000
00000000
,  // measure 2
00000000
00000000
00000000
00000000
,  // measure 3
00000000
00000000
00000000
00000000
,  // measure 4
00000001
00000000
00000000
00000100
00000000
00000000
00000000
00000000
00000000
00000000
00000010
00000000
00000000
00000000
00000000
00000000
,  // measure 5
00001000
00000100
00010000
00001000
00100000
00000000
10010000
00000000
,  // measure 6
10000000
00000000
00000000
01000000
00000000
00000000
00000000
00000000
00000000
00000000
00100000
00000000
00000000
00000000
00000000
00000000
,  // measure 7
01000000
00000000
00000000
10000000
00000000
00000000
00010000
00000000
00000000
00000000
00000000
01000000
00000000
00000000
00000000
00100000
00000000
00000000
10010000
00000000
00000000
00000000
00000000
00000000
,  // measure 8
20000000
02000000
00000000
33000000
,  // measure 9
10000000
00100000
00010000
00001000
,  // measure 10
00000010
00000000
00000000
00000010
00000000
00000000
00000000
00000000
00000000
00000000
00000010
00000000
00000000
00000000
00000000
00000000
,  // measure 11
00000100
00000000
00000000
00001000
00000000
00000000
00000010
00000000
00000000
00000000
00000000
00001000
00000000
00000000
00000000
00001001
00000000
00000000
00000000
00000000
00000001
00000000
00000000
00000000
,  // measure 12
00000000
00000000
00000000
00000000
00000000
00000000
00000000
00000000
00001000
00000000
00000000
00000000
00000000
00000000
00000000
00000000
00000000
00000000
00000000
00000000
00000000
00000000
00000000
00000000
00000000
00000000
00000000
00000000
00000000
00000000
00000000
00000000
00000000
00000000
00000000
00000000
00000000
00000000
00000000
00000002
00000000
00000000
00000000
00000000
00000000
00000000
00000000
00000000
00000000
00000000
00000000
00000000
00000000
00000000
00000000
00000000
00000000
00000000
00000000
00000000
00000000
00000000
00000000
00000000
00000000
00000000
00000000
00000000
00000000
00000000
00000000
00000000
00000200
00000000
00000000
00000000
00000000
00000000
00000000
00000000
00000000
00000000
00000000
00000000
00000000
00000000
00000000
00000000
00000000
00000000
00000000
00000000
00000000
00000000
00000000
00000000
00000000
00000000
00000000
00000000
00000000
00000000
00000000
00000000
00000000
00000000
00000000
00000000
00000000
00000000
00000000
00000000
00000000
00000000
00000000
00000000
00000000
00000000
00000000
00000000
00000000
00000000
00000000
00000000
00000000
00000000
00000000
00000000
00000000
00000000
00000000
00000000
00000000
00000000
00000000
00000000
00000000
00000000
00000000
00000000
00000000
00000000
00000000
00000000
00000303
00000000
00000000
00000000
00000000
00000000
00000000
00000000
00000000
00000000
00000000
00000000
00000000
00000000
00000000
00000000
00000000
00000000
00000000
00000000
00000000
00000000
00000000
00000000
00000000
00000000
00000000
00000000
00000000
00000000
00000000
00000000
00000000
00000000
00000000
00000000
00000000
00000000
00000000
00000000
00000000
00000000
00000000
00000000
00000000
00000000
00000000
00000000
,  // measure 13
00000001
00000010
00001000
00010000
,  // measure 14
00100000
00000000
00000000
00100000
00000000
00000000
00000000
00000000
00000000
00000000
00100000
00000000
00000000
00000000
00000000
00000000
,  // measure 15
01000000
00000000
00000000
00010000
00000000
00000000
00100000
00000000
00000000
00000000
00000000
01000000
00000000
00000000
00000000
10010000
00000000
00000000
00000000
00000000
00000000
10000000
00000000
00000000
,  // measure 16
00100000
00000000
00000000
00100000
00010000
00000000
00000000
00010000
,  // measure 17
00001000
00010000
00000100
00001000
00000001
00000000
00001001
00000001
,  // measure 18
00000100
00000000
00000000
00000100
00001000
00000000
00000000
00001000
,  // measure 19
00010000
00001000
00100000
00010000
10000000
00000000
10010000
10000000
,  // measure 20
01000000
00000000
00000000
01000000
00010000
00000000
00000000
00010000
,  // measure 21
00001000
00010000
00000010
00001000
00000001
00000000
00001001
00000001
,  // measure 22
00000010
00000000
00000000
00000001
00001000
00000000
00000000
00000001
,  // measure 23
00000100
00000000
00000000
00000000
00000000
00000000
00000000
00000000
00000000
00000000
00000010
00000100
00000010
00000000
00000000
00000000
,  // measure 24
00010000
00000000
00000000
00001000
00000000
00000000
00000100
00000000
00000000
00000010
00000000
00000000
00010000
00000000
00000000
00000000
,  // measure 25
00001000
00000000
00000000
00010000
00000000
00000000
00100000
00000000
00000000
01000000
00000000
00000000
00001000
00000000
00000000
00000000
,  // measure 26
00010000
00000000
00000000
00001000
00000000
00000000
00000010
00000000
00000000
00000100
00000000
00000000
00010000
00000000
00000000
00000000
,  // measure 27
00022000
00000000
00000000
00033000
,  // measure 28
00001000
00000000
00100000
00000000
00010000
10000000
00010000
00000000
,  // measure 29
01000000
00001000
00010000
00001010
,  // measure 30
00010000
00000000
00000100
00000000
00001000
00000001
00001000
00000000
,  // measure 31
00000010
00000000
00000100
00000000
00000010
00001000
00001100
00000000
,  // measure 32
00010000
00000000
00000010
00000000
00001000
00000001
00001000
00000000
,  // measure 33
00000100
00010000
00001000
00110000
,  // measure 34
00001000
00010000
01000000
00000000
00010000
00001000
00000100
00000000
,  // measure 35
00001000
00000000
00010000
00000000
00000010
00001000
00000100
00000010
,  // measure 36
00000002
00000100
00000203
00001000
,  // measure 37
00002300
00000000
00013000
00000000
00001000
00100000
00010000
00000000
,  // measure 38
20000000
01000000
32000000
00010000
,  // measure 39
03020000
00000000
00031000
00000000
00001000
01000000
00010000
00000000
,  // measure 40
20000000
00100000
30200000
00010000
,  // measure 41
00320000
00000000
00031000
00000000
00010000
00000100
00001000
00000000
,  // measure 42
00000002
00000010
00000023
00001000
,  // measure 43
00002030
00013000
00000100
00001000
,  // measure 44
00001001
00000000
00000000
00000000
,  // measure 45
00010000
00000000
00000010
00000000
00001000
00000001
00000100
00000000
,  // measure 46
00000010
00010000
00001000
00000000
,  // measure 47
00001000
00000000
00100000
00000000
00010000
10000000
00100000
00000000
,  // measure 48
01000000
00001000
00200000
00010000
,  // measure 49
00301000
00000000
01000000
00000000
00010000
10000000
01000000
00000000
,  // measure 50
00100000
00001000
00010000
00000000
,  // measure 51
00010000
00001000
00000100
00000000
00001000
00010000
01000000
00000000
,  // measure 52
00010000
00001000
00100000
00000000
,  // measure 53
00001000
00000000
00000000
00010000
00000000
00000000
00100000
00000000
00000000
01000000
00000000
00000000
00001000
00000000
00000000
00000000
,  // measure 54
00010000
00000000
00000000
00001000
00000000
00000000
00000010
00000000
00000000
00000100
00000000
00000000
00010000
00000000
00000000
00000000
,  // measure 55
00001000
00000000
00000000
00010000
00000000
00000000
01000000
00000000
00000000
00100000
00000000
00000000
00001000
00000000
00000000
00000000
,  // measure 56
00022000
00000000
00000000
00000000
,  // measure 57
00033000
00000000
00000000
00000000
;

//---------------dance-double - Spork!----------------
#NOTES:
     dance-double:
     Expert:
     Challenge:
     10:
     0.309712,0.405555,0.251117,0.234376,0.309712,259.000000,229.000000,30.000000,28.000000,48.000000,0.000000,0.309712,0.405555,0.251117,0.234376,0.309712,259.000000,229.000000,30.000000,28.000000,48.000000,0.000000:
00000000
00000000
00000000
00000000
,
00000000
00000000
00000000
00000000
00000000
00000000
00000000
00000000
00000000
00000000
00000000
00000000
00000000
00000000
00000000
00000000
00000000
00000000
00000000
00000000
00000000
00000000
00000000
00000000
00000000
00000000
00000000
00000000
00000000
00000000
00000000
00000000
00000000
00000000
00000000
00000000
00000000
00000000
00000000
00000000
00000000
00000000
00000000
00000000
00000000
00000000
00000000
00000000
00M00000
000M0000
0000M000
00000M00
00000000
00000000
00000000
00000000
00000000
00000000
00000000
00000000
00000000
00000000
00000000
00000000
,
00000000
00000000
00000000
00000000
,
00000000
00000000
00000000
00000000
00000000
00000000
00000000
00000000
00000000
00000000
00000000
00000000
00000000
00000000
00000000
00000000
00000000
00000000
00000000
00000000
00000000
00000000
00000000
00000000
00000000
00000000
00000000
00000000
00000000
00000000
00000000
00000000
00000000
00000000
00000000
00000000
00000000
00000000
00000000
00000000
00000000
00000000
00000000
00000000
00000000
00000000
00000000
00000000
00000M00
0000M000
000M0000
00M00000
00000000
00000000
00000000
00000000
00000000
00000000
00000000
00000000
00000000
00000000
00000000
00000000
,
11000000
00000000
00000000
01010000
00000000
00000000
00000000
00000000
00000000
00000000
00001100
00000000
00000000
00000000
00000000
00000000
,
00010000
00000000
00000000
00000000
00000000
00000000
00000000
00000000
00000000
00000000
00000000
00000000
00000000
00000000
00000000
00000000
00000000
00000000
00000000
00000000
00000000
00000000
00000000
00000000
00000010
00000000
00000000
00000000
00000000
00000000
00000000
00000000
00000000
00000000
00000000
00000000
00000000
00000000
00000000
00000000
00000000
00000000
00000000
00000000
00000000
00000000
00000000
00000000
00000100
00000000
00000000
00000000
00000000
00000000
00000000
00000000
00000000
00000000
00000000
00000000
00000000
00000000
00000000
00000000
00000000
00000000
00000000
00000000
00000000
00000000
00000000
00000000
00000001
00000000
00000000
00000000
00000000
00000000
00000000
00000000
00000000
00000000
00000000
00000000
00000000
00000000
00000000
00000000
00001000
00000000
00000000
00000000
00000000
00000000
00000000
00000000
00000000
00000000
00000000
00000000
00000000
00000000
00000000
00000000
00000000
00000000
00000000
00000000
00000000
00000000
00000000
00000000
00000000
00000000
00000000
00000000
00000000
00000000
00000000
00000000
00000000
00000000
00000000
00000000
00000000
00000000
00000000
00000000
00000000
00000000
00000000
00000000
00000000
00000000
00000000
00000000
00000000
00000000
00000000
00000000
00000000
00000000
00000000
00000000
M0000000
00000000
00000000
0M000000
00000000
00000000
0000M000
00000000
00000000
00000M00
00000000
00000000
00000000
00000000
00000000
00000000
00000000
00000000
00000000
00000000
00000000
00000000
00000000
00000000
00000000
00000000
00000000
00000000
00000000
00000000
00000000
00000000
00000000
00000000
00000000
00000000
00000000
00000000
00000000
00000000
00000000
00000000
00000000
00000000
00000000
00000000
00000000
00000000
,
00000011
00000000
00000000
00001010
00000000
00000000
00000000
00000000
00000000
00000000
00110000
00000000
00000000
00000000
00000000
00000000
,
20020000
00000000
00000000
00000000
00000000
00000000
00000000
00000000
00000000
00000000
00000000
00000000
00000000
00000000
00000000
00000000
00000000
00000000
00000000
00000000
00000000
00000000
00000000
00000000
00000000
00000000
00000000
00000000
00000000
00000000
00000000
00000000
30030000
00000000
00000000
00000000
00000000
00000000
00000000
00000000
00000000
00000000
00000000
00000000
00000000
00000000
00000000
00000000
0000000M
00000M00
000M0000
0M000000
00000000
00000000
00000000
00000000
00000000
00000000
00000000
00000000
00000000
00000000
00000000
00000000
,
10000000
00100000
00010000
00001000
,
00000010
00000001
00000100
00000010
,
00000101
00000000
00000000
00001100
00000000
00000000
00000000
00000000
00000000
00000000
01100000
00000000
00000000
00000000
00000000
00000000
,
00001000
00000000
00000000
00000000
00000000
00000000
00000000
00000000
00000000
00000000
00000000
00000000
00000000
00000000
00000000
00000000
00000000
00000000
00000000
00000000
00000000
00000000
00000000
00000000
00010000
00000000
00000000
00000000
00000000
00000000
00000000
00000000
00000000
00000000
00000000
00000000
00000000
00000000
00000000
00000000
00000000
00000000
00000000
00000000
00000000
00000000
00000000
00000000
00000100
00000000
00000000
00000000
00000000
00000000
00000000
00000000
00000000
00000000
00000000
00000000
00000000
00000000
00000000
00000000
00000000
00000000
00000000
00000000
00000000
00000000
00000000
00000000
00000000
00000000
00000000
00000000
00000000
00000000
00000000
00000000
00000000
00000000
00000000
00000000
00000000
00000000
00000000
00000000
00000010
00000000
00000000
00000000
00000000
00000000
00000000
00000000
00000000
00000000
00000000
00000000
00000000
00000000
00000000
00000000
00000000
00000000
00000000
00000000
00000000
00000000
00000000
00000000
00000000
00000000
00000000
00000000
00000000
00000000
00000000
00000000
0000000M
00000000
00000000
0000M000
00000000
00000000
000M0000
00000000
00000000
M0000000
00000000
00000000
00000000
00000000
00000000
00000000
00000000
00000000
00000000
00000000
00000000
00000000
00000000
00000000
00000000
00000000
00000000
00000000
00000000
00000000
00000000
00000000
00000000
00000000
00000000
00000000
00000000
00000000
00000000
00000000
00000000
00000000
00000000
00000000
00000000
00000000
00000000
00000000
00000000
00000000
00000000
00000000
00000000
00000000
00000000
00000000
00000000
00000000
00000000
00000000
00000000
00000000
00000000
00000000
00000000
00000000
00000000
00000000
00000000
00000000
00000000
00000000
,
00000001
00000100
00001000
00010000
,
01000000
10000000
00100000
01000000
,
10100000
00000000
00000000
00110000
00000000
00000000
00000000
00000000
00000000
00000000
00000110
00000000
00000000
00000000
00000000
00000000
,
00010000
00000000
00000000
00000000
00000000
00000000
00000000
00000000
00000000
00000000
00000000
00000000
00000000
00000000
00000000
00000000
00000000
00000000
00000000
00000000
00000000
00000000
00000000
00000000
00001000
00000000
00000000
00000000
00000000
00000000
00000000
00000000
00000000
00000000
00000000
00000000
00000000
00000000
00000000
00000000
00000000
00000000
00000000
00000000
00000000
00000000
00000000
00000000
00100000
00000000
00000000
00000000
00000000
00000000
00000000
00000000
00000000
00000000
00000000
00000000
00000000
00000000
00000000
00000000
00000000
00000000
00000000
00000000
00000000
00000000
00000000
00000000
00000000
00000000
00000000
00000000
00000000
00000000
00000000
00000000
00000000
00000000
00000000
00000000
00000000
00000000
00000000
00000000
01000000
00000000
00000000
00000000
00000000
00000000
00000000
00000000
00000000
00000000
00000000
00000000
00000000
00000000
00000000
00000000
00000000
00000000
00000000
00000000
00000000
00000000
00000000
00000000
00000000
00000000
00000000
00000000
00000000
00000000
00000000
00000000
M0000000
00000000
00000000
000M0000
00000000
00000000
0000M000
00000000
00000000
0000000M
00000000
00000000
00000000
00000000
00000000
00000000
00000000
00000000
00000000
00000000
00000000
00000000
00000000
00000000
00000000
00000000
00000000
00000000
00000000
00000000
00000000
00000000
00000000
00000000
00000000
00000000
00000000
00000000
00000000
00000000
00000000
00000000
00000000
00000000
00000000
00000000
00000000
00000000
00200000
00000000
00000000
00000000
00000000
00000000
00000000
00000000
00000000
00000000
00000000
00000000
00000000
00000000
00000000
00000000
00000000
00000000
00000000
00000000
00000000
00000000
00000000
00000000
,
01000000
00000000
00000000
01000000
00010000
00000000
00000000
00010000
,
00001000
00000000
00000000
00000000
00000000
00000000
00000000
00000000
00000000
00000000
00000000
00000000
00000000
00000000
00000000
00000000
00000100
00000000
00000000
00000000
00000000
00000000
00000000
00000000
00000000
00000000
00000000
00000000
00000000
00000000
00000000
00000000
00300010
00000000
00000000
00000000
00000000
00000000
00000000
00000000
00000000
00000000
00000000
00000000
00000000
00000000
00000000
00000000
0000000M
0000M000
000M0000
0M000000
00000000
00000000
00000000
00000000
00000020
00000000
00000000
00000000
00000000
00000000
00000000
00000000
,
00000100
00000000
00000000
00000100
00001000
00000000
00000000
00001000
,
00010000
00000000
00000000
00000000
00000000
00000000
00000000
00000000
00000000
00000000
00000000
00000000
00000000
00000000
00000000
00000000
00100000
00000000
00000000
00000000
00000000
00000000
00000000
00000000
00000000
00000000
00000000
00000000
00000000
00000000
00000000
00000000
01000030
00000000
00000000
00000000
00000000
00000000
00000000
00000000
00000000
00000000
00000000
00000000
00000000
00000000
00000000
00000000
M0000000
000M0000
0000M000
00000M00
00000000
00000000
00000000
00000000
02000000
00000000
00000000
00000000
00000000
00000000
00000000
00000000
,
00100000
00000000
00000000
00100000
00010000
00000000
00000000
00010000
,
00001000
00000000
00000000
00000000
00000000
00000000
00000000
00000000
00000000
00000000
00000000
00000000
00000000
00000000
00000000
00000000
00000010
00000000
00000000
00000000
00000000
00000000
00000000
00000000
00000000
00000000
00000000
00000000
00000000
00000000
00000000
00000000
03000100
00000000
00000000
00000000
00000000
00000000
00000000
00000000
00000000
00000000
00000000
00000000
00000000
00000000
00000000
00000000
0000000M
0000M000
000M0000
00M00000
00000000
00000000
00000000
00000000
00000200
00000000
00000000
00000000
00000000
00000000
00000000
00000000
,
00000010
00000000
00000000
00000320
00000001
00000000
00000000
00000032
,
00001000
00000000
00000103
00000000
00000010
00000110
00001001
00000000
,
00000001
00000000
00000000
00000100
00000000
00000000
00010000
00000000
00000000
01000000
00000000
00000000
10100000
00000000
00000000
00000000
,
10000000
00000000
00000000
01000000
00000000
00000000
00001000
00000000
00000000
00000100
00000000
00000000
00000011
00000000
00000000
00000000
,
00000001
00000000
00000000
00000010
00000000
00000000
00010000
00000000
00000000
00100000
00000000
00000000
11000000
00000000
00000000
00000000
,
20020000
00000000
00000000
30030000
,
10000000
00000000
00000000
00010000
00000000
00000000
00100000
00000000
00000000
00001000
00000000
00000000
00010000
00000000
00000000
00000000
00000000
01000000
00000000
00000000
00000000
00010000
00000000
00000000
,
00001000
00000000
00000000
00000000
00000000
00000000
00000000
00000000
00000000
00000000
00000000
00000000
00000000
00000000
00000000
00000000
00000000
00000000
00000000
00000000
00000000
00000000
00000000
00000000
00010000
00000000
00000000
00000000
00000000
00000000
00000000
00000000
00000000
00000000
00000000
00000000
00000000
00000000
00000000
00000000
00000000
00000000
00000000
00000000
00000000
00000000
00000000
00000000
00000010
00000000
00000000
00000000
00000000
00000000
00000000
00000000
00000000
00000000
00000000
00000000
00000000
00000000
00000000
00000000
00000000
00000000
00000000
00000000
00000000
00000000
00000000
00000000
00000000
00000000
00000000
00000000
00000000
00000000
00000000
00000000
00000000
00000000
00000000
00000000
00000000
00000000
00000000
00000000
00000100
00000000
00000000
00000000
00000000
00000000
00000000
00000000
00000000
00000000
00000000
00000000
00000000
00000000
00000000
00000000
00000000
00000000
00000000
00000000
00000000
00000000
00000000
00000000
00000000
00000000
00000000
00000000
00000000
00000000
00000000
00000000
00000000
00000000
00000000
00000000
00000000
00000000
00000000
00000000
00000000
00000000
00000000
00000000
00000000
00000000
00000000
00000000
00000000
00000000
00000000
00000000
00000000
00000000
00000000
00000000
000000M0
00000000
00000000
0M000000
00000000
00000000
0000M000
00000000
00000000
000M0000
00000000
00000000
00000000
00000000
00000000
00000000
00000000
00000000
00000000
00000000
00000000
00000000
00000000
00000000
00000000
00000000
00000000
00000000
00000000
00000000
00000000
00000000
00000000
00000000
00000000
00000000
00000000
00000000
00000000
00000000
00000000
00000000
00000000
00000000
00000000
00000000
00000000
00000000
,
00000001
00000000
00000000
00001000
00000000
00000000
00000010
00000000
00000000
00010000
00000000
00000000
00001000
00000000
00000000
00000000
00000000
00000100
00000000
00000000
00000000
00001000
00000000
00000000
,
00010000
00000000
00000000
00000000
00000000
00000000
00000000
00000000
00001000
00000000
00000000
00000000
00000000
00000000
00000000
00000000
01000000
00000000
00000000
00000000
00000000
00000000
00000000
00000000
00000000
00000000
00000000
00000000
00000000
00000000
00000000
00000000
00100000
00000000
00000000
00000000
00000000
00000000
00000000
00000000
10000000
00000000
00000000
00000000
00000000
00000000
00000000
00000000
1M010000
000000M0
00M00000
00000M00
00000000
00000000
00000000
00000000
00000000
00000000
00000000
00000000
00000000
00000000
00000000
00000000
,
10000000
00000000
00000000
01000000
00000000
00000000
00100000
00000000
00000000
00001000
00000000
00000000
00010000
00000000
00000000
00000000
00000000
00100000
00000000
00000000
00000000
00010000
00000000
00000000
,
00001000
00000000
00000000
00000000
00000000
00000000
00000000
00000000
00000000
00000000
00000000
00000000
00000000
00000000
00000000
00000000
00000000
00000000
00000000
00000000
00000000
00000000
00000000
00000000
00010000
00000000
00000000
00000000
00000000
00000000
00000000
00000000
00000000
00000000
00000000
00000000
00000000
00000000
00000000
00000000
00000000
00000000
00000000
00000000
00000000
00000000
00000000
00000000
00000100
00000000
00000000
00000000
00000000
00000000
00000000
00000000
00000000
00000000
00000000
00000000
00000000
00000000
00000000
00000000
00000000
00000000
00000000
00000000
00000000
00000000
00000000
00000000
00000000
00000000
00000000
00000000
00000000
00000000
00000000
00000000
00000000
00000000
00000000
00000000
00000000
00000000
00000000
00000000
00000010
00000000
00000000
00000000
00000000
00000000
00000000
00000000
00000000
00000000
00000000
00000000
00000000
00000000
00000000
00000000
00000000
00000000
00000000
00000000
00000000
00000000
00000000
00000000
00000000
00000000
00000000
00000000
00000000
00000000
00000000
00000000
00000000
00000000
00000000
00000000
00000000
00000000
00000000
00000000
00000000
00000000
00000000
00000000
00000000
00000000
00000000
00000000
00000000
00000000
00000000
00000000
00000000
00000000
00000000
00000000
00000M00
00000000
00000000
00M00000
00000000
00000000
0000M000
00000000
00000000
000M0000
00000000
00000000
00000000
00000000
00000000
00000000
00000000
00000000
00000000
00000000
00000000
00000000
00000000
00000000
00000000
00000000
00000000
00000000
00000000
00000000
00000000
00000000
00000000
00000000
00000000
00000000
00000000
00000000
00000000
00000000
00000000
00000000
00000000
00000000
00000000
00000000
00000000
00000000
,
00000001
00000000
00000000
00000100
00000000
00000000
00000010
00000000
00000000
00001000
00000000
00000000
00000001
00000000
00000000
00000010
00000000
00000001
00000000
00000000
00000000
00000100
00000000
00000000
,
00000010
00010000
00000100
00000000
,
00002002
00000003
00020000
00003000
,
20000000
00000000
30030000
00000000
00000000
01000000
00100000
00000000
,
20020000
30000000
00002000
00030000
,
00000002
00000000
00003003
00000000
00000100
00001000
00000010
00000000
,
00000220
00000300
00020000
00000030
,
00200000
00000000
00330000
00000000
00000000
10000000
01000000
00000000
,
02200000
03000000
00002000
00300000
,
00000020
00003000
00000000
00000030
,
00000001
00000000
00000000
00000000
00000000
00000000
00000000
00000000
00000000
00000000
00000000
00000000
00000000
00000000
00000000
00000000
00000100
00000000
00000000
00000000
00000000
00000000
00000000
00000000
00000010
00000000
00000000
00000000
00000000
00000000
00000000
00000000
00000000
00000000
00000000
00000000
00000000
00000000
00000000
00000000
00000000
00000000
00000000
00000000
00000000
00000000
00000000
00000000
00000100
00000000
00000000
00000000
00000000
00000000
00000000
00000000
00000000
00000000
00000000
00000000
00000000
00000000
00000000
00000000
00000000
00000000
00000000
00000000
00000000
00000000
00000000
00000000
00000000
00000000
00000000
00000000
00000000
00000000
00000000
00000000
00000000
00000000
00000000
00000000
00000000
00000000
00000000
00000100
00000000
00000000
00000000
00000000
00000000
00000000
00000000
00000000
00000000
00000000
00000000
00000000
00000000
00000000
00000000
00000000
00000000
00000000
00000000
00000000
00000000
00000000
00000000
00000001
00000000
00000000
00000000
00000000
00000000
00000000
00000000
00000000
00000000
00000000
00000000
00001000
00000000
00000000
00000000
00000000
00000000
00000000
00000000
00000000
00000000
00000000
00000000
00000000
00000000
00000000
00000000
00000000
00000000
00000000
00000000
00000000
00000000
00000000
00000000
00001001
00000000
00000000
00000000
00000000
00000000
00000000
00000000
00000000
00000000
00000000
00000000
00000000
00000000
00000000
00000000
00000000
00000000
00000000
00000000
00000000
00000000
00000000
00000000
00000000
00000000
00000000
00000000
00000000
00000000
00000000
00000000
00000000
00000000
00000000
00000000
00000000
00000000
00000000
00000000
00000000
00000000
00000000
00000000
00000000
,
00001000
00000000
00000000
00000001
00000000
00000000
00000100
00000000
00000000
00000010
00000000
00000000
00000100
00000000
00000000
00000000
00000000
00001000
00000000
00000000
00000000
00010000
00000000
00000000
,
00001000
00000000
00000000
00100000
00000000
00000000
01000000
00000000
00000000
00000000
00000000
01000000
00000000
00000000
00000000
00000000
00000000
00000000
10000000
00000000
00000000
00000000
00000000
00000000
,
00010000
00000000
00000000
10000000
00000000
00000000
01000000
00000000
00000000
00100000
00000000
00000000
01000000
00000000
00000000
00000000
00000000
00010000
00000000
00000000
00000000
00001000
00000000
00000000
,
00010000
00000000
00000000
00000000
00000000
00000000
00000010
00000000
00000000
00000000
00000000
00000000
00001000
00000000
00000000
00000000
00000000
00000000
00000000
00000000
00000000
00000000
00001000
00000000
00000000
00000000
00000000
00000004
00000000
00000000
00000000
00000000
00000000
00000000
00000000
00000000
00000000
00000000
00000000
00000000
00000000
00000000
00000000
00000000
00000000
00000003
00000000
00000000
,
00001000
00000000
00000000
00000001
00000000
00000000
00000010
00000000
00000000
00000100
00000000
00000000
00000010
00000000
00000000
00000000
00000000
00001000
00000000
00000000
00000000
00010000
00000000
00000000
,
00001000
00000000
00000000
01000000
00000000
00000000
00100000
00000000
00000000
00000000
00000000
00100000
00000000
00000000
00000000
01000000
00000000
00000000
10010000
00000000
00000000
00000000
00000000
00000000
,
10000000
00000000
00000000
01000000
00000000
00000000
00100000
00000000
00000000
00010000
00000000
00000000
10000000
00000000
00000000
00100000
00000000
10000000
00000000
00000000
00000000
01000000
00000000
00000000
,
00100000
00010000
10000000
00000000
,
10000000
00000000
00000000
00100000
00000000
00000000
00001000
00000000
00000000
00000010
00000000
00000000
00000101
00000000
00000000
00000000
,
00000001
00000000
00000000
00000010
00000000
00000000
00010000
00000000
00000000
00100000
00000000
00000000
11000000
00000000
00000000
00000000
,
10000000
00000000
00000000
01000000
00000000
00000000
00001000
00000000
00000000
00000100
00000000
00000000
00000011
00000000
00000000
00000000
,
00002002
00000000
00000000
00000000
,
00003003
00000000
00000000
00000000
;
