#VERSION:0.83;
#TITLE:Jump;
#SUBTITLE:;
#ARTIST:Kris Kross;
#TITLETRANSLIT:;
#SUBTITLETRANSLIT:;
#ARTISTTRANSLIT:;
#GENRE:Hip Hop;
#ORIGIN:;
#CREDIT:;
#BANNER:Jump.png;
#BACKGROUND:Jump-bg.png;
#PREVIEWVID:;
#JACKET:Jump-jacket.jpg;
#CDIMAGE:;
#DISCIMAGE:;
#LYRICSPATH:;
#CDTITLE:;
#MUSIC:Jump.ogg;
#OFFSET:-0.043000;
#SAMPLESTART:9.602000;
#SAMPLELENGTH:8.382000;
#SELECTABLE:YES;
#DISPLAYBPM:102.000000;
#BPMS:0.000=102.000,
60.000=90000.000,
63.000=204.000,
64.000=102.000;
#STOPS:63.000=2.057;
#DELAYS:;
#WARPS:;
#TIMESIGNATURES:0.000=4=4;
#TICKCOUNTS:0.000=4;
#COMBOS:0.000=1;
#SPEEDS:0.000=1.000=0.000=0;
#SCROLLS:0.000=1.000;
#FAKES:;
#LABELS:0.000=Song Start;
#BGCHANGES:-1.000=Jump-bg.png=1.000=0=0=1=====,
-0.073=Jump.avi=1.000=0=0=0=StretchNoLoop==CrossFade_Faster==,
99999=-nosongbg-=1.000=0=0=0 // don't automatically add -songbackground-
;
#KEYSOUNDS:;
#ATTACKS:
;

//---------------dance-double - Haley Halcyon----------------
#NOTEDATA:;
#CHARTNAME:Haley Halcyon;
#STEPSTYPE:dance-double;
#DESCRIPTION:Haley Halcyon;
#CHARTSTYLE:;
#DIFFICULTY:Challenge;
#METER:16;
#RADARVALUES:0.579944,0.741417,0.474982,0.534355,0.820086,547.000000,483.000000,64.000000,72.000000,228.000000,0.000000,0.000000,0.000000,0.000000,0.579944,0.741417,0.474982,0.534355,0.820086,547.000000,483.000000,64.000000,72.000000,228.000000,0.000000,0.000000,0.000000,0.000000;
#CREDIT:Haley Halcyon;
#DISPLAYBPM:102.000000;
#NOTES:
00000000
00000000
00000000
00000000
,
00000000
00000000
00000000
00000000
,
00000000
00000000
00000000
00000000
,
00000000
00000000
00000000
00000000
00000000
00000000
00000000
00000000
00000000
00000000
00000000
00000000
00000000
00000000
00000000
00001000
00000000
00010000
00100000
00000000
01000000
00020000
00000000
20000000
,
30030000
00000000
00000000
MMMM0000
00000000
00000000
10010000
00000000
00000000
MMMM0000
00000000
00000000
10010000
00000000
10000000
01000000
00000000
00000000
00010000
00000000
00001000
00000100
00000000
00000002
,
00001003
00000000
00000000
0000MMMM
00000000
00000000
00001001
00000000
00000000
0000MMMM
00000000
00000000
00001001
00000000
00000001
00000100
00000000
00001000
00010000
00000000
00001000
01000000
00000000
00020000
,
10030000
00000000
00000000
MMMM0000
00000000
00000000
10010000
00000000
00000000
MMMM0000
00000000
00000000
10010000
00000000
01010000
00000000
00000000
00011000
00000000
00000000
00010000
00000100
00000000
00002000
,
00003001
00000000
0000MMMM
00000000
00001001
00000000
0000MMMM
00000000
00001001
00000000
00000000
00000011
00000000
00000001
00000010
00000100
,
00020000
00000000
00031000
00000000
00001000
01000000
00010000
00100000
02000000
00000000
13000000
00100000
02000000
00000000
03010000
01000000
,
00100000
00000000
01000000
00001000
00100000
00000000
01000000
00010000
00001000
00000100
00000010
00000100
00001000
00010000
00000200
00000000
,
00000300
00001000
00000010
00002000
00010000
00000000
00010000
00000000
00003010
00010000
00000100
00000010
00000000
00000010
00001000
00000000
,
00000000
00000000
00001000
00000000
00010000
00000000
00001000
00000000
00100000
00000000
00001000
00000000
01000000
00000000
00000010
00000000
00010000
00000000
00000100
00000000
00100000
00000000
00010000
00000000
02000000
00000000
00200000
03300000
MMMM0000
00000000
00000000
00000000
,
00000000
00010000
00000000
10000000
00000000
00100000
00010000
00001000
00000000
00010000
00000100
00000010
00000000
00000010
00000001
00000000
,
00000000
00000001
00000100
00000000
00001000
00000100
00000001
00001000
00000100
00000001
00000100
00001000
00000020
00000000
00000030
00000000
,
00000000
00000010
00001000
00000010
00010000
00000100
00000010
00001000
00010000
00000000
00100000
00010000
00001000
00010000
00100000
00000000
,
20000000
00000000
00000000
00000000
,
30000000
00010000
01000000
00000000
01000000
00001000
00100000
00010000
01000000
10000000
01000000
00010000
00100000
01000000
00010000
01000000
,
00000000
01000000
00100000
00001000
00000000
00010000
00001000
00000100
00000000
00000110
00000000
00000010
00001000
00000100
00010000
00000100
,
00000000
00000100
00010000
00001000
01000000
00001000
00100000
00000000
01100000
00000000
01000000
10000000
00200000
00000000
00000000
01300000
,
00000000
01000000
00001000
00010000
00000010
00000000
00000100
00001000
00010000
00000000
00000100
00000010
00000002
00000000
00002000
00000000
,
00003003
00000000
00000000
0000MMMM
00000000
00000000
00001001
00000000
00000000
0000MMMM
00000000
00000000
00001001
00000000
00000001
00010000
00000000
00000000
00001000
00000000
00001000
20000000
00000000
00020000
,
30030000
00000000
00000000
MMMM0000
00000000
00000000
10010000
00000000
00000000
MMMM0000
00000000
00000000
10010000
00000000
10000000
00001000
00000000
00001000
00010000
00000000
00010000
00000002
00000000
00002000
,
00003003
00000000
00000000
0000MMMM
00000000
00000000
00001001
00000000
00000000
0000MMMM
00000000
00000000
00001001
00000000
00010001
00000000
00000000
00011000
00000000
00000000
00001000
20000000
00000000
00020000
,
30030000
00000000
MMMM0000
00000000
10010000
00000000
MMMM0000
00000000
10010000
00000000
00020000
20000000
30030000
00000000
20000000
00020000
,
30030000
00000000
00000000
MMMM0000
00000000
00000000
10010000
00000000
00000000
MMMM0000
00000000
00000000
10010000
00000000
10000000
00001000
00000000
00000000
00010000
00000000
00010000
00000002
00000000
00002000
,
00003003
00000000
00000000
0000MMMM
00000000
00000000
00001001
00000000
00000000
0000MMMM
00000000
00000000
00001001
00000000
00000001
00010000
00000000
00010000
00001000
00000000
00001000
20000000
00000000
00020000
,
30030000
00000000
00000000
MMMM0000
00000000
00000000
10010000
00000000
00000000
MMMM0000
00000000
00000000
10010000
00000000
10001000
00000000
00000000
00011000
00000000
00000000
00010000
00000002
00000000
00002000
,
00003003
0000MMMM
00001001
0000MMMM
00002002
00000000
00003003
00000000
,
00000001
00000000
00000100
00000000
00000010
00000000
00001000
00000000
00000000
00000010
00000000
00000000
00200000
00000000
00000000
00300000
00000000
00000000
00001000
00000000
00000000
00010000
00000000
00000000
00100000
00000000
00000000
00010000
00000000
00000000
00001000
00000000
00000000
00010000
00000000
00000000
00100000
00000000
00000000
01000000
00000000
00000000
00010000
00000000
00000000
00000000
00000000
00000000
,
10000000
00000000
01000000
00000000
00100000
00000000
00010000
00000000
00000000
00100000
00000000
00000000
00000020
00000000
00000000
00000030
00000000
00000000
00010000
00000000
00000000
00001000
00000000
00000000
00000010
00000000
00000000
00001000
00000000
00000000
00010000
00000000
00000000
00001000
00000000
00000000
00000010
00000000
00000000
00000100
00000000
00000000
00001000
00000000
00000000
00000000
00000000
00000000
,
00000001
00000000
00000010
00000000
00000100
00000000
00001000
00000000
00000000
00000100
00000000
00000000
02000000
00000000
00000000
03000000
00000000
00000000
00001000
00000000
00000000
00010000
00000000
00000000
01000000
00000000
00000000
00010000
00000000
00000000
00001000
00000000
00000000
00010000
00000000
00000000
01000000
00000000
00000000
00100000
00000000
00000000
00010000
00000000
00000000
00000000
00000000
00000000
,
10000000
00000000
00100000
00000000
01000000
00000000
00010000
00000000
00000000
01000000
00000000
00000000
00000200
00000000
00000000
00000300
00000000
00000000
00010000
00000000
00000000
00001000
00000000
00000000
00000020
00000000
00000000
00000000
00000000
00000000
00000031
00000000
00000000
00000000
00000000
00000000
00000002
00000000
00000000
00000000
00000000
00000000
00001003
00000000
00000000
00000000
00000000
00000000
,
00000001
00000000
00000100
00000000
00000001
00000000
00001000
00000000
00000100
00000000
00001000
00000000
00000001
00000000
00000100
00000000
00000001
00000000
00001000
00000000
00000100
00000000
00001000
00000000
00000001
00000000
00000000
00000000
00000000
00000000
00001000
00000000
00000000
00000100
00000000
00000000
00000000
00000000
00000000
00000100
00000000
00000000
00010000
00000000
00000000
00001000
00000000
00000000
,
00100000
00001000
00010000
00000010
00010000
00001000
00100000
00001000
00010000
00000010
00010000
00001000
00200000
00000000
00000000
00310000
00000000
00000000
00020000
00000000
00000000
10030000
00000000
00000000
,
10000000
00000000
01000000
00000000
10000000
00000000
00010000
00000000
01000000
00000000
00010000
00000000
10000000
00000000
01000000
00000000
10000000
00000000
00010000
00000000
01000000
00000000
00010000
00000000
10000000
00000000
00000000
00000000
00000000
00000000
00010000
00000000
00000000
01000000
00000000
00000000
00000000
00000000
00000000
01000000
00000000
00000000
00001000
00000000
00000000
00010000
00000000
00000000
,
00000010
00000000
00010000
00000000
00001000
00000000
00100000
00000000
00001000
00000000
00010000
00000000
00000010
00000000
00010000
00000000
00001000
00000000
00100000
00000000
00001000
00000000
00010000
00000000
00000020
00000000
00000000
00000000
00000000
00000000
00001030
00000000
00000000
00000100
00000000
00000000
00000001
00000000
00000000
00000100
00000000
00000000
00002000
00000000
00000000
00000002
00000000
00000000
,
00003003
00000000
00000000
0000MMMM
00000000
00000000
00001001
00000000
00000000
0000MMMM
00000000
00000000
00001001
00000000
00000001
00000100
00000000
00000000
00001000
00000000
00010000
01000000
00000000
20000000
,
30010000
00000000
00000000
MMMM0000
00000000
00000000
10010000
00000000
00000000
MMMM0000
00000000
00000000
10010000
00000000
10000000
01000000
00000000
00010000
00001000
00000000
00000100
00000010
00000000
00002000
,
00003001
00000000
00000000
0000MMMM
00000000
00000000
00001001
00000000
00000000
0000MMMM
00000000
00000000
00001001
00000000
00000101
00000000
00000000
00010010
00000000
00000000
00001000
01000000
00000000
00020000
,
10030000
00000000
00000000
MMMM0000
00000000
00000000
10010000
00000000
00000000
MMMM0000
00000000
00000000
10010000
00000000
00000000
00020000
00000000
20000000
30030000
00000000
00000000
20000000
00000000
00020000
,
30030000
00000000
00000000
MMMM0000
00000000
00000000
10010000
00000000
00000000
MMMM0000
00000000
00000000
10010000
00000000
10000000
01000000
00000000
00000000
00010000
00000000
00001000
00000100
00000000
00000002
,
00001003
00000000
00000000
0000MMMM
00000000
00000000
00001001
00000000
00000000
0000MMMM
00000000
00000000
00001001
00000000
00000001
00000100
00000000
00001000
00010000
00000000
01000000
00100000
00000000
00020000
,
10030000
00000000
00000000
MMMM0000
00000000
00000000
10010000
00000000
00000000
MMMM0000
00000000
00000000
10010000
00000000
11000000
00000000
00000000
00101000
00000000
00000000
00010000
00000100
00000000
00002000
,
00003001
00000000
00000000
0000MMMM
00000000
00000000
00001001
00000000
00000000
0000MMMM
00000000
00000000
00001001
00000000
00000000
00000200
00000000
00002000
00003300
00000000
00000000
00020000
00000000
00002000
,
00033000
00000000
00000000
0000MMMM
00000000
00000000
00001000
00000000
00000000
0000MMMM
00000000
00000000
00001000
00000000
00001000
00010000
00000000
00000000
00000100
00000000
01000000
00001000
00000000
00020000
,
00030000
00000000
00000000
MMMM0000
00000000
00000000
00010000
00000000
00000000
MMMM0000
00000000
00000000
00010000
00000000
00010000
00000100
00000000
00000100
01000000
00000000
00000100
00010000
00000000
00002000
,
00003000
00000000
00000000
0000MMMM
00000000
00000000
00001000
00000000
00000000
0000MMMM
00000000
00000000
00001000
00000000
00101000
00000000
00000000
00010010
00000000
00000000
00100000
00001000
00000000
00020000
,
00030000
00000000
00000000
MMMM0000
00000000
00000000
00010000
00000000
00000000
MMMM0000
00000000
00000000
00000000
00000000
00000000
00000020
00000000
00002000
00003030
00000000
00000000
00002000
00000000
00000002
,
00003003
00000000
00000000
0000MMMM
00000000
00000000
00000110
00000000
00000000
0000MMMM
00000000
00000000
00001001
00000000
00000001
00000010
00000000
00000000
00001000
00000000
00010000
00100000
00000000
20000000
,
30010000
00000000
00000000
MMMM0000
00000000
00000000
01100000
00000000
00000000
MMMM0000
00000000
00000000
10010000
00000000
10000000
00100000
00000000
00100000
00010000
00000000
00001000
00000010
00000000
00000002
,
00001003
00000000
00000000
0000MMMM
00000000
00000000
00000110
00000000
00000000
0000MMMM
00000000
00000000
00001001
00000000
00001000
00000000
00000000
00010100
00000000
00000000
00010000
01000000
00000000
20000000
,
30010000
00000000
00000000
MMMM0000
00000000
00000000
01100000
00000000
00000000
MMMM0000
00000000
00000000
10010000
00000000
00000000
10000000
00000000
01000000
00200000
00000000
00000000
00000200
00000000
00000000
,
00000000
00000000
00000000
00000000
,
00000000
00000000
00000000
00000000
,
00300300
00000000
00000000
00000000
;

//---------------dance-double - Haley Halcyon----------------
#NOTEDATA:;
#CHARTNAME:;
#STEPSTYPE:dance-double;
#DESCRIPTION:Haley Halcyon;
#CHARTSTYLE:;
#DIFFICULTY:Medium;
#METER:8;
#RADARVALUES:0.356236,0.380728,0.467560,0.846061,0.063084,336.000000,273.000000,63.000000,114.000000,228.000000,0.000000,0.000000,0.000000,0.000000,0.356236,0.380728,0.467560,0.846061,0.063084,336.000000,273.000000,63.000000,114.000000,228.000000,0.000000,0.000000,0.000000,0.000000;
#CREDIT:;
#DISPLAYBPM:102.000000;
#NOTES:
00000000
00000000
00000000
00000000
,
00000000
00000000
00000000
00000000
,
00000000
00000000
00000000
00000000
,
00000000
00000000
00000000
00000000
00000000
00001000
01000000
00010000
,
20020000
30030000
MMMM0000
00000000
20020000
30030000
MMMM0000
00000000
10010000
00000000
00100000
00000000
01000000
00000000
10000000
00000000
,
20020000
30030000
MMMM0000
00000000
20020000
30030000
MMMM0000
00000000
10000000
00000000
00100000
00000000
01000000
00000000
00010000
00000000
,
20020000
30030000
MMMM0000
00000000
20020000
30030000
MMMM0000
00000000
00010000
00000000
00100000
00000000
01000000
00000000
10000000
00000000
,
20020000
30030000
MMMM0000
00000000
20020000
30030000
MMMM0000
00000000
10010000
00000000
00000000
00000000
00000000
00000000
00000000
00000000
,
10000000
00100000
01000000
00010000
00100000
00001000
00010000
00000000
,
00000100
00010000
00000010
00010000
00001000
00100000
00010000
01000000
,
00000000
00000000
01000000
00000000
00011000
00000000
00011000
00000000
00010000
00000000
00000000
00000010
00000000
00000000
00000100
00000000
,
00000000
00000000
00000001
00000000
00001000
00000000
00000000
00001000
00000000
00000000
00002000
00000000
00000002
00003003
0000MMMM
00000000
,
00000000
00000100
00000000
00000001
00000000
00000010
00000000
00000001
00000000
00001000
00000000
00000100
00000000
00000000
00010000
00000000
,
00000000
00000000
00001000
00000000
00100000
00000000
00000000
00100000
00000000
00000000
00100000
00000000
00010000
00000000
00000000
00000000
,
00000000
10000000
00010000
01000000
00100000
10000000
01000000
00100000
,
00002000
00000000
00000000
00000000
,
00003000
00000000
00010000
00000000
00001000
00000000
00000000
01000000
00000000
01000000
00000000
00000000
00010000
00000000
00100000
00000000
,
00000000
00001000
00000000
00001000
00000000
00010000
00000000
00010000
00000000
00000100
00000000
00000000
00001000
00000000
00000001
00000000
,
00000000
00000000
00000010
00000000
00000100
00000000
00001000
00000000
00000010
00000000
00000100
00000000
00002000
00000000
00000000
00013000
,
00000000
00010000
01000000
00100000
00010000
01000000
00100000
20000000
,
00020000
30030000
MMMM0000
00000000
20020000
30030000
MMMM0000
00000000
00010000
00000000
00100000
00000000
01000000
00000000
10000000
00000000
,
20020000
30030000
MMMM0000
00000000
20020000
30030000
MMMM0000
00000000
10000000
00000000
00100000
00000000
01000000
00000000
00010000
00000000
,
20020000
30030000
MMMM0000
00000000
20020000
30030000
MMMM0000
00000000
00010000
00000000
00100000
00000000
01000000
00000000
10000000
00000000
,
20020000
30030000
MMMM0000
00000000
20020000
30030000
MMMM0000
00000000
00000000
00000000
10000000
00000000
00000000
00000000
00010000
00000000
,
00000000
00000000
MMMM0000
00000000
20020000
30030000
MMMM0000
00000000
10000000
00000000
01000000
00000000
00100000
00000000
00010000
00000000
,
20020000
30030000
MMMM0000
00000000
20020000
30030000
MMMM0000
00000000
00010000
00000000
01000000
00000000
00100000
00000000
10000000
00000000
,
20020000
30030000
MMMM0000
00000000
20020000
30030000
MMMM0000
00000000
10000000
00000000
01000000
00000000
00100000
00000000
00010000
00000000
,
20020000
30030000
MMMM0000
00000000
20020000
30030000
MMMM0000
00000000
10010000
00000000
00000000
00000000
00000000
00000000
00000000
00000000
,
10000000
01000000
00100000
00001000
00010000
00000010
00001000
00000000
,
00000001
00000100
00000010
00010000
00001000
00100000
00010000
00000000
,
10000000
01000000
00010000
00001000
00000010
00000001
00001000
00000000
,
00000001
00000100
00001000
00010000
00100000
10000000
00010000
00000000
,
00010000
01000000
10000000
01000000
00001000
00010000
00000001
00000000
,
00001000
00000100
00000001
00000100
00010000
00001000
10000000
00000000
,
00010000
01000000
10000000
01000000
00001000
00010000
00000001
00000000
,
00001000
00000100
00000001
00000100
00001000
00000000
00000000
00000000
,
00002002
00003003
0000MMMM
00000000
00002002
00003003
0000MMMM
00000000
00001000
00000000
00000010
00000000
00000100
00000000
00000001
00000000
,
00002002
00003003
0000MMMM
00000000
00002002
00003003
0000MMMM
00000000
00000001
00000000
00000010
00000000
00000100
00000000
00001000
00000000
,
00002002
00003003
0000MMMM
00000000
00002002
00003003
0000MMMM
00000000
00001000
00000000
00000010
00000000
00000100
00000000
00000001
00000000
,
00002002
00003003
0000MMMM
00000000
00002002
00003003
0000MMMM
00000000
00000000
00000000
00000001
00000000
00000000
00000000
00001000
00000000
,
00000000
00000000
0000MMMM
00000000
00002002
00003003
0000MMMM
00000000
00000001
00000000
00000100
00000000
00000010
00000000
00001000
00000000
,
00002002
00003003
0000MMMM
00000000
00002002
00003003
0000MMMM
00000000
00001000
00000000
00000100
00000000
00000010
00000000
00000001
00000000
,
00002002
00003003
0000MMMM
00000000
00002002
00003003
0000MMMM
00000000
00000001
00000000
00000100
00000000
00000010
00000000
00001000
00000000
,
00002002
00003003
0000MMMM
00000000
00002002
00003003
0000MMMM
00000000
00001001
00000000
00010000
00000000
00001000
00000000
20000000
00000000
,
00020000
30030000
MMMM0000
00000000
02200000
03300000
MMMM0000
00000000
10010000
00000000
00000000
00000000
00000000
00000000
00000000
00000000
,
20020000
30030000
MMMM0000
00000000
02200000
03300000
MMMM0000
00000000
10010000
00000000
00000000
00000000
00000000
00000000
00000000
00000000
,
20020000
30030000
MMMM0000
00000000
02200000
03300000
MMMM0000
00000000
10010000
00000000
00000000
00000000
00000000
00000000
00000000
00000000
,
20020000
30030000
MMMM0000
00000000
02200000
03300000
MMMM0000
00000000
10010000
00000000
00000000
00000000
00000000
00000000
00000000
00000000
,
20020000
30030000
MMMM0000
00000000
02200000
03300000
MMMM0000
00000000
10000000
00000000
01000000
00000000
00010000
00000000
01000000
00000000
,
20020000
30030000
MMMM0000
00000000
02200000
03300000
MMMM0000
00000000
10000000
00000000
01000000
00000000
00010000
00000000
01000000
00000000
,
20020000
30030000
MMMM0000
00000000
02200000
03300000
MMMM0000
00000000
00010000
00000000
01000000
00000000
10000000
00000000
01000000
00000000
,
20020000
30030000
MMMM0000
00000000
02200000
03300000
MMMM0000
00000000
10010000
00000000
00000000
00000000
02000000
00000000
00200000
00000000
,
00000000
00000000
00000000
00000000
,
00000000
00000000
00000000
00000000
,
03300000
00000000
00000000
00000000
;

//---------------dance-double - Haley Halcyon----------------
#NOTEDATA:;
#CHARTNAME:;
#STEPSTYPE:dance-double;
#DESCRIPTION:Haley Halcyon;
#CHARTSTYLE:;
#DIFFICULTY:Hard;
#METER:12;
#RADARVALUES:0.449536,0.480919,0.504668,0.430452,0.423031,424.000000,356.000000,68.000000,58.000000,228.000000,0.000000,0.000000,0.000000,0.000000,0.449536,0.480919,0.504668,0.430452,0.423031,424.000000,356.000000,68.000000,58.000000,228.000000,0.000000,0.000000,0.000000,0.000000;
#CREDIT:;
#DISPLAYBPM:102.000000;
#NOTES:
// measure 0
00000000
00000000
00000000
00000000
,  // measure 1
00000000
00000000
00000000
00000000
,  // measure 2
00000000
00000000
00000000
00000000
,  // measure 3
00000000
00000000
00000000
00000000
00000000
00000000
00000000
00000000
00000000
00000000
00000000
00000000
00000000
00000000
00000000
00001000
00000000
00001000
01000000
00000000
01000000
00020000
00000000
20000000
,  // measure 4
30030000
00000000
00000000
MMMM0000
00000000
00000000
10010000
00000000
00000000
MMMM0000
00000000
00000000
10010000
00000000
00010000
00100000
00000000
00000000
00000010
00000000
00000010
00002000
00000000
00000002
,  // measure 5
00003003
00000000
00000000
0000MMMM
00000000
00000000
00001001
00000000
00000000
0000MMMM
00000000
00000000
00001001
00000000
00001000
00000010
00000000
00000000
00100000
00000000
00100000
00020000
00000000
20000000
,  // measure 6
30030000
00000000
00000000
MMMM0000
00000000
00000000
10010000
00000000
00000000
MMMM0000
00000000
00000000
10010000
00000000
00010000
00000000
00000000
00100000
00000000
00000000
00000010
00002000
00000000
00000002
,  // measure 7
00003003
00000000
0000MMMM
00000000
00001001
00000000
0000MMMM
00000000
00001001
00000000
00000000
00000001
00000000
00000001
00001000
00000000
,  // measure 8
00000100
00000000
00000010
00000000
00000100
00001000
00000100
00000000
00020000
00000000
00030010
00001000
00000002
00000000
00001003
00000010
,  // measure 9
00010000
00000000
00001000
00000000
00000010
00000000
00001000
00000000
00010000
00001000
00010000
00000000
00100000
00000000
01000000
00000000
,  // measure 10
00000000
00010000
01000000
00000000
01010000
00000000
01010000
00000000
00010000
01000000
00010000
01000000
00000000
00000000
10100000
00000000
,  // measure 11
00000000
10000000
01000000
00000000
00100000
00000000
00010000
01000000
00000000
00010000
00100000
00000000
20020000
30030000
MMMM0000
00000000
,  // measure 12
00010000
01000000
00000000
00010000
00000000
00100000
00000000
00001000
00000000
00010000
00000000
01000000
00000000
01000000
00100000
00000000
,  // measure 13
00000000
00001000
00010000
00000000
00100000
00000000
00100000
01000000
00000000
01000000
00100000
00000000
00020000
00000000
00000000
00000000
,  // measure 14
00030000
00001000
00010000
00000000
00001000
00000000
00000010
00000000
00000001
00000000
00000100
00000010
00001000
00000010
00000100
00000000
,  // measure 15
00000002
00000000
00000000
00000000
,  // measure 16
00000003
00001000
00000001
00000000
00000010
00000000
00000010
00000001
00000100
00000010
00000000
00000010
00001000
00000100
00001000
00000100
,  // measure 17
00000000
00010000
00000000
00000010
00000000
00001000
00000000
00000100
00000000
00000010
00000000
00000010
00000001
00000100
00000001
00000100
,  // measure 18
00000000
00000010
00001000
00000000
00000100
00000000
00010000
00000000
00010100
00000000
00011000
00000000
02000000
00000000
00000000
03010000
,  // measure 19
00000000
00010000
00100000
00000000
10000000
00000000
00100000
00000000
00010000
00000000
01000000
00000000
00100000
00000000
20000000
00000000
,  // measure 20
30010000
00000000
00000000
MMMM0000
00000000
00000000
10010000
00000000
00000000
MMMM0000
00000000
00000000
10010000
00000000
00010000
01000000
00000000
00000000
00000100
00000000
00000100
00002000
00000000
00000002
,  // measure 21
00003003
00000000
00000000
0000MMMM
00000000
00000000
00001001
00000000
00000000
0000MMMM
00000000
00000000
00001001
00000000
00001000
00000100
00000000
00000000
01000000
00000000
01000000
00020000
00000000
20000000
,  // measure 22
30030000
00000000
00000000
MMMM0000
00000000
00000000
10010000
00000000
00000000
MMMM0000
00000000
00000000
10010000
00000000
00010000
00000000
00000000
01000000
00000000
00000000
00000100
00002000
00000000
00000002
,  // measure 23
00003003
0000MMMM
00001001
0000MMMM
00001001
00000010
00000000
00000010
,  // measure 24
00001001
00000000
00000000
0000MMMM
00000000
00000000
00001001
00000000
00000000
0000MMMM
00000000
00000000
00001001
00000000
00000001
00010000
00000000
00000000
00001000
00000000
00001000
10000000
00000000
20000000
,  // measure 25
30010000
00000000
00000000
MMMM0000
00000000
00000000
10010000
00000000
00000000
MMMM0000
00000000
00000000
10010000
00000000
10000000
00001000
00000000
00000000
00010000
00000000
00010000
00000001
00000000
00000002
,  // measure 26
00001003
00000000
00000000
0000MMMM
00000000
00000000
00001001
00000000
00000000
0000MMMM
00000000
00000000
00001001
00000000
00000001
00000000
00000000
00010000
00000000
00000000
00001000
10000000
00000000
20000000
,  // measure 27
30010000
MMMM0000
10010000
MMMM0000
20020000
00000000
30030000
00000000
,  // measure 28
00100000
00000000
00010000
01000000
00001000
00000000
00010000
00001000
00000010
00000000
00001000
00000000
00010000
00000000
00000000
00000000
,  // measure 29
00000010
00000000
00001000
00000100
00010000
00000000
00001000
00010000
00100000
00000000
00010000
00000000
00001000
00000000
00000000
00000000
,  // measure 30
00100000
00000000
00010000
01000000
00001000
00000000
00010000
00001000
00000010
00000000
00001000
00000000
00010000
00000000
00000000
00000000
,  // measure 31
00000010
00000000
00001000
00000100
00010000
00000000
00001000
00010000
00200000
00000000
00000000
00000000
00300000
00000000
01020000
00000000
,  // measure 32
00100000
01000000
00100000
01000000
00100000
01030000
00000000
21000000
,  // measure 33
00100000
01000000
00100000
01000000
00100000
31000000
00000000
02010000
,  // measure 34
10000000
00010000
10000000
00010000
10000000
03010000
00000000
00210000
,  // measure 35
10000000
00010000
10000000
00010000
10000000
00310000
00000000
20020000
,  // measure 36
30030000
00000000
00000000
MMMM0000
00000000
00000000
10010000
00000000
00000000
MMMM0000
00000000
00000000
10010000
00000000
00010000
00100000
00000000
00000000
00000010
00000000
00000010
00002000
00000000
00000002
,  // measure 37
00003003
00000000
00000000
0000MMMM
00000000
00000000
00001001
00000000
00000000
0000MMMM
00000000
00000000
00001001
00000000
00001000
00000010
00000000
00000000
00100000
00000000
00100000
00020000
00000000
20000000
,  // measure 38
30030000
00000000
00000000
MMMM0000
00000000
00000000
10010000
00000000
00000000
MMMM0000
00000000
00000000
10010000
00000000
00010000
00000000
00000000
00100000
00000000
00000000
00000010
00002000
00000000
00000002
,  // measure 39
00003003
0000MMMM
00001001
0000MMMM
00001001
00000100
00000000
00000100
,  // measure 40
00001001
00000000
00000000
0000MMMM
00000000
00000000
00001001
00000000
00000000
0000MMMM
00000000
00000000
00001001
00000000
00000001
00010000
00000000
00000000
00001000
00000000
00001000
10000000
00000000
20000000
,  // measure 41
30010000
00000000
00000000
MMMM0000
00000000
00000000
10010000
00000000
00000000
MMMM0000
00000000
00000000
10010000
00000000
10000000
00001000
00000000
00000000
00010000
00000000
00010000
00000001
00000000
00000002
,  // measure 42
00001003
00000000
00000000
0000MMMM
00000000
00000000
00001001
00000000
00000000
0000MMMM
00000000
00000000
00001001
00000000
00000001
00000000
00000000
00010000
00000000
00000000
00001000
10000000
00000000
20000000
,  // measure 43
30010000
MMMM0000
10010000
MMMM0000
10010000
02100000
03000000
00012000
,  // measure 44
00003000
0000MMMM
00001000
0000MMMM
00001000
00000000
00021000
00000000
,  // measure 45
00030000
MMMM0000
00010000
MMMM0000
00010000
00000000
00012000
00000000
,  // measure 46
00003000
0000MMMM
00001000
0000MMMM
00001000
00000000
00021000
00000000
,  // measure 47
00030000
MMMM0000
00010000
MMMM0000
00010000
00001020
00000030
00002001
,  // measure 48
00003000
00000000
00000000
0000MMMM
00000000
00000000
00001001
00000000
00000000
0000MMMM
00000000
00000000
00001001
00000000
00001000
00000010
00000000
00000000
00100000
00000000
00100000
00020000
00000000
20000000
,  // measure 49
30030000
00000000
00000000
MMMM0000
00000000
00000000
10010000
00000000
00000000
MMMM0000
00000000
00000000
10010000
00000000
00010000
00100000
00000000
00000000
00000010
00000000
00000010
00002000
00000000
00000002
,  // measure 50
00003003
00000000
00000000
0000MMMM
00000000
00000000
00001001
00000000
00000000
0000MMMM
00000000
00000000
00001001
00000000
00001000
00000000
00000000
00000010
00000000
00000000
00100000
00020000
00000000
20000000
,  // measure 51
30030000
00000000
MMMM0000
00000000
10010000
00000000
MMMM0000
00000000
10010000
00000000
00000000
01000000
00002000
00000000
00200000
00000000
,  // measure 52
00000000
00000000
00000000
00000000
,  // measure 53
00000000
00000000
00000000
00000000
,  // measure 54
00303000
00000000
00000000
00000000
;
