#VERSION:0.83;
#TITLE:I Lose Control;
#SUBTITLE:;
#ARTIST:U-hey Seta;
#TITLETRANSLIT:;
#SUBTITLETRANSLIT:;
#ARTISTTRANSLIT:;
#GENRE:;
#CREDIT:Telperion;
#MUSIC:I Lose Control.ogg;
#BANNER:I Lose Control-bn.png;
#BACKGROUND:I Lose Control-bg.png;
#CDTITLE:;
#SAMPLESTART:29.025;
#SAMPLELENGTH:28.444;
#SELECTABLE:YES;
#OFFSET:-0.127;
#BPMS:0.000=135.000;
#STOPS:;
#SPEEDS:0.000=1.000=0.000=0,
133.000=0.200=0.000=0,
145.000=0.700=4.000=0,
181.000=1.000=32.000=0
;
#SCROLLS:0.000=1.000,
65.000=0.500,
68.000=1.500,
68.250=1.200,
68.500=0.800,
68.750=0.500,
69.000=1.000,
85.000=0.500,
85.250=0.800,
85.500=1.200,
85.750=1.500,
86.000=1.000,
100.000=1.500,
100.250=1.200,
100.500=0.800,
100.750=0.500,
101.000=1.000,
117.000=0.500,
117.250=0.800,
117.500=1.200,
117.750=1.500,
118.000=1.000,
132.000=1.500,
132.250=1.200,
132.500=0.800,
132.750=0.500,
133.000=1.000,
241.000=0.500,
244.000=1.500,
244.250=1.200,
244.500=0.800,
244.750=0.500,
245.000=1.000,
261.000=0.500,
261.250=0.800,
261.500=1.200,
261.750=1.500,
262.000=1.000,
276.000=1.500,
276.250=1.200,
276.500=0.800,
276.750=0.500,
277.000=1.000,
293.000=0.500,
293.250=0.800,
293.500=1.200,
293.750=1.500,
294.000=1.000,
308.000=1.500,
308.250=1.200,
308.500=0.800,
308.750=0.500,
309.000=1.000
;
#TICKCOUNTS:0.000=4;
#TIMESIGNATURES:0.000=4=4;
#LABELS:0.000=Song Start;
#COMBOS:0.000=1;
#ORIGIN:;
#PREVIEWVID:;
#JACKET:I Lose Control-jacket.png;
#CDIMAGE:;
#DISCIMAGE:I Lose Control-bg-fs.png;
#BGCHANGES:0.896=I Lose Control.avi=1.000=0=0=1===CrossFade_Fastest==,
99999.000=-nosongbg-=1.000=0=0=0=StretchNoLoop====
;
#FGCHANGES:;

//--------------- dance-double - Telperion ----------------
#NOTEDATA:;
#STEPSTYPE:dance-double;
#DESCRIPTION:Telperion;
#DIFFICULTY:Hard;
#METER:14;
#RADARVALUES:0.572049,0.68624,0.300668,0.396335,0.481752,586,542,44,58,0,0,0,0,0,0.572049,0.68624,0.300668,0.396335,0.481752,586,542,44,58,0,0,0,0,0;
#CHARTNAME:Telperion;
#CHARTSTYLE:;
#CREDIT:Telperion;
#NOTES:
00000000
00000000
00000000
00000000
,
00000000
00000000
00000000
00000000
,
00000000
00000000
00000000
00000000
,
00000000
00000000
00000000
00000000
,
00000000
00000000
00000000
00000000
,
00000000
00011000
00101000
01001000
,
10001000
00001000
00011000
00000000
00010100
00000000
00010010
00000000
,
00010001
00010000
00011000
00000000
01001000
00000000
00101000
00000000
,
10001000
00001000
00011000
00000000
00010010
00000000
00010100
00010000
,
00010001
00000000
00000000
00000000
00000101
00000000
00000000
00000100
00000000
00000000
00000010
00000000
00010000
00000000
00001000
00100000
,
00000000
00000000
00000010
00000000
00010000
00000000
00000000
00001000
00000000
00000000
01000000
00000000
00010000
00000000
10000000
00001000
,
00000000
00000000
00100000
00000000
01100000
00000000
00000000
01000000
00000000
00000000
00100000
00000000
00001000
00000000
00010000
00000010
,
00000000
00000000
00100000
00000000
00001000
00000000
00000000
00010000
00000000
00000000
00000100
00000000
00001000
00000000
00000001
00010000
,
00000000
00000000
00000010
00000000
00001000
00000000
00000100
00000000
01000000
00001000
00000000
01000000
00000010
00000000
00010000
00000000
,
00100000
00000000
10000000
00000000
00010000
00000000
01000000
00000000
00000100
00010000
00000000
00000100
00100000
00000000
00001000
00000000
,
00000010
00000000
00000001
00000000
00001000
00000000
00000010
00000000
00100000
00001000
00000000
00100000
00000010
00010000
00000000
00000010
,
00100000
00001000
00010000
00000000
00000000
00000000
00000000
00000000
,
00011000
00000000
01000100
00000000
00100010
00000000
02000000
00001000
,
03000200
00010000
00200300
00001000
00300010
00000000
01001000
00010000
,
01001000
00000000
00000000
00000000
10000000
01000000
10000000
00010000
00000000
00010000
01000000
00000000
00001000
00010000
00001000
00100000
,
00000000
00100000
00000010
00000000
00000200
00000000
00000000
00000000
00002300
00000000
00003200
00000000
00000301
00000010
00000001
00000010
,
00000200
00000000
00010300
00001000
00000000
00000000
00000000
00000000
00100010
00000000
00000000
00000000
00000200
00000000
00010000
00000000
,
00200300
00000000
00301000
00100000
00000020
00000000
00010000
00000000
00100030
00000000
00000000
00000000
00010100
00000000
00001000
00000000
,
00010100
00000000
00000000
00000000
00000001
00000010
00000001
00001000
00000000
00001000
00000020
00000000
00000030
00000000
00010000
00000000
,
00001000
00100000
02000000
00000000
00010000
00000000
13000000
00001000
,
00011000
00000000
00000000
00000000
01000000
00000000
00000100
00010000
00000100
00000000
01000000
00000000
00000010
00000000
00100000
00001000
,
00100000
00000000
00010000
00000000
01000000
00000000
00000100
00010000
00000100
00000000
00001000
00000000
00000010
00000000
00100000
00001000
,
00100000
00001000
00010000
00000000
00000001
00000100
00000001
00001000
00000000
00001000
00000100
00000000
00010000
00001000
00010000
00000010
,
00000000
00000010
00100000
00000000
02000000
00000000
00000000
03010000
01000000
00000000
10000000
00000000
00200000
00000000
00000000
00000000
,
01300000
00001000
01000000
00001000
00010000
00000000
00000000
00000000
00100010
00000000
00000010
00000000
00001000
00000000
00000001
00010000
,
00000100
00000000
00000100
01000000
00010000
00000000
10000000
00001000
00100000
00000000
00001000
00000000
00010000
00000000
00000010
00010000
,
00000010
00010000
00001000
00000000
10000000
00100000
10000000
00010000
00000000
00010000
00200000
00000000
00300000
00000000
00001000
00000000
,
00010000
00000000
00000000
00000000
00000000
00000000
00000010
00000000
00000000
00000000
00000000
00000000
00000100
00000000
00000000
00000000
00000000
00000000
00001000
00000000
00000000
00000000
00000000
00000000
00000100
00000000
00000000
00000000
00000000
00000000
00000010
00000000
00000000
00010000
00000000
00000000
00000100
00000000
00000000
00000000
01000000
00000000
00000000
00000000
00000100
00000000
00000000
00000000
,
00022000
00033000
00000000
00000000
,
00000000
00000000
00000000
00000000
,
00000000
00000000
00000000
00000000
,
00000000
00000000
00000000
00000000
,
00000000
00000000
00201000
00000000
00300000
02000000
03000000
20000000
,
30000000
00000000
00200000
00000000
00300000
20000000
30000000
02000000
,
03000000
00200000
00300020
00000000
00000030
00000200
00000300
00000002
,
00000003
00000000
00000020
00000000
00000030
00000200
00000300
00000002
,
00000003
00000200
02000300
00000000
03000000
00200000
00300000
20000000
,
30000000
00000000
02000000
00000000
03000000
20000000
30000000
00200000
,
00300000
02000000
03000200
00000000
00000300
00000020
00000030
00000002
,
00000003
00000000
00000200
00000000
00000300
00000020
00000030
00000002
,
00000003
00000000
00000020
00000000
00010030
00000000
00000000
00001000
00100000
00000000
00001000
00000000
01000000
00000000
00010000
00100000
,
01000000
00000000
00100000
00000000
00001000
00000000
00000000
00010000
00000010
00000000
00010000
00000000
00000100
00000000
00001000
00000010
,
00000100
00000010
00010000
00000000
00001000
00000000
00000000
00010000
00000100
00000000
00010000
00000000
00000010
00000000
00001000
00000100
,
00000010
00000000
00000100
00000000
00010000
00000000
00000000
00001000
01000000
00000000
00001000
00000000
00100000
00000000
00010000
10000000
,
00100000
10000000
01000000
00000000
00100000
00000000
00001000
01000000
00010000
00000000
10000000
00000000
00001000
00000000
00100000
01000000
,
10000000
00000000
01000000
00000000
00010000
00000000
00000100
01000000
00001000
00000000
00010000
00000000
00100000
00000000
01000000
00001000
,
00010000
00001000
00100000
00000000
00000010
00000000
00010000
00000100
00001000
00000000
00000001
00000000
00010000
00000000
00000010
00000100
,
00000001
00000000
00000100
00000000
00001000
00000000
01000000
00000100
00010000
00000000
00001000
00000000
00000010
00000000
00000100
00010000
,
00001000
00100000
00010000
00000000
10000000
00000000
00000000
00100000
00000000
00000000
01000000
00000000
00001000
00000000
00010000
00000010
,
00000000
00000000
00100000
00000000
00001000
00000000
00000000
00010000
00000000
00000000
00000100
00000000
00001000
00000000
00000001
00010000
,
00000000
00000000
00000010
00000000
00000110
00000000
00000000
00000100
00000000
00000000
00000010
00000000
00010000
00000000
00001000
00100000
,
00000000
00000000
00000100
00000000
00010000
00000000
00000000
00001000
00000000
00000000
01000000
00000000
00010000
00000000
10000000
00001000
,
00100000
00000000
00100000
00000000
00010000
00000000
01000000
00000000
00000100
00010000
00000000
00000100
01000000
00000000
00100000
00010000
,
00000000
00001000
00000100
00000000
00000010
00000000
00010000
00000100
01000000
00001000
00000000
01000000
00000100
00000000
00000010
00001000
,
00000000
00010000
01000000
00000000
10000000
00000000
00100000
00000000
01000000
00001000
00000000
00010000
00000010
00001000
00000000
00000001
,
00000010
00000100
00010000
00000000
00000000
00000000
00000000
00000000
,
00011000
00000000
00000000
00000000
00100000
00000000
00000010
00010000
00000010
00000000
01000000
00000000
00000100
00000000
00100000
00001000
,
00100000
00000000
00010000
00000000
01000000
00000000
00000100
00010000
00000100
00000000
00001000
00000000
00000010
00000000
00100000
00001000
,
00100000
00001000
00010000
00000000
00000001
00000010
00000100
00001000
00000000
00001000
00000010
00000000
00010000
00001000
00010000
00000010
,
00000000
00000010
00100000
00000000
02000000
00000000
00000000
00000000
03020000
00000000
02030000
00000000
13000000
00100000
10000000
00100000
,
02000000
00000000
03001000
00010000
00000000
00000000
00000000
00000000
00100010
00000000
00000010
00000000
00001000
00000000
00000001
00010000
,
00000100
00000000
00000100
01000000
00010000
00000000
10000000
00001000
00100000
00000000
00001000
00000000
00010000
00000000
00000010
00010000
,
00000010
00010000
00001000
00000000
10000000
00100000
01000000
00010000
00000000
00010000
00200000
00000000
00300000
00000000
00001000
00010000
,
00000010
00000000
00000100
00000000
00002000
00000000
00000000
00000000
00010000
00000000
00000100
00000000
00013000
00000000
00000010
00100000
,
00022000
00000000
00000000
00000000
00033000
00000000
00100000
00000000
00000010
00010000
00000000
00000010
00002000
00000000
00003100
00000000
,
00010000
00001000
01000000
00000000
00000000
00000000
01010000
00000000
10001000
00000000
00110000
00000000
11000000
00000000
00010000
10000000
,
00100000
00000000
01000000
00001000
00010000
00000000
00000010
00000000
00100000
00010000
00000000
00100000
00002000
00000000
00000000
00000000
,
00013000
00000000
00000000
00000000
00000010
00000000
00001100
00000000
00010001
00000000
00001010
00000000
00000101
00000000
00001000
00000001
,
00000010
00000100
00000010
00000100
00010000
00000000
00000000
00000000
00100010
00000000
00100000
00000000
01000000
00000000
10000000
00001000
,
00010000
00000000
00010000
00000100
00001000
00000000
00000001
00000100
00000010
00000000
00010000
00000000
00001000
00000000
00100000
00001000
,
00100000
00001000
00010000
00000000
00000001
00000010
00000100
00001000
00000000
00001000
00000020
00000000
00000030
00000000
00010000
00001000
,
01000000
00000000
00000000
00000000
00000000
00000000
00010000
00000000
00000000
00000000
00000000
00000000
00100000
00000000
00000000
00000000
00000000
00000000
10000000
00000000
00000000
00000000
00000000
00000000
00100000
00000000
00000000
00000000
00000000
00000000
01000000
00000000
00000000
00010000
00000000
00000000
00000100
00000000
00000000
00000000
01000000
00000000
00000000
00000000
00000100
00000000
00000000
00000000
,
00022000
00033000
00000000
00000000
;

//--------------- pump-couple - ----------------
#NOTEDATA:;
#STEPSTYPE:pump-couple;
#DESCRIPTION:;
#DIFFICULTY:Beginner;
#METER:1;
#RADARVALUES:0,0,0,0,0;
#NOTES:
0000000000
0000000000
0000000000
0000000000
,
0000000000
0000000000
0000000000
0000000000
,
0000000000
0000000000
0000000000
0000000000
,
0000000000
0000000000
0000000000
0000000000
,
0000000000
0000000000
0000000000
0000000000
,
0000000000
0000000000
0000000000
0000000000
,
0000000000
0000000000
0000000000
0000000000
,
0000000000
0000000000
0000000000
0000000000
,
0000000000
0000000000
0000000000
0000000000
,
0000000000
0000000000
0000000000
0000000000
,
0000000000
0000000000
0000000000
0000000000
,
0000000000
0000000000
0000000000
0000000000
,
0000000000
0000000000
0000000000
0000000000
,
0000000000
0000000000
0000000000
0000000000
,
0000000000
0000000000
0000000000
0000000000
,
0000000000
0000000000
0000000000
0000000000
,
0000000000
0000000000
0000000000
0000000000
,
0000000000
0000000000
0000000000
0000000000
,
0000000000
0000000000
0000000000
0000000000
,
0000000000
0000000000
0000000000
0000000000
,
0000000000
0000000000
0000000000
0000000000
,
0000000000
0000000000
0000000000
0000000000
,
0000000000
0000000000
0000000000
0000000000
,
0000000000
0000000000
0000000000
0000000000
,
0000000000
0000000000
0000000000
0000000000
,
0000000000
0000000000
0000000000
0000000000
,
0000000000
0000000000
0000000000
0000000000
,
0000000000
0000000000
0000000000
0000000000
,
0000000000
0000000000
0000000000
0000000000
,
0000000000
0000000000
0000000000
0000000000
,
0000000000
0000000000
0000000000
0000000000
,
0000000000
0000000000
0000000000
0000000000
,
0000000000
0000000000
0000000000
0000000000
,
0000000000
0000000000
0000000000
0000000000
,
0000000000
0000000000
0000000000
0000000000
,
0000000000
0000000000
0000000000
0000000000
,
0000000000
0000000000
0000000000
0000000000
,
0000000000
0000000000
0000000000
0000000000
,
0000000000
0000000000
0000000000
0000000000
,
0000000000
0000000000
0000000000
0000000000
,
0000000000
0000000000
0000000000
0000000000
,
0000000000
0000000000
0000000000
0000000000
,
0000000000
0000000000
0000000000
0000000000
,
0000000000
0000000000
0000000000
0000000000
,
0000000000
0000000000
0000000000
0000000000
,
0000000000
0000000000
0000000000
0000000000
,
0000000000
0000000000
0000000000
0000000000
,
0000000000
0000000000
0000000000
0000000000
,
0000000000
0000000000
0000000000
0000000000
,
0000000000
0000000000
0000000000
0000000000
,
0000000000
0000000000
0000000000
0000000000
,
0000000000
0000000000
0000000000
0000000000
,
0000000000
0000000000
0000000000
0000000000
,
0000000000
0000000000
0000000000
0000000000
,
0000000000
0000000000
0000000000
0000000000
,
0000000000
0000000000
0000000000
0000000000
,
0000000000
0000000000
0000000000
0000000000
,
0000000000
0000000000
0000000000
0000000000
,
0000000000
0000000000
0000000000
0000000000
,
0000000000
0000000000
0000000000
0000000000
,
0000000000
0000000000
0000000000
0000000000
,
0000000000
0000000000
0000000000
0000000000
,
0000000000
0000000000
0000000000
0000000000
,
0000000000
0000000000
0000000000
0000000000
,
0000000000
0000000000
0000000000
0000000000
,
0000000000
0000000000
0000000000
0000000000
,
0000000000
0000000000
0000000000
0000000000
,
0000000000
0000000000
0000000000
0000000000
,
0000000000
0000000000
0000000000
0000000000
,
0000000000
0000000000
0000000000
0000000000
,
0000000000
0000000000
0000000000
0000000000
,
0000000000
0000000000
0000000000
0000000000
,
0000000000
0000000000
0000000000
0000000000
,
0000000000
0000000000
0000000000
0000000000
,
0000000000
0000000000
0000000000
0000000000
,
0000000000
0000000000
0000000000
0000000000
,
0000000000
0000000000
0000000000
0000000000
,
0000000000
0000000000
0000000000
0000000000
,
0000000000
0000000000
0000000000
0000000000
,
0000000000
M00000000M
0000000000
0000000000
;
