#VERSION:0.83;
#TITLE:Hanabi;
#SUBTITLE:;
#ARTIST:polysha & Tanchiky;
#TITLETRANSLIT:;
#SUBTITLETRANSLIT:;
#ARTISTTRANSLIT:;
#GENRE:;
#CREDIT:;
#MUSIC:Hanabi.ogg;
#BANNER:Hanabi.png;
#BACKGROUND:Hanabi-bg.png;
#CDTITLE:;
#SAMPLESTART:90.463;
#SAMPLELENGTH:15.000;
#SELECTABLE:YES;
#OFFSET:0.328;
#BPMS:0.000=150.000
,68.000=75.000
,84.000=150.000
;
#STOPS:;
#BGCHANGES:;
#FGCHANGES:;

//--------------- dance-double - ----------------
#NOTEDATA:;
#STEPSTYPE:dance-double;
#DESCRIPTION:;
#DIFFICULTY:Hard;
#METER:16;
#RADARVALUES:0,0,0,0,0;
#CREDIT:Talkion;
#NOTES:
00000000
00000000
00000000
00000000
,
00000000
00000000
00000000
00000000
,
00000000
00000000
00000000
00000000
,
00000000
00000000
00000000
00000000
,
00000000
00000000
00000000
00000000
,
00000000
00000000
00000000
00000000
,
00000000
00000000
00000000
00000000
,
00000000
00000000
00000000
00000000
,
00000000
00000000
00000000
00000000
,
00010000
00000000
00000000
00010000
00000100
00000000
00000000
00000100
00000010
00000001
00000000
00000010
00000001
00000000
00000000
00001000
,
00000100
00000000
00000000
00000100
00010000
00000000
00000000
00010000
00001000
01000000
00000000
00001000
01000000
00000000
00000000
00100000
,
01000000
00000000
00000000
01000000
00010000
00000000
00000000
00010000
10000000
01000000
00000000
10000000
01000000
00000000
00000000
00100000
,
00001000
00000000
00000000
00001000
00010000
00000000
00000000
00010000
00000010
00000100
00000000
00000010
00000100
00000000
00000000
00000010
,
00010000
00000000
00000000
00010000
00000100
00000000
00000000
00000100
00000010
00000001
00000000
00000010
00000001
00000000
00000000
00001000
,
00000100
00000000
00000000
00000100
00010000
00000000
00000000
00010000
00001000
01000000
00000000
00001000
01000000
00000000
00000000
00100000
,
01000000
00000000
00000000
01000000
00010000
00000000
00000000
00010000
10000000
01000000
00000000
10000000
01000000
00000000
00010000
00000000
,
00011000
00000000
00000010
00001000
00000002
00000000
00000000
00000010
00000000
00000000
00001003
00000100
00010000
00000000
00000100
00010000
,
00001000
01000000
00010000
01000000
10000000
01000000
00010000
10000000
01000000
00010000
00010000
00001000
00010000
00010000
01000000
00010000
,
00001000
00000000
01000000
00000000
00001000
00000000
00010000
00000000
00000100
00000000
00000010
00000000
00001000
00000000
00000010
00000000
00000001
00000000
00001000
00000100
00001000
00000000
00000001
00000000
00000100
00000000
00000010
00000000
00010000
00000000
00001000
00000000
,
00010000
00000010
00001000
00000010
00000001
00000010
00001000
00000001
00000010
00001000
00001000
00010000
00100000
00010000
00001000
00000010
,
00000100
00000000
00010000
00000000
00001000
00000000
00010000
00000000
00000100
00000000
00010000
00000000
00001000
00000000
01000000
00000000
01100000
00000000
00000000
10010000
00000000
00000000
10000000
01000000
10000000
00010000
00100000
00001000
00010000
00000000
00000000
00000000
,
00000010
00001000
00000001
00001000
00000010
00001000
00000001
00001000
,
00000010
00001000
00010000
01000000
00010000
10000000
00010000
01000000
,
00010000
00001000
00000010
00001000
00000001
00001000
00000010
00001000
,
00000001
00000100
00000010
00000100
00001000
00010000
00000100
00010000
,
00001000
00000000
00100000
01000000
00100000
00000000
00001000
00000000
00010000
00000000
00000100
00000000
00000010
00000000
00001000
00000000
,
00010000
00000000
00000100
00000010
00000100
00000000
00010000
00000000
00001000
00000000
00100000
00000000
01000000
00000000
00010000
00000000
,
00001000
00010000
00001000
00010000
00000100
00001000
00000100
00001000
00000001
00000100
00000001
00000100
00000010
00001000
00000001
00001000
,
00000100
00000000
00000000
00000000
00000000
00000000
00010000
00000000
00000000
00000000
00000000
00000000
01000000
00000000
00000000
10000000
01000000
00100000
00010000
00000000
00000000
00000000
00000000
00000000
,
10010000
00000000
00000000
00000000
10000000
00100000
01000000
00000000
00010000
01000000
00010000
01000000
00002000
00000000
00000000
00000000
,
00013000
00000000
00000010
00001000
00000010
00000000
00100000
00010000
00100000
00000000
00000010
00001000
00000010
00000000
00010000
00000000
,
00011000
00000000
00000000
00000000
00000200
00000000
00000310
00000000
00000001
00001000
00000001
00000000
00000100
00000010
00000100
00000010
,
00010000
00000000
00000100
00001000
00000100
00000000
01000000
00010000
01000000
00000000
00000100
00001000
00000100
00000000
00010000
00000000
,
00011000
00000000
00000000
00000000
00001000
00000000
01000000
00010000
10000000
00100000
10000000
00100000
01000000
00000000
00001000
00000000
,
00010000
00000000
00000010
00001000
00000010
00000000
00100000
00010000
00100000
00000000
00000010
00001000
00000010
00000000
00010000
00000000
,
00011000
00000000
00000000
00000000
00000100
00000010
00000000
00000000
00000001
00000000
00001000
00000100
00020000
00000000
00000000
00000000
,
00031000
00000000
01000000
00010000
00100000
00000000
00001000
00010000
00000010
00001000
00000001
00001000
00000010
00000000
00000000
00000000
,
00000100
00000000
00000100
00000000
00000001
00000100
00000010
00000000
00001000
00000010
00001000
00000010
00020000
00000000
00000000
00000000
,
00031000
00000000
01000000
00010000
01000000
00000000
00000100
00001000
00000100
00000000
01000000
00010000
01000000
00000000
00001000
00000000
,
00020000
00000000
00000010
00000000
00031000
00000000
00010000
00001000
00000000
01000000
00010000
10000000
00010000
00100000
00000000
00100000
,
01000000
00000000
00100000
00010000
00100000
00000000
00000010
00001000
00000010
00000000
00100000
00010000
00100000
00000000
00001000
00000000
,
00011000
00000000
00000000
00000000
00010000
00000000
00000100
00000000
00000010
00000000
00001000
00010000
00001000
00000000
01000000
00000000
,
00100000
00000000
01000000
00010000
01000000
00000000
00000100
00001000
00000100
00000000
01000000
00010000
01000000
00000000
00001000
00000000
,
00011000
00000000
00000000
00000000
00010000
00000000
00000010
00000000
00000100
00000010
00001000
00000000
00000001
00000100
00000010
00000000
,
00010000
00000000
00001000
01000000
00100000
00000000
01000000
00100000
10000000
00010000
01000000
00100000
00000000
01000000
00001000
00010000
,
00000010
00000000
00000000
00000000
00001001
00000000
00000000
00010100
00000000
00010000
00001000
00000000
00010000
00001000
01000000
00000000
,
00100000
00000000
00000000
00000000
10010000
00000000
00000000
01001000
00000000
00001000
00010000
00001000
00010000
00000000
00000100
00001000
,
00000010
00000000
00000000
00000000
00001001
00000000
00000000
00010100
00000000
00010000
00001000
00000000
00010000
00001000
01000000
00000000
,
00100000
00000000
00000000
00000000
10010000
00000000
00000000
01001000
00000000
00001000
00010000
00001000
00010000
00000000
00000010
00001000
,
00000100
00000000
00000000
00000000
00001001
00000000
00000000
00010010
00000000
00010000
00001000
00000000
00010000
00001000
00100000
00000000
,
01000000
00000000
00000000
00000000
10010000
00000000
00000000
00101000
00000000
00001000
00010000
00001000
00010000
00000000
00000100
00001000
,
00000001
00000000
00000100
00000010
00000100
00000000
00000010
00010000
00001000
01000000
00010000
10000000
00100000
01000000
00100000
10000000
,
00010000
00000000
00100000
00001000
00020000
00000000
00000000
00000000
01000000
00000000
00000000
00000000
00031000
00000000
00010000
00000000
,
00000010
00000000
00001000
00000001
00000010
00000000
00000001
00000010
00001000
00000000
00000010
00000000
00000100
00000000
00010000
00000000
,
00001000
00000000
01000000
00100000
10000000
00000000
00100000
10000000
00010000
00000000
00100000
00000000
01000000
00000000
00010000
00000000
,
00001000
00000000
00010000
00000010
00001000
00000010
00010000
00000000
00001000
00000000
01000000
00010000
10000000
00010000
01000000
00000000
,
00100000
00000000
00010000
00001000
00000000
00001000
00010000
00000010
00000100
00000000
00000010
00001000
00000002
00000000
00000000
00000000
,
00000103
00000000
00000001
00001000
00000100
00000000
00001000
00000100
00000001
00000000
00000100
00000000
00000010
00000000
00001000
00000000
,
00010000
00000000
00000100
00001000
00000100
00000000
00010000
00000000
00001000
00000000
01000000
00100000
01000000
00000000
00001000
00000000
,
00020000
00000000
00000000
00000000
00000010
00000000
00000000
00000000
00001000
00000000
00000000
00000000
00030010
00000000
00010000
00001000
,
01000000
00000000
00000000
00000000
00000000
00000000
00010000
00000000
01000000
00000000
00010000
00000000
01000000
00000000
00000000
00000000
00000000
00000000
00100000
00000000
10000000
00000000
00100000
00000000
10000000
00000000
00000000
00010000
00000000
00000000
01000000
00000000
00000000
00000000
00000000
00000000
00011000
00000000
00000000
00000000
00000000
00000000
00000000
00000000
00000000
00000000
00000000
00000000
,
01000000
00000000
00010000
10000000
01000000
00000000
10000000
01000000
00010000
00000000
01000000
00000000
00100000
00000000
00001000
00000000
,
00010000
00000000
00000010
00000100
00000001
00000000
00000100
00000001
00001000
00000000
00000100
00000000
00000010
00000000
00001000
00000000
,
00010000
00000000
00001000
01000000
00010000
01000000
00001000
00000000
00010000
00000000
00000010
00001000
00000001
00001000
00000010
00000000
,
00000100
00000000
00001000
00010000
00000000
00010000
00001000
01000000
00100000
00000000
01000000
00010000
20000000
00000000
00000000
00000000
,
30100000
00000000
10000000
00010000
00100000
00000000
00010000
00100000
10000000
00000000
00100000
00000000
01000000
00000000
00010000
00000000
,
00001000
00000000
00100000
00010000
00100000
00000000
00001000
00000000
00010000
00000000
00000010
00001000
00000010
00000100
00000001
00001000
,
00000100
00000000
00010000
00001000
01000000
00000000
00001000
00010000
00000100
00000000
00010000
00001000
01000000
00000000
00100000
00000000
,
20000000
30010000
00001000
00001001
,
00000021
00000000
00000000
00000000
00000100
00000000
00000000
00000000
00000100
00000000
00000000
00000000
00000130
00000000
00000010
00000100
,
00002000
00000000
00000000
00000000
00000000
00000000
00000001
00000000
00000000
00000000
00000000
00000000
00003010
00000000
00000000
00010000
00001000
00010000
00001000
00000000
00000000
01000000
00000000
00000000
,
00200000
00000000
00000000
00000000
00000000
00000000
00000000
00000000
00000000
00000000
00000000
00000000
10300000
00000000
00000000
00000000
00000000
00000000
00100000
00000000
00000000
01000000
00000000
00000000
00010000
00000000
00000000
00000000
00000000
00000000
01000000
00000000
00001000
00000000
01000000
00000000
00001000
00000000
00000000
00000000
00000000
00000000
00010000
00000000
00000000
00000000
00000000
00000000
,
00000020
00000000
00001000
00000000
00000130
00000001
00001000
00000100
,
00000010
00000000
00000001
00000000
00001000
00000000
00000100
00010000
00001000
00010000
00000100
00010000
00001000
00000000
01000000
00000000
,
00100000
00000000
10000000
00000000
00010000
00000000
01000000
00001000
00010000
00001000
01000000
00001000
00010000
00000000
00000100
00000000
,
00000010
00000001
00000010
00000001
00001000
00000001
00001000
00000001
00001000
00000100
00001000
00000100
00010000
00001000
00010000
00001000
,
02000000
00000000
00000000
00000000
00100000
00000000
00000000
00000000
03001000
00010000
00000000
00000000
00011000
00000000
00000000
00000000
,
00000010
00001000
00000100
00000000
00001000
00000100
00010000
00000000
,
00000100
00010000
00001000
00000000
00010000
00001000
01000000
00000000
,
00001000
01000000
00010000
00000000
01000000
00010000
00100000
00000000
,
00010000
00100000
01000000
00000000
00100000
01000000
10000000
00000000
,
00010000
00000000
01000000
00001000
01000000
00000000
00001000
00010000
00001000
00000000
00010000
00000000
00000100
00000000
00000010
00000000
,
00000001
00000000
00001000
00000100
00001000
00000000
00000100
00010000
00000100
00000000
00001000
00000000
00000001
00000000
00000100
00000000
,
00000010
00010000
00000010
00010000
00001000
00010000
00000100
00010000
00001000
01000000
00001000
01000000
00001000
00010000
00001000
00100000
,
00010000
10000000
01000000
10000000
00010000
10000000
00100000
10000000
00010000
01000000
00001000
00020000
00000000
00000000
00000000
00000000
,
00030010
00000000
00000000
00000000
;

//--------------- dance-double - ----------------
#NOTEDATA:;
#STEPSTYPE:dance-double;
#DESCRIPTION:;
#DIFFICULTY:Challenge;
#METER:16;
#RADARVALUES:0,0,0,0,0;
#CREDIT:Talkion;
#NOTES:
00000000
00000000
00000000
00000000
,
00000000
00000000
00000000
00000000
,
00000000
00000000
00000000
00000000
,
00000000
00000000
00000000
00000000
,
00000000
00000000
00000000
00000000
,
00000000
00000000
00000000
00000000
,
00000000
00000000
00000000
00000000
,
00000000
00000000
00000000
00000000
,
00000000
00000000
00000000
00000000
,
00020000
00000000
00000000
00000000
00001000
00000000
00000000
00000000
01030000
00000000
10000000
00000000
00010000
10000000
00000000
10000000
,
00010000
02000000
03002000
00023000
,
00030010
00000000
00000000
00000000
00000200
00000000
00000000
00000000
00001300
00000000
00010000
00000000
00001000
00010000
00000000
00010000
,
00001000
00000200
00000302
00000023
,
00002030
00000000
00000000
00000000
00010000
00000000
00000000
00000000
00003010
00000000
00000001
00000000
00001000
00000001
00000000
00000001
,
00001000
00000020
00020030
00032000
,
01003000
00000000
00000000
00000000
00200000
00000000
00000000
00000000
00310000
00000000
00100000
00000000
10000000
00010000
00000000
00010000
,
10000000
00000000
01000000
00000000
00020000
00000000
00000000
00001000
00000000
00000000
00130000
01000000
00100000
00000000
01000000
00001000
,
00010000
00000000
00000100
00000000
00001000
00000001
00000100
00000000
00000020
00000000
00000000
00020030
00000000
00000000
00032000
00000000
,
02003000
00000000
00000000
00000000
00000000
00000000
00000000
00000000
00000000
00000000
00000000
00000000
03100000
00000000
01000000
00000000
00010000
00000000
00000000
10000000
00000000
00000000
01000000
00000000
00010000
00000000
00000000
00000000
00000000
00000000
00010000
00000000
,
00001000
00000000
00100000
00000000
00010000
10000000
00100000
00000000
02000000
00000000
00000000
03000200
00000000
00010300
00000100
00001000
,
00000002
00000000
00000000
00000000
00000000
00000000
00000000
00000000
00000000
00000000
00000000
00000000
00000103
00000000
00000010
00000000
00010010
00000000
00000000
00011000
00000000
00000000
00010000
00001000
00100000
00001000
00010000
00001000
00100000
00000000
00000000
00000000
,
00010000
10000000
00100000
10000000
00010000
10000000
01000000
00010000
,
00001000
00100000
00001000
00010000
00001000
01000000
00001000
00010000
,
00000100
00000010
00000100
00000001
00000100
00000010
00000100
00010000
,
00001000
01000000
00001000
00010000
00001000
00100000
02000000
00000000
,
13000000
01000000
00010000
00001000
00000010
00000001
00001000
00001000
,
00000001
00000100
00001000
00010000
00100000
10000000
00010000
00010000
,
10000000
01000000
10000000
01000000
00100000
00001000
00010000
00001000
04000000
00000000
00000000
00000000
03000400
00000000
00001300
00000000
,
00000001
00000000
00000000
00000000
00000000
00000000
00000001
00000000
00000000
00000000
00000000
00000000
00000001
00000000
00000000
00000100
00000010
00000100
00000010
00000000
00000000
00000000
00000000
00000000
,
00011000
00000000
00000000
00000000
00010000
00001000
01000000
00010000
10000000
01000000
M1000000
00010000
00200000
00000000
00000000
00000000
,
00300020
00200030
00300200
02000300
,
03001000
00000000
00010000
00000000
00000010
00000000
00000001
00000000
00000010
00000100
00000010
00000000
00001000
00000010
00001000
00000010
,
00200000
00300020
02000030
03000200
,
00010300
00000000
00000000
00000000
00001000
00000000
00100000
00010000
10000000
00100000
M0100000
00010000
02000000
00000000
00000000
00000000
,
03000200
02000300
03000020
00200030
,
00301000
00000000
00000000
00010000
00000100
00000010
00000000
00000000
00001000
00000000
00000010
00000100
00000010
00000000
00000001
00000000
,
00001100
00000000
00000000
00000000
01010000
00000000
00000000
00001100
00000000
00000000
02010000
00000000
03100000
00000000
00000000
00000000
,
01000000
00000000
01000000
00000000
00001000
00010000
00000100
00001000
00000001
00000100
0000010M
00001000
00000020
00000000
00000000
00000000
,
00200030
00300020
02000030
03000200
,
00010300
00000000
00001000
00000000
01000000
00000000
10000000
02000000
00000000
00010000
00000000
10000000
00000000
03100000
00000000
01000000
,
00000200
02000300
03000020
00200030
,
00301000
00000000
00000000
00000000
00010000
00000000
00000100
00001000
00010000
00000000
00001000
00010000
00100000
00000000
00100000
00000000
,
00000020
00200030
00300200
02000300
,
03001000
00000000
00010000
00001000
00000100
00000000
00000001
00000000
00001000
00000100
00000010
00000001
00001000
00000100
00010000
00000000
,
00001000
00000000
01000000
00100000
01000000
00000000
00010000
01000000
00100000
10000000
00100000
10000000
00000000
00100000
M0100000
00010000
,
10000000
00000000
00000000
00000000
10002000
00000000
00000000
00023000
00000000
00000000
00030001
00000000
00000100
00000000
00000000
00000000
,
00000110
00000000
00000000
00000000
00020001
00000000
00000000
00032000
00000000
00000000
10003000
00000000
01000000
00000000
00000000
00000000
,
01100000
00000000
00000000
00000000
10002000
00000000
00000000
00023000
00000000
00000000
00030001
00000000
00000010
00000000
00000000
00000000
,
00000110
00000000
00000000
00000000
00020001
00000000
00000000
00032000
00000000
00000000
10003000
00000000
00100000
00000000
00000000
00000000
,
01100000
00000000
00000000
00000000
01000200
00000000
00000000
00002300
00000000
00000000
00003010
00000000
00000100
00000000
00000000
00000000
,
00000110
00000000
00000000
00000000
00200010
00000000
00000000
00320000
00000000
00000000
01030000
00000000
00100000
00000000
00000000
00000000
,
02000000
00000000
00010000
10000000
00000000
00000000
10000000
00010000
03000000
00000000
00010000
01000000
00001000
00010000
00001000
00010000
,
00000020
00000000
00000001
00000000
00000100
00000000
00010030
00001000
,
02000000
00000000
00100000
10000000
00000000
00000000
00100000
00010000
00000000
00000000
03100000
00000000
01000000
00000000
00001000
00000000
,
00020000
00000000
00001000
01000000
00000000
00000000
01000000
00001000
00000000
00000000
00030100
00000000
00010000
00000000
00000010
00000000
,
00000200
00000000
00000001
00001000
00000000
00000000
00000310
00000000
00002000
00000000
00010000
00000010
00000000
00000000
00003001
00000000
,
00000100
00000000
00001000
00000100
00000010
00010000
00001000
00010000
00000100
00010000
00001000
01000000
00200000
00000000
00000000
00000000
,
02300000
00000000
00010000
10000000
00000000
00000000
10000000
00010000
00000000
00000000
03100000
00000000
01000000
00000000
00001000
00000000
,
00020000
00000000
00001000
01000000
00000000
00000000
00130000
00000000
20000000
00000000
00100000
01000000
00000000
00000000
30010000
00000000
,
01000000
00000000
00001000
00010000
00001000
00000000
01000000
00010000
01000000
00000000
00001000
00010000
00000100
00000000
00001000
00000100
,
00000010
00000000
00000000
00000000
00000000
00000000
00000001
00000000
00001000
00000000
00000001
00000000
00001000
00000000
00000000
00000000
00000000
00000000
00000100
00000000
00010000
00000000
00000100
00000000
00010000
00000000
00000000
00001000
00000000
00000000
01000000
00000000
00000000
00000000
00000000
00000000
00001000
00000000
00000000
00000000
00000000
00000000
00010000
00000000
00000000
00000000
00000000
00000000
,
00000020
00000000
00000100
00000001
00000000
00000000
00000100
00001000
00000000
00000000
00000130
00000000
00000010
00000000
00010000
00000000
,
00002000
00000000
00010000
00000010
00000000
00000000
00000010
00010000
00000000
00000000
00103000
00000000
00001000
00000000
01000000
00000000
,
00200000
00000000
10000000
00010000
00000000
00000000
01300000
00000000
00020000
00000000
00001000
01000000
00000000
00000000
10030000
00000000
,
00100000
00000000
00010000
00100000
01000000
00001000
00010000
00001000
00100000
00001000
00010000
00000010
00000200
00000000
00000000
00000000
,
00000320
00000000
00001000
00000001
00000000
00000000
00000001
00001000
00000000
00000000
00000130
00000000
00000010
00000000
00010000
00000000
,
00002000
00000000
00010000
00000100
00000000
00000000
00003010
00000000
00000001
00000000
00000010
00000100
00000001
00001000
00000100
00000010
,
00010000
00000000
00001000
00010000
01000000
00000000
00010000
01000000
10000000
00000000
01000000
10000000
00010000
00000000
10000000
00010000
,
04000000
03001000
00001000
01000100
,
00021000
00000000
00000000
00000000
00000010
00000000
00000000
00000000
00000010
00000000
00000000
00000000
00030010
00000000
00001000
00000010
,
00000200
00000000
00000000
00000000
00000000
00000000
00000001
00000000
00000000
00000000
00000000
00000000
00000310
00000000
00000000
00010000
00001000
00010000
00001000
00000000
00000000
01000000
00000000
00000000
,
00200000
00000000
00000000
00000000
00000000
00000000
00000000
00000000
00000000
00000000
00000000
00000000
00310000
00000000
00000000
00000000
00000000
00000000
00100000
00000000
00000000
01000000
00000000
00000000
00010000
00000000
00000000
00000000
00000000
00000000
10000000
00000000
01000000
00000000
10000000
00000000
01000000
00000000
00000000
00000000
00000000
00000000
00100000
00000000
00000000
00000000
00000000
00000000
,
00002000
00000000
01000000
00000000
00013000
00000100
00000010
00000001
,
00001000
00000001
00000100
00001000
00010000
00100000
10000000
10000000
,
00010000
10000000
01000000
00010000
00001000
00000010
00000001
00000001
,
00001000
00000100
00001000
00000100
00010000
00001000
01000000
00001000
00010000
00001000
01000000
00010000
40000000
00000000
00000000
00000000
,
34000000
00000000
00000000
00000000
03040000
00000000
00000000
00000000
00031000
00000010
00000000
00000000
00000110
00000000
00000000
00000000
,
00001001
00000000
00000000
00000000
00000002
00000000
00000000
00000000
00000103
00000000
00001000
00000000
00010000
00001000
00000000
00001000
,
00010000
00002000
00203000
02300000
,
13000000
00000000
00000000
00000000
00200000
00000000
00000000
00000000
00310000
00000000
00001000
00000000
00010000
00001000
00000000
00001000
,
00010000
00000200
00000320
00000032
,
00001003
00000001
00000100
00001000
00010000
00100000
10000000
10000000
,
00010000
10000000
01000000
00010000
00001000
00000010
00000001
00000001
,
00001100
00001100
00010000
00001000
00110000
00110000
00001000
01000000
,
00100000
01000000
00100000
01000000
00010000
01000000
00010000
01000000
00001000
00010000
00000010
00000200
00000000
00000000
00000000
00000000
,
00000301
00000000
00000000
00000000
;
