#TITLE:Gothic and Loneliness;
#SUBTITLE:;
#ARTIST:なるしまたかし ft. 鏡音リン append;
#TITLETRANSLIT:;
#SUBTITLETRANSLIT:;
#ARTISTTRANSLIT:narushima ft. Kagamine Rin append;
#GENRE:;
#CREDIT:;
#BANNER:Gothic and Loneliness.png;
#BACKGROUND:Gothic and Loneliness-bg.png;
#LYRICSPATH:;
#CDTITLE:;
#MUSIC:Gothic and Loneliness.ogg;
#OFFSET:0.010000;
#SAMPLESTART:3.047000;
#SAMPLELENGTH:15.000000;
#SELECTABLE:YES;
#BPMS:0.000000=157.000000
,176.000000=78.500000
,179.000000=157.000000
;
#STOPS:179.000000=0.382000
;
#BGCHANGES:;
#KEYSOUNDS:;
#ATTACKS:;

//---------------dance-single - ----------------
#NOTES:
     dance-single:
     :
     Challenge:
     16:
     0.703477,0.962685,0.121923,0.684124,0.680737,727.000000,709.000000,18.000000,101.000000,0.000000,0.000000,0.703477,0.962685,0.121923,0.684124,0.680737,727.000000,709.000000,18.000000,101.000000,0.000000,0.000000:
0000
0000
0000
0000
,
0000
0000
0000
0000
,
0000
0000
0000
0000
,
0000
0000
0000
0000
,
0000
0000
0000
0000
,
0000
0000
0000
0000
,
0001
0100
0010
1000
0001
0100
0001
1000
0100
0010
0001
0010
0100
0010
0001
1000
,
0001
0000
1000
0000
0010
0100
0000
0000
0001
0000
0000
0001
0000
0000
0001
0000
,
1000
0001
0010
2000
0000
3020
0000
0031
,
0100
0000
0010
1000
0001
0000
1000
0100
0010
0000
0000
0011
0000
0000
1100
0000
,
2000
0000
0001
0001
3200
0010
0000
1300
,
0002
0000
1000
1000
0203
0010
0000
0301
,
2000
0000
0001
0001
3020
0100
0000
1030
,
0002
0000
1000
1000
0023
0100
0000
0031
,
0200
0000
0010
0010
0302
1000
0000
0013
,
0200
0000
0010
0010
2300
0001
0000
3010
,
0200
0000
0001
0001
0320
0100
0000
1030
,
0001
0000
0010
0000
0010
0000
0100
1000
0001
1000
0100
0000
0010
0001
1000
0001
,
0100
0010
1000
0001
1000
0100
0010
0001
0100
0001
0010
0100
1000
0001
1000
0010
,
0200
0000
0000
0000
0310
0000
1000
0001
1000
0100
0010
0001
1000
0010
0100
0010
,
2000
0000
0000
0000
3001
0100
0010
0100
0001
0000
1000
0000
0001
0010
0100
1000
,
0002
0000
0000
0000
1003
0000
0001
1000
0200
0000
0000
0000
0310
0001
1000
0001
,
0010
0100
1000
0001
0100
0001
1000
0100
0010
0001
1000
0010
0100
0001
1000
0001
,
0010
0000
0100
0000
1000
0001
0000
0000
0100
0000
0000
0100
0000
0000
0100
0000
,
0010
1000
0100
0002
0000
0203
0000
1300
,
0001
0000
0100
0000
0010
1000
0001
0000
0011
0000
0000
1100
0000
0000
1001
0000
,
0001
0100
0001
0000
1000
0100
1000
0100
0010
0001
0000
0001
0100
0001
0100
0010
,
1000
0010
1000
0000
0001
0010
0001
0010
0100
1000
0000
1000
0100
0010
0100
0010
,
0001
1000
0001
0000
1000
0010
1000
0010
0100
0001
0000
0001
1000
0010
1000
0010
,
0100
0001
0100
0000
0010
1000
0010
1000
0100
0010
0000
0010
0001
1000
0001
0000
,
1001
0000
1000
0000
0100
0010
0100
0010
0001
1000
0000
1000
0001
0100
0001
0100
,
0010
1000
0001
0000
1000
0100
1000
0100
0010
0001
0000
0001
1000
0010
1000
0010
,
0100
0001
1000
0000
0010
0100
0010
0100
0001
1000
0000
1000
0001
0010
0001
0010
,
0100
1000
0001
0000
0100
0010
1000
0001
0200
0000
0000
0000
0001
0000
0000
0000
,
0301
1000
0200
0001
0000
0310
0001
1000
,
0001
0100
0020
0001
0000
0130
0002
0000
,
1003
0001
0020
1000
0000
0130
1000
0000
,
2002
3003
0220
0330
,
0001
0001
0100
0010
2000
0000
3001
0002
,
0000
0000
0013
0000
0100
0000
1000
0000
0001
0000
0000
0001
0000
0000
0001
0000
,
1000
0010
0100
0001
1000
0001
0010
0100
,
1000
0001
0100
0010
1000
0001
1000
0100
0010
0000
0000
0000
0000
0000
0000
0000
,
0001
0000
0000
1000
0000
0000
0001
0000
0000
0100
0000
0000
0010
0000
0000
1000
0000
0000
0001
0000
1000
0000
0001
0000
1000
0000
0000
0100
0000
0000
0010
0000
0000
0001
0000
0000
0100
0000
0000
0010
0000
0000
1000
0000
0000
0001
0000
0000
,
1000
0100
0010
0001
0100
0010
1000
0001
1000
0000
0000
0000
0110
0000
0000
0000
,
2002
0000
0000
3003
,
1000
1000
0001
0001
,
0100
0100
0010
0010
,
1000
1000
0001
0001
,
0010
0010
0100
0100
,
1000
0010
0001
0010
,
1000
0100
0001
0100
,
1000
1000
0001
0001
,
0100
0010
0220
0330
,
0010
0000
1000
0000
0001
0100
0000
0000
0010
0000
0000
0010
0000
0000
0010
0000
,
1000
0000
0001
0000
1000
0100
0000
0000
0010
0000
0000
0010
0000
0000
0010
0000
,
0001
0000
1000
0000
0001
0100
0000
0000
0010
0000
0000
0010
0000
0000
0010
0000
,
1000
0000
0001
0000
1000
0100
0000
0000
0010
0001
1000
0010
0100
0001
1000
0001
,
0100
0000
0001
0000
1000
0100
0000
0000
0010
0000
0001
1000
0000
0000
0001
0000
,
0100
0000
0010
0000
1000
0001
0000
0000
1000
0000
0100
0010
0000
0001
1000
0000
,
0002
0203
0320
2030
,
3010
0100
2002
3003
,
0001
1000
0100
0010
0002
0000
0000
0103
0010
1000
0001
0000
1000
0000
0001
0000
,
0100
0001
1000
0010
0200
0000
0000
0301
1000
0000
0001
0000
0010
0000
0100
0000
,
0010
0001
1000
0001
0200
0000
0000
0310
1000
0000
0000
1000
0000
0000
1000
0000
,
0001
0000
0100
0000
0010
0000
1000
0000
0001
1000
0001
0010
0100
1000
0010
1000
,
0100
0010
0001
1000
0020
0000
0000
0130
0001
0000
0001
2000
0000
0000
3100
0000
,
0010
0001
1000
0010
0200
0000
0000
0301
1000
0000
1000
0100
0000
0100
0001
0000
,
0200
0010
0320
0100
0230
1000
2300
0001
,
3002
0000
2000
3003
,
0001
0100
1000
0100
0002
0000
0000
1003
0100
0000
0010
0000
0100
0000
1000
0000
,
0001
0010
1000
0010
0002
0000
0000
1003
0010
0000
0100
0000
0001
0000
1000
0000
,
0001
0100
1000
0100
0002
0000
0000
1003
0100
0000
1000
0001
0000
0000
0100
0000
,
0010
0000
1000
0000
0001
0000
1000
0000
0100
0010
0001
1000
0001
0100
1000
0100
,
0001
1000
0001
0010
2000
0000
0000
3010
0001
0000
0000
0001
0000
0000
0001
0000
,
1000
0010
0001
0010
2000
0000
0000
3001
0100
0000
0100
0020
0000
0000
1030
0000
,
0002
0100
0203
0010
0320
1000
2030
0100
,
3200
0320
0032
2003
,
3020
0100
0001
0100
,
2030
3100
0120
0031
,
2001
0010
0100
3001
,
0201
0000
0000
0000
1000
0000
0000
0000
0301
1000
0001
0010
0100
0001
0100
1000
,
0002
0000
0000
0000
0103
0000
0010
0100
1000
0100
0010
1000
0001
1000
0100
0010
,
0002
0000
0000
0000
0103
0000
0010
1000
0010
0100
1000
0100
0001
1000
0001
0100
,
0020
1000
2030
0001
3002
0010
0023
0100
,
0230
0000
0000
0000
1300
0001
1000
0010
0200
0000
0000
0000
0310
0000
0000
0000
,
2000
0001
0100
0010
,
3002
0100
0010
2003
,
3200
0010
1000
0001
,
0320
0000
0000
0000
0001
0000
0000
0000
0130
1000
0001
1000
0010
0100
0001
0100
,
2000
0000
0000
0000
3100
0000
0001
0000
1000
0000
0000
1000
0000
0000
1000
0000
,
0200
0000
0000
0000
0310
0000
0000
0000
0002
0000
0000
0203
0000
0000
0320
0000
,
2030
0001
3002
0010
0023
0100
0230
1000
,
2300
0100
3002
0100
,
0023
1000
0100
0001
,
0130
2200
0000
3300
1001
0000
1001
0000
;

//---------------dance-double - ----------------
#NOTES:
     dance-double:
     :
     Challenge:
     18:
     0.694768,0.930595,0.182885,0.528334,0.596069,718.000000,691.000000,27.000000,78.000000,0.000000,0.000000,0.694768,0.930595,0.182885,0.528334,0.596069,718.000000,691.000000,27.000000,78.000000,0.000000,0.000000:
// measure 0
00000000
00000000
00000000
00000000
,  // measure 1
00000000
00000000
00000000
00000000
,  // measure 2
00000000
00000000
00000000
00000000
,  // measure 3
00000000
00000000
00000000
00000000
,  // measure 4
00000000
00000000
00000000
00000000
,  // measure 5
00000000
00000000
00000000
00000000
,  // measure 6
00001000
00010000
00001000
00010000
00000100
01000000
00000100
01000000
00000010
00100000
00000010
00100000
00001000
00010000
00001000
00010000
,  // measure 7
00000100
00000000
00000010
00000000
00000001
00001000
00000000
00000000
00000010
00000000
00000000
00000010
00000000
00000000
00000010
00000000
,  // measure 8
00010000
00001000
00100000
01000000
00000000
10000000
00001000
00100000
,  // measure 9
00010000
00000000
01000000
00001000
00020000
00000000
00030000
00000000
00011000
00000000
00000000
00011000
00000000
00000000
00011000
00000000
,  // measure 10
00020000
00000000
00000010
00030010
00001000
00000100
00010000
00000000
,  // measure 11
00002000
00000000
00100000
00103000
00010000
01000000
00001000
00000000
,  // measure 12
00020000
00000000
00000001
00030001
00001000
00000010
00010000
00000000
,  // measure 13
00002000
00000000
10000000
10003000
00010000
01000000
00001000
00010000
,  // measure 14
00000020
00000000
00001000
00001030
00000001
00010000
00001000
01000000
,  // measure 15
00200000
00000000
10000000
10300000
00001000
00010000
00000100
00000010
,  // measure 16
00000002
00000000
00001000
00001003
00000010
00100000
00001000
00010000
,  // measure 17
00000200
00000000
00010000
00000000
00010300
00000000
00001000
01000000
00100000
10000000
00010000
00000000
10000000
01000000
00100000
00010000
,  // measure 18
01000000
00001000
01000000
00001000
00100000
00000010
00100000
00000010
00010000
00000001
00010000
00000001
00001000
00000100
00001000
00000100
,  // measure 19
00000020
00000000
00000000
00000000
00000031
00000000
00001000
00000010
00010000
00000001
00010000
00000001
00001000
00000100
00001000
00000100
,  // measure 20
00010000
00000000
00001000
00000000
01000000
00000000
00010000
00100000
01000000
00000000
10000000
00000000
00010000
00000000
01000000
00001000
,  // measure 21
00020000
00000000
00000000
00000000
00030010
00000000
00001000
00000001
00000010
00000000
00000000
00000000
00000001
00000100
00000010
00010000
,  // measure 22
00001000
00010000
00001000
00010000
00000100
01000000
00000100
01000000
00000010
00100000
00000010
00100000
00001000
00010000
00001000
00010000
,  // measure 23
00000100
00000000
00010000
00000000
00001000
01000000
00000000
00000000
00100000
00000000
00000000
00100000
00000000
00000000
00100000
00000000
,  // measure 24
10000000
00010000
00100000
00002000
00000000
00013000
00000001
00000100
,  // measure 25
00000010
00000000
00001000
00000100
00020000
00000000
00030000
00000000
00011000
00000000
00000000
00011000
00000000
00000000
00011000
00000000
,  // measure 26
00001000
01000000
00001000
00000000
00100000
00010000
00100000
01000000
10000000
00010000
10000000
00000000
00010000
00000000
01000000
00000000
,  // measure 27
00001000
00010000
00001000
00000000
00010000
00000010
00010000
00000010
00001000
00000100
00001000
00000000
00000001
00000000
00000100
00000000
,  // measure 28
00000010
00010000
00000010
00000000
00001000
00000100
00001000
00000100
00010000
00001000
00010000
00000000
00001000
00000000
01000000
00000000
,  // measure 29
00010000
00100000
00010000
00000000
10000000
00100000
10000000
00100000
01000000
00010000
01000000
00000000
00001000
00000000
00010000
00000000
,  // measure 30
00000001
00000100
00000001
00000000
00010000
00000001
00010000
00000001
00001000
00000100
00001000
00000000
00000010
00000000
00010000
00000000
,  // measure 31
00001000
01000000
00001000
00000000
10000000
00001000
10000000
00001000
00100000
00010000
00100000
00000000
01000000
00000000
10000000
00000000
,  // measure 32
00010000
01000000
00010000
00000000
01000000
00001000
01000000
00001000
00010000
00000100
00010000
00000000
00000010
00000000
00000100
00000000
,  // measure 33
00000001
00001000
00000100
00000000
00010000
00000010
00010000
00000100
00020000
00000000
00000000
00000000
00030000
00000000
00000000
00000000
,  // measure 34
00001000
10000000
02000000
00010000
00000000
03100000
00001000
00010000
,  // measure 35
00000001
00000100
00000020
00000001
00000000
00001030
00000200
00000300
,  // measure 36
00010000
00001000
02000000
10000000
00000000
03010000
00100000
00000000
,  // measure 37
00202000
00303000
00020020
00030030
,  // measure 38
00000010
00100000
00000100
00010000
00002000
00000000
01003000
02000000
,  // measure 39
00000000
00000000
03100000
00000000
10000000
00000000
00001000
00000000
00010000
00000000
00000000
00010000
00000000
00000000
00010000
00000000
,  // measure 40
00000010
00001000
00000010
00100000
00010000
00100000
00001000
00010000
,  // measure 41
00000010
00000100
00000001
00001000
00000010
00010000
00000100
00010000
00002000
00000000
00000000
00000000
00003000
00000000
00000000
00000000
,  // measure 42
00010000
00001000
00010000
00001000
01000000
00000100
01000000
00000100
00100000
00000010
00100000
00000010
00010000
00001000
00010000
00001000
,  // measure 43
01000000
00010000
01000000
00001000
01000000
00000100
00010000
00000100
00001000
00000000
00000000
00000000
00010010
00000000
00000000
00000000
,  // measure 44
00002002
00000000
00000000
00003003
,  // measure 45
00000001
00000001
00000100
00000100
,  // measure 46
00000010
00000010
00100000
00100000
,  // measure 47
01000000
01000000
10000000
10000000
,  // measure 48
01000000
01000000
00100000
00100000
,  // measure 49
00000010
00000010
00000100
00000100
,  // measure 50
00000001
00000001
00000100
00000100
,  // measure 51
00000010
00000010
00100000
00100000
,  // measure 52
00001000
00010000
00022000
00033000
,  // measure 53
00001000
00000000
01000000
00000000
00100000
20000000
00000000
00000000
00001000
00000000
00000000
00001000
00000000
00000000
30001000
00000000
,  // measure 54
00100000
00000000
00000010
00000000
00001000
00000002
00000000
00000000
00010000
00000000
00000000
00010000
00000000
00000000
00010003
00000000
,  // measure 55
00000100
00000000
01000000
00000000
00010000
20000000
00000000
00000000
00001000
00000000
00000000
00001000
00000000
00000000
30001000
00000000
,  // measure 56
01000000
00000000
00000100
00000000
00010000
00000020
00000000
00000000
00001030
00000001
00010000
00000010
00010000
00000100
00010000
00001000
,  // measure 57
00010000
00000000
00000001
00000000
00001000
00000020
00000000
00000000
00100000
00000000
00000000
00100000
00000000
00000000
00100030
00000000
,  // measure 58
00001000
00000000
10000000
00000000
00010000
00200000
00000000
00000000
00000010
00000000
00000000
00000010
00000000
00000000
00300010
00000000
,  // measure 59
00010000
00000100
00001000
00000100
01000000
00010000
01000000
00001000
,  // measure 60
00011000
01000100
00022000
00033000
,  // measure 61
00001000
10000000
00010000
10000000
00002000
00000000
00000000
01003000
00010000
00000000
00100000
00000000
00000010
00000000
00001000
00000000
,  // measure 62
00000001
00010000
00000001
00001000
00000002
00000000
00000000
00001003
00000100
00000000
00010000
00000000
00001000
00000000
10000000
00000000
,  // measure 63
00010000
10000000
00001000
10000000
00020000
00000000
00000000
01030000
00001000
00000000
00001000
00020000
00000000
00000000
00030100
00000000
,  // measure 64
01000000
00000000
00001000
00000000
00010000
00000000
00000010
00000000
00001000
00000001
00010000
00000001
00001000
00000100
00010000
00000010
,  // measure 65
00010000
00000100
01000000
00000100
00020000
00000000
00000000
00031000
01000000
00000000
01000000
00020000
00000000
00000000
01030000
00000000
,  // measure 66
00001000
01000000
00000100
01000000
00002000
00000000
00000000
00013000
01000000
00000000
01000000
10000000
00000000
10000000
00010000
00000000
,  // measure 67
01000000
00001000
00010000
00000001
00001000
00000010
00100000
00001000
,  // measure 68
00020000
00000000
00002000
00033000
,  // measure 69
00010000
00000001
00001000
00000010
00020000
00000000
00000000
00030001
00001000
00000010
00010000
00000000
00001000
00000000
10000000
00000000
,  // measure 70
00010000
01000000
00001000
10000000
00020000
00000000
00000000
01030000
00001000
00000000
00010000
00000000
00000001
00000000
00001000
00000000
,  // measure 71
00000001
00010000
00000010
00001000
00000200
00000000
00000000
00010300
00001000
00000000
00001000
02000000
00000000
00000000
03100000
00000000
,  // measure 72
10000000
00000000
00001000
00000000
00100000
00000000
00000010
00000000
00010000
00000100
00001000
00000001
00010000
00000001
00001000
00000100
,  // measure 73
00000010
00000001
00010000
00000100
00002000
00000000
00000000
00003100
00010000
00000000
00000000
00010000
00000000
00000000
00010000
00000000
,  // measure 74
00001000
10000000
00010000
01000000
00200000
00000000
00000000
10300000
00010000
00000000
00010000
00200000
00000000
00000000
00301000
00000000
,  // measure 75
00010000
00000001
00010000
00000100
01000000
00001000
00100000
00010000
,  // measure 76
20000000
30002000
00023000
00030002
,  // measure 77
00000203
00010000
00000001
00000010
,  // measure 78
00002300
01000000
00023000
00000001
,  // measure 79
00030200
00000001
00001000
00010000
,  // measure 80
02000300
00000000
00000000
00000000
00100000
00000000
00000000
00000000
03010000
10000000
00001000
10000000
00001000
00010000
00000010
00100000
,  // measure 81
00000020
00000000
00000000
00000000
00001030
00000000
00000001
00001000
00000100
00010000
00000100
01000000
00000100
00010000
00001000
00010000
,  // measure 82
00000200
00000000
00000000
00000000
00010300
00000000
00001000
01000000
00100000
10000000
00010000
10000000
00001000
10000000
00010000
00000000
,  // measure 83
01010000
00011000
00001100
00011000
,  // measure 84
02010000
00000000
00000000
00000000
03001000
00010000
00000010
00001000
00000002
00000000
00000000
00000000
00001003
00000000
00000000
00000000
,  // measure 85
00000200
00010000
00000001
00000010
,  // measure 86
00020300
00000100
00000001
00030020
,  // measure 87
00002030
00000100
00000001
00000010
,  // measure 88
00023000
00000000
00000000
00000000
10000000
00000000
00000000
00000000
01030000
00001000
01000000
00010000
00100000
00001000
00100000
00000010
,  // measure 89
00020000
00000000
00000000
00000000
00030010
00000000
00001000
00000000
00000001
00000000
00000000
00000001
00000000
00000000
00000001
00000000
,  // measure 90
00002000
00000000
00000000
00000000
00003010
00000000
00010000
00000000
00001000
00000000
00000000
00001000
00000000
00000000
00001000
00000000
,  // measure 91
00011000
10001000
00011000
00010001
,  // measure 92
00012000
10000000
00023000
00000001
,  // measure 93
00032000
01000000
10000000
00100000
,  // measure 94
00013000
00022000
00000000
00033000
00011000
00000000
00011000
00000000
;
