#TITLE:がっつり陰キャ!?怪盗いいんちょの億劫^^;
#SUBTITLE:;
#ARTIST:噂の怪盗少女ぷらずま★彡Prim@休業中~(_ _).。;
#TITLETRANSLIT:;
#SUBTITLETRANSLIT:;
#ARTISTTRANSLIT:;
#GENRE:Hi-メランコリックコア;
#CREDIT:;
#MUSIC:Gattsuri inkya! Kaitou iincho no okkuu.ogg;
#BANNER:Gattsuri inkya! Kaitou iincho no okkuu.png;
#BACKGROUND:Gattsuri inkya! Kaitou iincho no okkuu-bg.png;
#JACKET:Gattsuri inkya! Kaitou iincho no okkuu-jacket.png;
#CDTITLE:;
#SAMPLESTART:46.538;
#SAMPLELENGTH:15.000;
#SELECTABLE:YES;
#OFFSET:1.286;
#BPMS:0.000=185.000;
#STOPS:;
#DISPLAYBPM:185.000;
#BGCHANGES:3.650=Gattsuri inkya! Kaitou iincho no okkuu.avi=1.000=0=0=1,,
364.000=Gattsuri inkya! Kaitou iincho no okkuu-bg.png,
99999.000=-nosongbg-=1.000=0=0=0=StretchNoLoop====
;
#FGCHANGES:;

//--------------- dance-single - forcednature ----------------
#NOTES:
     dance-single:
     forcednature:
     Beginner:
     5:
     0,0,0,0,0:
0000
0000
0000
0000
,
0000
0000
0000
0000
,
0000
0000
0000
0000
,
0000
0000
0000
0000
,
0000
0000
0000
0000
,
0000
0000
0000
0000
,
1001
0000
0000
0000
,
1000
0000
0001
0000
,
0100
0000
0100
0000
,
0010
0000
0010
0000
,
1000
1000
0001
0001
,
0000
0000
0000
0000
,
1001
0000
0001
0000
,
0010
0000
0100
0000
,
1000
0000
0010
0010
,
0000
0000
0000
0000
,
1001
0000
1000
0000
,
0100
0000
0010
0000
,
0001
0000
0100
0100
,
0000
0000
0000
0000
,
0110
0000
0001
0000
,
1000
0000
0010
0000
,
1000
0000
0001
0000
,
0010
0000
0100
0000
,
1001
0000
0000
0000
,
0110
0000
0000
0000
,
1001
0000
0100
0100
,
0000
0010
0010
0000
,
1001
0000
0001
0000
,
0100
0000
0010
0000
,
1000
0000
0100
0000
,
0020
0000
0030
0000
,
1001
0000
0001
0000
,
0110
0000
0010
0000
,
1001
0000
0100
0000
,
0110
0000
0010
0000
,
1001
1001
1001
1001
,
0001
0000
1000
0000
,
0010
0010
0010
0000
,
0100
0000
0001
0000
,
1000
1000
1000
0000
,
0100
0000
0010
0000
,
0001
0001
0001
0000
,
1000
0000
0010
0000
,
1000
1000
1000
0000
,
0110
0000
0001
0000
,
0100
0100
0010
0010
,
0100
0000
0001
0000
,
1000
1000
0001
0001
,
0010
0000
0100
0000
,
1000
1000
0010
0010
,
0100
0000
0100
0000
,
0010
0000
0010
0000
,
1000
1000
0001
0001
,
0000
0000
0000
0000
,
1001
0000
0000
0000
,
0010
0000
0000
0000
,
0100
0000
0000
0000
,
0001
0000
0000
0000
,
0110
0000
0000
0000
,
1000
0000
0000
0000
,
0010
0000
0000
0000
,
0100
0100
0100
0000
,
1001
0000
0000
0000
,
0001
0000
0010
0000
,
0001
0000
0100
0000
,
1001
0000
0000
0000
,
0110
0000
1000
0000
,
0110
0000
0001
0000
,
1001
0000
0100
0000
,
1001
0000
0010
0000
,
1001
1001
1001
1001
,
1000
0000
0001
0000
,
0100
0100
0000
0000
,
0010
0000
1000
0000
,
0001
0001
0000
0000
,
0010
0000
0001
0000
,
1000
1000
1000
0000
,
0100
0000
1000
0000
,
0010
0010
0010
0000
,
0110
0000
0001
0000
,
1000
1000
1000
0000
,
1001
0000
0100
0000
,
0010
0010
0010
0000
,
0110
0000
1000
0000
,
0001
0001
0001
0000
,
1001
0000
0100
0000
,
0010
0010
0100
0000
,
0001
0001
1000
1000
;

//--------------- dance-single - forcednature ----------------
#NOTES:
     dance-single:
     forcednature:
     Easy:
     9:
     0,0,0,0,0:
0000
0000
0000
0000
,
0000
0000
0000
0000
,
0000
0000
0000
0000
,
0000
0000
0000
0000
,
0000
0000
0000
0000
,
0000
0000
0000
0000
,
1001
0001
0100
0010
,
1000
0000
0100
1000
0000
0000
0000
0000
,
0001
0010
0001
1000
,
0010
0100
0001
1000
,
0101
0000
0010
0000
1010
0000
1000
0100
,
0000
0000
0000
0000
,
0110
0001
0100
0010
,
1000
0001
0010
0100
,
0100
0000
0010
0000
0001
1000
0001
1000
,
0000
0000
0000
0000
,
1010
1000
0001
0100
,
0001
0010
0100
1000
,
0010
0000
0100
0000
0001
0010
0001
0010
,
0000
0000
0000
0000
,
0110
1000
0001
1000
,
0020
0100
0100
0130
,
0010
1000
0001
0010
,
0100
0000
1000
0000
0001
0000
0100
0010
,
0100
0001
1000
0000
,
1001
0100
0010
0000
,
0110
1000
0001
0100
,
0000
0001
1000
0001
1000
0000
0000
0000
,
1001
1000
0010
0100
,
0001
0010
0100
1000
,
0010
0100
0001
1000
,
0200
0010
0020
0330
,
1001
0001
0100
0001
,
1001
1000
0100
0000
,
0110
0010
0001
0100
,
0110
0010
1000
0001
,
0101
0101
1010
1010
,
1000
0100
0010
0100
,
0010
0001
0010
0001
0000
0000
0000
0000
,
0100
0001
1000
0010
,
1000
0001
1000
0001
0000
0000
0000
0000
,
1000
1100
0000
0011
,
0001
0000
1000
0001
0000
0000
0000
0000
,
0001
0101
0000
1010
,
1000
0001
1000
0001
0000
0000
0000
0000
,
0011
0010
0100
1000
,
1100
1000
1010
0000
,
0101
0001
1000
0100
,
0110
0010
1001
0000
,
0101
0001
1000
0100
,
0110
0010
1001
0000
,
1002
1000
1000
1003
,
0001
0100
0010
1000
,
0100
1000
0100
1000
0001
0010
0001
0010
,
0000
0000
0000
0000
,
0110
0001
1000
0000
,
0001
0001
0100
0000
,
0010
1000
0010
1000
,
0100
0010
0100
0000
,
1001
0001
0100
0010
,
1000
0100
0010
0001
,
0100
0010
1000
0001
,
0000
1000
0001
1000
0001
0000
0000
0000
,
1001
0001
0100
0010
,
1000
0100
0010
0001
,
0100
0010
1000
0001
,
0020
0100
0200
0330
,
1001
0001
0100
0001
,
1001
1000
0100
0000
,
0110
0010
0001
0100
,
0110
0010
1000
0100
,
0110
1001
0110
1001
,
0001
0100
0010
1000
,
0001
0010
0001
0010
0000
0000
0000
0000
,
0100
1000
0001
0100
,
0010
1000
0010
1000
0000
0000
0000
0000
,
0001
0110
0000
1001
,
1000
0000
0100
1000
0000
0000
0000
0000
,
0010
0110
0000
1100
,
0001
0010
0001
0010
0000
0000
0000
0000
,
1001
0001
0100
0010
,
1100
1001
1010
0000
,
0110
0001
1000
0001
,
0011
0110
1100
0000
,
1001
0001
0100
0001
,
0110
0101
1010
0000
,
2001
0001
0001
3001
,
1001
0001
0010
0100
,
1000
0001
1000
0001
0100
0010
0100
0010
;

//--------------- dance-single - forcednature ----------------
#NOTES:
     dance-single:
     forcednature:
     Medium:
     12:
     0,0,0,0,0:
0000
0000
0000
0000
,
0000
0000
0000
0000
,
0000
0000
0000
0000
,
0000
0000
0000
0000
,
0000
0000
0000
0000
,
0000
0000
0000
0000
,
0001
0100
0001
1000
0010
0100
0001
0010
,
0100
0000
1000
1001
0000
0001
0100
0001
,
1000
0010
1000
0001
1000
0100
1000
0000
,
0001
0010
0001
1000
0001
0100
0001
0000
,
1000
0100
0010
0001
0010
0100
1000
0001
,
0200
0000
0320
0000
2030
0000
3002
0003
,
1001
0000
1000
0100
1000
0001
0010
0001
,
0000
0100
0001
0100
0010
1000
0001
1000
,
0100
0010
0001
0100
0010
1000
0001
0100
,
0002
0000
0023
0000
0230
0000
1300
0100
,
1000
0010
0100
0001
0010
0001
0100
0010
,
0000
1000
0100
0010
0100
1000
0001
0100
,
0001
1000
0010
1000
0001
0010
0100
1000
,
0010
1000
0001
0000
0001
0010
0100
1000
,
0000
0010
1000
0001
0100
0001
0010
0100
,
0000
1000
0002
0000
0100
0000
0010
0000
,
0003
0001
1000
0010
1000
0001
0100
0010
,
0000
1100
0000
0101
0000
1000
0001
1000
,
0010
0100
0001
0100
0010
1000
0100
0000
,
0010
0001
0010
0100
1000
0001
0100
0000
,
0010
1000
0001
0100
0010
1000
0001
1000
,
0000
0100
1000
0001
0100
0000
0010
1000
,
0020
0000
0230
0000
0301
1000
0001
1000
,
0100
1000
0100
0010
0002
0000
0103
0000
,
0001
1000
0010
1000
0001
0100
0001
0010
,
0200
0000
1000
0000
0001
0000
0010
0300
,
0100
1000
0010
0100
0001
0100
0010
1000
,
0001
0010
0100
1000
0002
0000
0003
0000
,
0001
1000
0001
1000
0010
1000
0001
1000
,
0001
0010
0001
1000
0100
0010
0001
1000
,
0001
0101
1010
1001
,
1000
0110
0001
0110
,
1000
0001
1000
0001
0000
0100
0010
1000
,
0001
0110
0100
1010
,
1000
0001
0100
0020
0000
0030
0000
0000
,
0010
0000
0101
0000
1000
0000
0010
1000
,
0001
0000
1000
2200
0000
3300
0000
0000
,
0100
0000
0011
0000
1000
0000
0100
1000
,
0010
0100
0001
0202
0000
0303
0000
0000
,
1000
0001
0100
0001
1000
0010
1000
0001
,
1000
0101
1010
0110
,
1000
0100
0010
0001
0010
0100
1000
0001
,
0010
0101
1010
1100
,
1000
0010
0100
0001
0100
0010
1000
0100
,
1000
1001
0101
0011
,
0001
0010
0001
0010
0100
1000
0100
1000
,
0001
0100
0001
0100
0010
1000
0010
1000
,
0001
1000
0100
0010
0001
0100
0010
1000
,
0020
0030
0010
0100
,
0101
0000
1000
0010
1000
0001
0000
0100
,
0010
0000
1000
0100
0000
0011
0000
0000
,
0110
0000
1000
0001
0010
0001
0000
0010
,
0100
0010
0100
0010
0000
0001
1000
0000
,
0101
0000
1000
0010
1000
0001
1000
0100
,
1000
0000
0001
0010
0001
1000
0001
0100
,
0010
0000
1000
0001
0100
0010
1000
0100
,
0000
0010
0001
1000
0100
0000
0010
0000
,
1001
0000
1000
0010
1000
0001
0010
0001
,
0100
0010
1000
0100
0020
0000
0130
0000
,
1000
0001
0100
0001
0010
0001
1000
0010
,
2000
0100
0002
3003
,
0001
0100
0001
1000
0010
1000
0001
0010
,
0100
1000
0100
0010
0002
0000
1003
0000
,
0001
1000
0010
0100
0010
1000
0001
0100
,
0001
0010
0100
1000
0001
1000
0100
0010
,
0100
1001
0101
1010
,
0100
1001
0010
1100
,
0010
1000
0001
0020
0000
0031
1000
0001
,
0100
0011
0010
1001
,
1000
0001
1000
2020
0000
3030
0000
0000
,
1000
0000
0011
0000
0001
0000
1000
0001
,
0100
0000
0010
0220
0000
0330
0010
1000
,
0001
0000
1100
0000
0001
0000
0101
0001
,
1000
0001
0100
0202
0000
0303
0001
1000
,
0001
0100
0010
1000
0001
0100
0001
0010
,
0100
1100
0101
0110
,
0001
1000
0010
0100
0001
0010
0001
0100
,
0001
0000
1100
0000
1000
0010
0200
0300
,
0001
0100
0001
0010
0100
1000
0010
0100
,
0001
0010
0100
1000
0000
0001
1000
0001
,
0100
0100
0100
0100
0010
0010
0010
0010
,
1000
0001
0100
0010
1000
0100
0010
0001
,
0100
0001
1000
0010
1000
0001
0010
0100
;

//--------------- dance-single - forcednature ----------------
#NOTES:
     dance-single:
     forcednature:
     Hard:
     15:
     0,0,0,0,0:
0000
0000
0000
0000
,
0000
0000
0000
0000
,
0000
0000
0000
0000
,
0000
0000
0000
0000
,
0000
0000
0000
0000
,
0000
0000
0000
0000
,
0001
0000
1000
0100
1000
0000
0010
0000
0100
0001
0100
0000
0010
0000
1000
0000
,
2001
0000
3000
0000
0001
0000
0021
0000
0030
0000
0001
0000
1000
0000
0100
1000
,
0100
0100
0100
0100
0010
0010
0010
0010
,
0001
1000
0001
0000
1000
0010
1000
0000
0001
0010
0100
1000
0100
0000
0010
0000
,
0001
1000
0001
0100
1000
0001
0010
1000
,
0001
0000
1001
1000
0000
1001
0001
0000
,
0110
0000
0001
0100
0001
0010
0100
1000
,
0000
0010
0001
0010
1000
0100
0010
1000
,
0001
0100
0010
0001
1000
1000
1000
1000
,
0010
0000
0110
0000
1000
0000
0001
1000
,
1001
0000
0001
0010
0100
1000
0010
0001
,
0000
1000
0100
0001
0010
0100
0001
1000
,
0010
0100
1000
0010
0100
0100
0100
0100
,
0002
0000
0000
0000
0000
0000
0000
0000
0000
0000
1003
0001
1000
0000
0010
0000
,
0110
0000
0100
0001
0100
0010
1000
0001
,
0000
0010
0200
0000
1000
0000
0001
0300
,
0100
1000
0010
0100
0001
1000
0010
0110
,
0000
1001
0000
0101
0000
0010
1000
1000
,
1010
0000
1000
0001
0010
0100
1000
0001
,
0101
0000
1000
0010
0001
0010
0100
0001
,
0011
0000
0000
0000
0010
0000
0100
0000
1000
0000
0001
0100
0001
0000
0010
0000
,
0000
0000
0100
0000
0100
0000
0100
0000
0100
0000
0000
0000
1000
0000
0001
1000
,
0001
0000
0100
0010
1000
0001
0010
1000
,
0001
0100
1000
0020
0100
0000
0100
0130
,
0010
1000
0001
0100
0001
0010
0100
1000
,
0020
0000
0230
0000
0301
0001
0001
0001
,
1000
0100
1000
0000
0001
0000
0010
0000
0001
0000
0100
0000
0010
0000
1000
0000
,
0001
1000
0001
0000
0010
0000
0100
0000
1000
0000
0010
0000
0100
0000
0001
0000
,
1000
0100
1000
0000
1000
0000
1000
0000
0001
0000
0001
0000
0001
0000
0001
0000
,
0100
0010
0100
0000
0001
0000
0010
0000
0100
0000
1000
0000
0010
0000
0100
0000
,
0001
0100
0001
0000
1000
0010
1000
0000
0001
1000
0100
0010
0001
0000
0100
0000
,
0010
0000
0010
0000
1000
0000
0000
0000
0001
0000
0010
0100
0010
0000
0001
0000
,
0100
0000
0010
0000
1000
0000
0001
0000
0000
0000
0001
0000
0010
0000
0100
1000
,
0100
0000
0010
0000
0001
0000
0100
0000
0010
1000
0001
0100
0001
0000
1000
0100
,
1000
0010
0100
0002
0010
0000
0200
0303
,
0001
0000
0010
0100
0010
0000
0000
0000
0001
0000
1000
0010
1000
0000
0001
0000
,
0100
0000
0000
0000
0010
0000
1000
0000
0000
0000
0001
0000
0010
0000
0100
1000
,
0100
0000
0010
0001
0010
0000
0100
0000
1000
0000
1000
0000
0010
0000
0100
0001
,
0100
0010
1000
0001
0000
0010
0100
0010
,
0001
1000
0001
0100
0010
0000
0100
0000
0001
0000
0010
0000
0100
0000
1000
0000
,
0200
0000
0320
0000
0032
0000
0100
0103
,
0001
0010
0100
1000
0001
0000
0100
0000
0001
0000
0010
0000
0100
0000
1000
0000
,
0020
0000
0230
0000
0302
1000
1000
1003
,
0001
0100
0001
1000
0100
0000
0010
0000
0001
0000
1000
0000
0010
0000
0100
0000
,
0002
0000
2003
0000
3200
0010
0010
0310
,
0100
0100
0100
0100
1000
1000
1000
1000
,
0001
1000
0001
0100
0010
1000
0010
0000
1000
0100
0010
0001
1000
0100
1000
0000
,
0010
0010
0010
0010
0100
0100
0100
0100
,
0001
0000
1001
1000
0000
1001
0001
0000
,
0110
0000
0000
0001
0010
0100
0000
1000
,
0010
0000
1000
0001
0000
0101
0000
0000
,
0110
0000
1000
0001
0100
0010
0000
1000
,
0010
0000
0100
0000
0001
0000
0010
0000
0000
0000
0100
1000
0100
0000
0010
0000
,
0001
0010
0000
0000
0010
0100
0000
0000
0100
1000
0000
0000
0001
0000
0100
0000
,
0010
1000
0000
0000
1000
0001
0000
0000
0001
0010
0000
0000
0100
0000
1000
0000
,
0001
0100
0000
0000
0010
1000
0000
0000
0001
0000
0010
0100
0010
0000
0001
0000
,
0000
0000
0100
0000
0100
0000
0100
0000
0100
0000
0010
0000
1000
0000
0001
1000
,
0001
0000
1000
0100
0010
0001
0000
0100
,
0010
1000
0001
0010
0200
0000
1000
1300
,
0100
0010
0001
1000
0010
0100
0001
1000
,
0002
0000
0100
0000
0010
0010
0010
0013
,
0001
1000
0001
0000
0010
0000
0100
0000
1000
0000
0010
0000
0100
0000
0001
0000
,
1000
0100
1000
0000
0010
0000
0100
0000
0001
0000
0100
0000
0010
0000
1000
0000
,
0001
0100
0001
0000
0001
0000
0001
0000
1000
0000
1000
0000
1000
0000
1000
0000
,
0100
0010
0100
0000
1000
0000
0010
0000
0100
0000
0001
0000
1000
0000
0100
0000
,
0010
0001
0010
0000
0100
1000
0100
0000
1000
0001
0100
0010
1000
0000
0100
0000
,
0010
0000
0010
0000
0002
0000
0000
0000
1003
0000
0001
0010
0001
0000
1000
0000
,
0010
0000
0100
0000
1000
0000
0200
0000
0000
0000
0301
0000
0010
0000
0100
1000
,
0100
0000
1000
0000
0010
0000
0100
0000
0001
1000
0100
0010
0100
0000
1000
0010
,
0100
0001
0010
0200
0000
1000
2000
3300
,
0100
0000
1000
0010
2000
0000
0000
0000
3010
0000
0100
0001
0100
0000
0010
0000
,
2000
0000
0000
0000
3100
0000
0002
0000
0000
0000
0103
0000
0010
0000
0001
1000
,
0001
0000
0100
0010
0100
0000
1000
0000
0100
0000
0100
0000
0001
0000
1000
0100
,
1000
0010
0100
0002
0000
0013
0100
1000
,
0010
0100
0001
1000
0010
0000
1000
0000
0100
0000
0001
0000
0100
0000
1000
0000
,
0020
0000
0230
0000
0302
0000
0010
0013
,
0001
1000
0100
1000
0010
0000
0100
0000
0001
0000
0100
0000
1000
0000
0100
0000
,
0002
0000
0023
0000
0230
1000
1000
1300
,
0100
1000
0010
0100
0001
0000
0010
0000
1000
0000
0010
0000
0100
0000
1000
0000
,
0020
0000
0230
0000
0302
1000
1000
1003
,
0001
0001
0001
0001
0010
0010
0010
0010
,
0100
1000
0100
0010
0001
0100
0010
0000
1000
0001
0100
0010
1000
0001
0010
0000
,
0100
0100
0100
0100
1000
1000
1000
1000
,
0001
0000
1001
1000
0000
1001
0001
0000
;

//--------------- dance-single - forcednature ----------------
#NOTES:
     dance-single:
     forcednature:
     Challenge:
     17:
     0,0,0,0,0:
0000
0000
0000
0000
,
0000
0000
0000
0000
,
0000
0000
0000
0000
,
0000
0000
0000
0000
,
0000
0000
0000
0000
,
0000
0000
0000
0000
,
0001
0000
1000
0100
1000
0000
0001
0010
0100
0010
0001
1000
0100
1000
0001
0100
,
0010
0000
0000
0000
0000
0000
1000
0000
0000
0100
0000
0000
0010
0000
0000
0000
0000
0000
0100
0000
0000
0000
0000
0000
0000
0000
0000
0000
0000
0000
0010
0000
0000
0000
0000
0000
0001
0000
0000
0000
0000
0000
1000
0000
0001
0000
1000
0000
,
0001
0001
0010
0010
0001
0001
0100
0100
,
0010
0000
0000
1000
0000
0000
0001
0000
0000
1000
0000
0000
0010
0000
0000
0100
0000
0000
0001
0000
0000
1000
0000
0000
0001
0000
0000
0010
0000
0000
0001
0000
1000
0000
0001
0000
1000
0000
0000
0000
0000
0000
0100
0000
0000
0000
0000
0000
,
0010
0010
0001
0001
0100
0100
0010
0010
,
1000
0000
1001
MMMM
0000
1001
MMMM
0000
,
1001
0000
1000
0001
1000
0010
0100
0001
,
0010
0000
0100
1000
0001
0000
0010
0001
1000
0000
0010
0100
0001
0000
1000
0000
,
0010
0100
0001
0010
0100
0100
1000
1000
,
0100
0000
0011
0000
1000
0000
0001
0001
,
0101
0000
0001
0010
1000
0010
0100
1000
,
0001
0000
0100
0001
1000
0000
0010
1000
0100
0000
0010
0001
1000
0000
0001
0000
,
0100
0001
0010
0100
1000
1000
0010
0010
,
MMMM
0000
0000
0000
0000
0000
MMMM
0000
0000
0000
0000
0000
MMMM
0000
0000
0001
1000
0001
1000
0000
0000
0001
0000
0000
,
1001
0001
0100
0010
1000
0100
0010
0001
,
0100
0010
2000
0000
0001
0000
0100
3100
,
1000
0000
0001
0000
0010
0000
0001
0000
1000
0000
0100
0000
0010
0000
0001
0100
,
0001
0000
1000
0010
1000
0000
0001
0000
0100
0000
0100
0000
0010
0000
0010
0000
,
1000
0100
0001
0100
0010
0100
1000
0001
,
1000
0010
0001
0010
0100
1000
0100
0010
,
0100
0000
0000
0001
0000
0000
1000
0000
0000
0001
0000
0000
0010
0000
0000
0100
1000
0100
1000
0000
0000
0001
0000
0000
,
0000
0000
0000
0100
0000
0000
0100
0000
0000
0010
0000
0000
0010
0000
0000
0000
0000
0000
1000
0000
0000
0001
1000
0001
,
1000
0000
1000
0100
1000
0001
0010
0001
,
1000
0010
0001
0010
0200
0000
0001
0301
,
0100
0001
1000
0010
0001
0010
1000
0100
,
0020
0000
1000
0000
0100
0100
0001
0031
,
0010
0000
0100
1000
0010
0000
0100
0001
1000
0000
0100
0010
0001
0000
0100
0000
,
0010
0000
0100
0001
1000
0000
0100
0010
0001
0000
0100
0001
0010
0000
0100
0000
,
1000
0000
0100
0010
0001
0100
0010
0000
1000
0000
0001
1000
0010
1000
0100
0000
,
0010
0000
0001
0100
0001
1000
0010
1000
0100
0000
0010
0001
0010
0100
1000
0100
,
1000
0000
0001
0000
1000
0000
0001
0000
0000
1000
0000
0000
0100
0000
1000
0000
0100
0000
1000
0000
0000
0100
0000
0000
0010
0000
0001
0000
0010
0000
0001
0000
0000
0010
0000
0000
0100
0000
0000
0000
0000
0000
0100
0000
0000
0000
0000
0000
,
1000
0000
0000
0000
0000
0000
1000
0000
0000
0000
0000
0000
1001
0000
0000
0000
0000
0000
0001
0000
0000
1000
0000
0000
0100
0000
0000
0000
0000
0000
0010
0000
0001
0000
0010
0000
0001
0000
0000
0000
0000
0000
0100
0000
0000
0000
0000
0000
,
0010
0000
0000
0000
0000
0000
0100
0000
0000
0000
0000
0000
0001
0000
0000
0000
0000
0000
1001
0000
0000
0000
0000
0000
MMMM
0000
0000
0000
0000
0000
0001
0000
0000
0100
0000
0000
0010
0000
0000
0000
0000
0000
0100
0000
0001
0000
0100
0000
,
0001
0000
0000
0000
0000
0000
1000
0000
0000
0000
0000
0000
0010
0000
0000
0000
0000
0000
0100
0000
0000
0000
0000
0000
0001
0000
0000
1000
0000
0000
0100
0000
1000
0000
0100
0000
1000
0000
0000
0000
0000
0000
0001
0000
1000
0000
0001
0000
,
1000
0000
0010
0000
0100
0000
0101
0000
MMMM
0000
1000
0001
1000
0000
0100
0000
,
0010
0000
0000
0000
0000
0000
0001
0000
1000
0000
0001
0000
2000
0000
0000
0000
0000
0000
3000
0000
0000
0000
0000
0000
0010
0000
0000
0000
0000
0000
0100
0000
0000
0001
0000
0000
0010
0000
0000
0000
0000
0000
0010
0000
0000
0000
0000
0000
,
0220
0000
0000
0330
0000
0000
1000
0000
0000
1001
0000
0000
MMMM
0000
0000
0001
0000
0000
0100
0000
0000
0001
1000
0001
,
1000
0000
0100
0010
0001
0000
0100
0001
1000
0000
0010
0000
0100
0000
0001
0010
,
0001
0000
0000
0000
0000
0000
0100
0000
0000
0000
0000
0000
0010
0000
0000
0000
0000
0000
1010
0000
0000
0000
0000
0000
MMMM
0000
0000
0000
0000
0000
0001
0000
0000
1000
0000
0000
0100
0000
0000
0000
0000
0000
1000
0000
0001
0000
1000
0000
,
0001
0000
0100
0010
0100
0001
1000
0000
0100
0000
0010
0001
1000
0000
0010
0000
,
0110
0000
1001
0000
0011
0000
1000
1000
,
1010
0000
0010
0100
0001
1000
0001
0000
0010
0000
0100
1000
0001
0000
0100
0000
,
0101
0000
0011
0000
1000
1000
0010
0010
,
0110
0000
0100
0001
0010
0100
1000
0000
0001
0000
1000
0010
0100
0000
0001
0000
,
0011
0000
0110
0000
0001
0001
1000
1000
,
1002
1000
0100
0100
1000
1000
0010
0013
,
0001
0000
0000
0010
0000
0000
0100
0000
0000
1000
0000
0000
0100
0000
0000
0010
0000
0000
0100
0000
0000
1000
0000
0000
0001
0000
0000
1000
0000
0000
0010
0000
1000
0000
0010
0000
1000
0000
0000
0000
0000
0000
0001
0000
0000
0000
0000
0000
,
0010
0010
0100
0100
1000
1000
0001
0001
,
0100
0000
0101
MMMM
0000
1010
MMMM
0000
,
1001
0000
0001
0100
1000
0100
0010
0001
,
0010
1000
0100
0010
0000
1000
0001
0100
,
1000
0010
0001
1000
0100
0001
0010
0100
,
1000
0000
0000
0001
0000
0000
1000
0000
0000
0010
0000
0000
0000
0000
0000
1000
0001
1000
0001
0000
0000
0010
0000
0000
,
0011
0000
0101
0000
0110
0000
0010
1000
,
1001
0000
1100
0000
0011
0000
0010
0001
,
0101
0000
0000
0000
0000
0000
0110
0000
0000
0000
0000
0000
1000
0000
0000
0001
0100
0001
0100
0000
0000
0010
0000
0000
,
0000
0000
0000
1000
0000
0000
1000
0000
0000
0100
0000
0000
0100
0000
0000
0000
0000
0000
1000
0000
0000
0001
0010
0001
,
0010
0000
0100
1000
0010
0100
0001
0010
,
1000
0010
0100
1000
0001
0000
0100
0100
,
0010
0001
0010
1000
0100
0010
0001
1000
,
0020
0000
0000
0000
0000
0000
0000
0000
0000
0000
0000
0000
0000
0000
0000
0000
0000
0000
0000
0000
0000
0000
0000
0000
0200
0000
0000
0000
0000
0030
0000
0000
0000
0000
0000
0000
0000
0000
0000
0000
0000
0000
0000
0000
0000
0000
0000
0000
1000
0000
0000
0000
0000
0000
0000
0000
0000
0000
0000
0000
1000
0000
0000
0000
0000
0000
0000
0000
0000
0000
0000
0000
0001
0000
0000
0000
0000
0000
0000
0000
0000
0000
0000
0000
0301
0000
0000
0000
0000
0000
0000
0000
0000
0000
0000
0000
,
0100
0000
0001
1000
0100
0000
0010
0001
1000
0000
0010
0100
0001
0000
1000
0000
,
0010
0000
1000
0100
0010
0000
0100
1000
0001
0000
0100
0001
0010
0000
0100
0000
,
1000
0000
0010
0100
0001
0010
0100
0000
1000
0000
0001
0100
0010
1000
0010
0000
,
0100
0000
0001
1000
0100
1000
0001
0100
0010
0000
0100
0001
1000
0010
1000
0001
,
0010
0000
0001
0000
0010
0000
0001
0000
0000
0010
0000
0000
0001
0000
1000
0000
0001
0000
1000
0000
0000
0001
0000
0000
1000
0000
0100
0000
1000
0000
0100
0000
0000
1000
0000
0000
0001
0000
0000
0000
0000
0000
0001
0000
0000
0000
0000
0000
,
0100
0000
0000
0000
0000
0000
0100
0000
0000
0000
0000
0000
0102
0000
0000
0000
0003
0000
0001
0000
0000
0010
0000
0000
0100
0000
0000
0000
0000
0000
1000
0000
0010
0000
1000
0000
0020
0000
0000
0000
0030
0000
1000
0000
0000
0000
0000
0000
,
0100
0000
0000
0000
0000
0000
0010
0000
0000
0000
0000
0000
0001
0000
0000
0000
0000
0000
1001
0000
0000
0000
0000
0000
MMMM
0000
0000
0000
0000
0000
1000
0000
0000
0100
0000
0000
0010
0000
0000
0000
0000
0000
0100
0000
1000
0000
0100
0000
,
1000
0000
0000
0000
0000
0000
0010
0000
0000
0000
0000
0000
2000
0000
0000
0000
3000
0000
0001
0000
0000
0000
0000
0000
0100
0000
0000
0001
0000
0000
0100
0000
0001
0000
0100
0000
0002
0000
0000
0000
0003
0000
1000
0000
0001
0000
1000
0000
,
0001
0000
1000
0000
0100
0000
0110
0000
MMMM
0000
0001
0010
0001
0000
0100
0000
,
0010
0000
0000
0000
0000
0000
1000
0000
0100
0000
1000
0000
0200
0000
0000
0000
0000
0000
0300
0000
0000
0000
0000
0000
0010
0000
0000
0000
0000
0000
0100
0000
0000
1000
0000
0000
0002
0000
0000
0000
0003
0000
0001
0000
0000
0000
0000
0000
,
0202
0000
0000
0303
0000
0000
0010
0000
0000
1010
0000
0000
MMMM
0000
0000
1000
0000
0000
0001
0000
0000
0010
0001
0010
,
0001
0000
0000
0000
0000
0000
1000
0000
0000
0001
0000
0000
0200
0000
0000
0000
0300
0000
0010
0000
0000
1000
0000
0000
0100
0000
0000
0000
0000
0000
0010
0000
0000
0000
0000
0000
0002
0000
0000
0000
0003
0000
1000
0000
0000
0010
0000
0000
,
0100
0000
0000
0000
0000
0000
0001
0000
0000
0000
0000
0000
0010
0000
0000
0000
0000
0000
0110
0000
0000
0000
0000
0000
MMMM
0000
0000
0000
0000
0000
1000
0000
0000
0001
0000
0000
0100
0000
0000
0000
0000
0000
0010
0000
1000
0000
0010
0000
,
1000
0000
0100
0010
0001
1000
0010
0000
0100
0000
0010
1000
0100
0000
0010
0000
,
0022
0000
0033
0000
0000
0000
0220
0000
0330
0000
0000
0000
2200
0000
3300
0000
0000
0000
0001
0000
0000
0001
0000
0000
,
0101
0000
0100
0010
1000
0001
1000
0000
0100
0000
0010
0001
1000
0000
0010
0000
,
0220
0000
0330
0000
0000
0000
2002
0000
3003
0000
0000
0000
1000
0000
0000
1000
0000
0000
0100
0000
0000
0100
0000
0000
,
1100
0000
1000
0001
1000
0010
0100
0000
0001
0000
0010
0100
1000
0000
0001
0000
,
0202
0000
0303
0000
0000
0000
2020
0000
3030
0000
0000
0000
1000
0000
0000
1000
0000
0000
0001
0000
0000
0001
0000
0000
,
0201
0001
0010
0010
1000
1000
0010
0310
,
0100
0000
0000
0010
0000
0000
0100
0000
0000
0001
0000
0000
1000
0000
0000
0100
0000
0000
0010
0000
0000
0001
0000
0000
0100
0000
0000
0001
0000
0000
0100
0000
0001
0000
0100
0000
0001
0000
0000
0000
0000
0000
0010
0000
0000
0000
0000
0000
,
0100
0100
1000
1000
0001
0001
0100
0100
,
0010
0000
0110
MMMM
0000
1001
MMMM
0000
;

//--------------- dance-double - forcednature ----------------
#NOTES:
     dance-double:
     forcednature:
     Easy:
     9:
     0,0,0,0,0:
00000000
00000000
00000000
00000000
,
00000000
00000000
00000000
00000000
,
00000000
00000000
00000000
00000000
,
00000000
00000000
00000000
00000000
,
00000000
00000000
00000000
00000000
,
00000000
00000000
00000000
00000000
,
00011000
00001000
01000000
00010000
,
10000000
00000000
00100000
10000000
00000000
00100000
10000000
00000000
,
01000000
00100000
00010000
01000000
,
00001000
00010000
00000100
00001000
,
00000001
00001000
00000001
00001000
00000010
00000100
00000010
00000100
,
00000000
00000000
00000000
00000000
,
00001001
00000001
00000100
00000010
,
00001000
00000000
00000100
00000000
00010000
00000000
00001000
00100000
,
00001000
00000000
00010000
00000000
00001000
01000000
00001000
01000000
,
00000000
00000000
00000000
00000000
,
10010000
10000000
00100000
01000000
,
00010000
00100000
00001000
00010000
,
00000100
00000000
00001000
00000000
00000001
00000100
00000001
00000100
,
00000000
00000000
00000000
00000000
,
00000110
00000001
00001000
00000100
,
00020000
00001000
00001000
00031000
,
00010000
00001000
01000000
00010000
,
10000000
00000000
00100000
00000000
10000000
00010000
10000000
00010000
,
10000000
00100000
01000000
00001000
,
00011000
00010000
00000100
00001000
,
00000110
00000001
00001000
00000010
,
00000000
00001000
00000001
00001000
00000001
00000000
00000000
00000000
,
00001001
00000001
00000100
00000010
,
00001000
00000000
00000100
00000000
00010000
00000000
00001000
00010000
,
00001000
01000000
00010000
10000000
,
00200000
01000000
02000000
03300000
,
10010000
10000000
01000000
00100000
,
10010000
00010000
01000000
00001000
,
00011000
00010000
00000100
00001000
,
00001001
00000001
00000100
00000010
,
00001001
00001001
00001001
00001001
,
00000010
00000110
00000100
00001001
,
00000001
00001000
00000001
00001000
00000000
00000000
00000000
00000000
,
00001000
00011000
00100000
00101000
,
10000000
00010000
10000000
00010000
00000000
00000000
00000000
00000000
,
01000000
01001000
00001000
00010100
,
00001000
00000000
00000001
00001000
00000000
00000000
00000000
00000000
,
00000010
00000110
00000001
00001001
,
00000100
00001000
00000100
00001000
00000000
00000000
00000000
00000000
,
00101000
00100000
00010000
01000000
,
01100000
10010000
01100000
10010000
,
10010000
01000000
00100000
00010000
,
00011000
00010100
00011000
00010100
,
00011000
00001000
00000100
00000010
,
00001001
00000101
00001001
00000101
,
00002100
00000001
00000001
00003001
,
00001000
00000100
00010000
00001000
,
01000000
00010000
01000000
00010000
10000000
00100000
10000000
00100000
,
00000000
00000000
00000000
00000000
,
10010000
10000000
01000000
00100000
,
00001000
00000000
00000000
00010000
00000000
00001000
00000000
00000000
,
00000100
00000010
00001000
00000001
,
00000010
00000100
00000010
00000100
00000000
00000000
00001000
00000000
,
00001001
00000001
00000100
00000010
,
00010000
00000000
00001000
00000000
00100000
00000000
00010000
10000000
,
00010000
01000000
00100000
10000000
,
00000000
00010000
01000000
00010000
01000000
00000000
00000000
00000000
,
00011000
00010000
00000100
00001000
,
00000010
00000000
00000100
00000000
00000001
00000000
00001000
00000010
,
00001000
00000100
00010000
00001000
,
02000000
00010000
00020000
03030000
,
10010000
10000000
01000000
00100000
,
00110000
00010000
00100000
00001000
,
00011000
00010000
00000100
00001000
,
00001010
00010000
00001000
00100000
,
10010000
10010000
10010000
10010000
,
01000000
00110000
00010000
00101000
,
00001000
00010000
00001000
00010000
00000000
00000000
00000000
00000000
,
00000010
00001010
00000100
00000101
,
00001000
00000001
00001000
00000001
00000000
00000000
00000000
00000000
,
00000010
00000110
00001000
00011000
,
01000000
00000000
00010000
01000000
00000000
00000000
00000000
00000000
,
00100000
11000000
00100000
00110000
,
00001000
00010000
00001000
00010000
00000000
00000000
00000000
00000000
,
00000110
00000001
00001000
00000100
,
00010100
00011000
00010100
00011000
,
00101000
00010000
10000000
00100000
,
01100000
01010000
01100000
01010000
,
01100000
00100000
10000000
01000000
,
01100000
11000000
01100000
11000000
,
10020000
01000000
01000000
01030000
,
01010000
00010000
00100000
00001000
,
00010000
00000100
00010000
00000100
00001000
00000100
00001000
00000100
;

//--------------- dance-double - forcednature ----------------
#NOTES:
     dance-double:
     forcednature:
     Medium:
     12:
     0,0,0,0,0:
00000000
00000000
00000000
00000000
,
00000000
00000000
00000000
00000000
,
00000000
00000000
00000000
00000000
,
00000000
00000000
00000000
00000000
,
00000000
00000000
00000000
00000000
,
00000000
00000000
00000000
00000000
,
00001000
00010000
00001000
00100000
00001000
00010000
00000100
00000000
,
00010000
00001000
01000000
00010000
00000000
10000000
00100000
10000000
,
00010000
00100000
00010000
00100000
01000000
10000000
01000000
10000000
,
00010000
01000000
00010000
01000000
00001000
00010000
00001000
00010000
,
00000100
00001000
00000001
00000100
00000010
00001000
00000001
00000010
,
00000100
00000000
00001001
00000000
00000000
00000110
00000000
00000000
,
00001001
00000000
00000001
00000010
00001000
00000010
00001000
00010000
,
00000000
00100000
10000000
00010000
01000000
00100000
10000000
01000000
,
00010000
01000000
00010000
00001000
00000100
00001000
00010000
00000100
,
00000010
00000000
00001001
00000000
00001000
00000000
00000001
00001000
,
00000001
00000100
00001000
00010000
00001000
00010000
00000100
00010000
,
00000000
00001000
00100000
00001000
00010000
00001000
01000000
00010000
,
10000000
00100000
10000000
01000000
00100000
00010000
01000000
00001000
,
00020000
00000000
00000000
00000000
00030000
00000100
00001000
00000100
,
00000010
00000001
00000010
00000100
00001000
00000000
00000001
00000100
,
00000001
00000101
00000110
00001010
,
00001000
00000100
00010000
00001000
00100000
00000000
00010000
01000000
,
00010000
01010000
01100000
10100000
,
10000000
01000000
00010000
00001000
00000100
00000001
00000010
00000000
,
00000001
00000100
00001000
00010000
01000000
10000000
00100000
00000000
,
10000000
01000000
00100000
00001000
00010000
00000100
00000010
00000001
,
00000000
00000100
00000010
00000100
00000010
00000000
00001000
00000000
,
00001001
00000000
00000001
00000100
00000010
00001000
00000001
00000010
,
00000100
00000000
00010000
00001000
00100000
00010000
01000000
00100000
,
10000000
00000000
00010000
00100000
01000000
10000000
00010000
01000000
,
00002000
00000000
00010000
00000000
00010000
00010000
00013000
00000000
,
00001000
00010000
00000100
00001000
00000001
00000100
00000010
00000000
,
00001000
00000100
00010000
00001000
01000000
00010000
10000000
00000000
,
01000000
10000000
00010000
00100000
01000000
10000000
00010000
00000000
,
01000000
00001000
00010000
00000100
00001000
00000001
00000100
00000000
,
00000110
00001001
00000110
00001001
,
00000001
00000110
00001000
00000110
,
00000001
00000100
00000010
00001000
00000000
00000100
00010000
00000000
,
00001000
01100000
10000000
01100000
,
10000000
00100000
01000000
00010000
00000000
00100000
00001000
00000000
,
00010000
00000110
00000001
00000110
,
00001001
00000000
00000100
00000010
00000000
00001000
00000001
00000000
,
00000100
00011000
01000000
00011000
,
00100000
00010000
01000000
00100000
00000000
10000000
01000000
10000000
,
01000000
00100000
00010000
01000000
00001000
00010000
00000100
00000000
,
00001100
00000011
00000110
00000000
,
00000001
00000100
00000010
00001000
00000001
00000010
00000100
00000000
,
00001100
00011000
01010000
00000000
,
10000000
00010000
10000000
01000000
00100000
00010000
01000000
00000000
,
00110000
00011000
00001010
00000000
,
00000001
00000100
00000001
00000100
00000001
00000010
00000001
00000010
,
00000100
00001000
00000100
00001000
00000100
00010000
00000100
00010000
,
00001000
00100000
00010000
00100000
01000000
10000000
00010000
01000000
,
00100000
00000000
10010000
00000000
00000000
01100000
00000000
00000000
,
10010000
00000000
10000000
01000000
10000000
00010000
00100000
00001000
,
00010000
00000000
00000100
00001000
00000000
00000001
00000100
00000000
,
00000010
00000000
00001000
00000001
00000010
00000100
00001000
00000001
,
00000100
00000010
00000100
00000010
00000000
00001000
00000001
00000000
,
00001001
00000000
00000001
00000100
00000010
00001000
00000100
00000000
,
00011000
00000000
00100000
00010000
01000000
00100000
10000000
00000000
,
10010000
00000000
10000000
01000000
00100000
00010000
01000000
00100000
,
00000000
10000000
00010000
10000000
00010000
00000000
10000000
00000000
,
01010000
00000000
00010000
00100000
00001000
00010000
00000010
00001000
,
00000001
00000010
00000100
00001000
00000001
00000000
00000100
00000010
,
00010000
00001000
01000000
00010000
00100000
01000000
10000000
00010000
,
02000000
00000000
00100000
00000000
00010000
00010000
03010000
00000000
,
01000000
00001000
01000000
00001000
00010000
00000100
00001000
00000000
,
00000001
00000100
00000010
00001000
00000100
00000010
00000001
00000000
,
00000100
00000010
00000100
00000010
00000100
00000001
00000100
00000000
,
00000010
00001000
00000010
00001000
00000010
00010000
00000010
00000000
,
00011000
00110000
00011000
01100000
,
01000000
00000000
20020000
30030000
00100000
00000000
20020000
30030000
,
10000000
00100000
01000000
00010000
00000000
00100000
00001000
00000000
,
00010000
00000000
00000220
00000330
00000001
00000000
00000220
00000330
,
00000001
00000100
00000010
00001000
00000000
00000001
00000010
00000000
,
00000100
00000000
00022000
00033000
01000000
00000000
00022000
00033000
,
00011000
00000000
00100000
00010000
00000000
01000000
00100000
00000000
,
10000000
00000000
02200000
03300000
00010000
00000000
02200000
03300000
,
10000000
00010000
01000000
00010000
00000000
00100000
00001000
00010000
,
00000100
00001000
00000001
00000100
00000010
00001000
00000100
00000000
,
00000220
00000330
00002200
00003300
00020200
00030300
00022000
00033000
,
00100000
00010000
01000000
00010000
10000000
00100000
10000000
00000000
,
22000000
33000000
20020000
30030000
02020000
03030000
00220000
00330000
,
00001000
00010000
00000100
00001000
00000001
00000100
00000010
00000000
,
00002020
00003030
00000220
00000330
00000202
00000303
00002002
00003003
,
00000001
00000100
00000001
00000100
00000010
00001000
00000010
00001000
,
00000100
00010000
00001000
00100000
00001000
00010000
00001000
01000000
,
00010000
10000000
01000000
00100000
00010000
01000000
00100000
10000000
;

//--------------- dance-double - forcednature ----------------
#NOTES:
     dance-double:
     forcednature:
     Hard:
     15:
     0,0,0,0,0:
00000000
00000000
00000000
00000000
,
00000000
00000000
00000000
00000000
,
00000000
00000000
00000000
00000000
,
00000000
00000000
00000000
00000000
,
00000000
00000000
00000000
00000000
,
00000000
00000000
00000000
00000000
,
00010000
00000000
00000100
00001000
00000100
00000000
00000010
00000000
00000001
00000100
00000001
00000000
00000010
00000000
00001000
00000000
,
00021000
00000000
00030000
00000000
00000100
00000000
00010200
00000000
00000300
00000000
00010000
00000000
00001000
00000000
00100000
00010000
,
00100000
00100000
00100000
00100000
01000000
01000000
01000000
01000000
,
10000000
00010000
10000000
00000000
00010000
01000000
00010000
00000000
00100000
00001000
00010000
00000100
00010000
00000000
00001000
00000000
,
00000100
00000001
00001000
00000100
00010000
01000000
10000000
00010000
,
01000000
00000000
00011000
00001000
00000000
00011000
00010000
00000000
,
00000110
00000000
00000001
00000010
00000100
00001000
00010000
00100000
,
00000000
01000000
10000000
00100000
00010000
00001000
00000010
00000001
,
00001000
00000100
00010000
00001000
01000000
01000000
01000000
01000000
,
00100000
00000000
10010000
00000000
00010000
00000000
01000000
00001000
,
01001000
00000000
00001000
00010000
00000100
00000010
00000001
00001000
,
00000000
00000100
00010000
00001000
01000000
00010000
10000000
01000000
,
00010000
00001000
00000100
00000001
00001000
00001000
00001000
00001000
,
00000200
00000000
00000000
00000000
00000000
00000000
00000000
00000000
00000000
00000000
00001300
00000100
00001000
00000000
00000010
00000000
,
00000110
00000000
00000001
00001000
00000100
00000010
00001000
00010000
,
00000000
00100000
02000000
00000000
10000000
00000000
00010000
03000000
,
01000000
00001000
00010000
01000000
10000000
00100000
01000000
01010000
,
00000000
00011000
00000000
00001100
00000000
00000001
00001000
00001000
,
00001010
00000000
00010000
00001000
00100000
01000000
10000000
00100000
,
01100000
00000000
00001000
00010000
00000010
00000100
00000001
00000010
,
00000110
00000000
00000000
00000000
00010000
00000000
00001000
00000000
01000000
00000000
00100000
10000000
00100000
00000000
01000000
00000000
,
00000000
00000000
00001000
00000000
00001000
00000000
00001000
00000000
00001000
00000000
00000000
00000000
00010000
00000000
00000100
00001000
,
00000100
00000000
00000010
00000001
00001000
00000100
00010000
00001000
,
01000000
00010000
10000000
00200000
01000000
00000000
01000000
01300000
,
00100000
00010000
00001000
00000100
00000001
00001000
00000100
00010000
,
00002000
00000000
00203000
00000000
01300000
01000000
01000000
01000000
,
10000000
00010000
10000000
00000000
00100000
00000000
01000000
00000000
00001000
00000000
00010000
00000000
00000010
00000000
00001000
00000000
,
00000100
00010000
00000100
00000000
00001000
00000000
00000001
00000000
00000100
00000000
00001000
00000000
00010000
00000000
00100000
00000000
,
10000000
00010000
10000000
00000000
10000000
00000000
10000000
00000000
00010000
00000000
00010000
00000000
00010000
00000000
00010000
00000000
,
01000000
00100000
01000000
00000000
00001000
00000000
00010000
00000000
00000100
00000000
00000010
00000000
00000001
00000000
00000100
00000000
,
00000010
00001000
00000010
00000000
00010000
00001000
00010000
00000000
00000100
00010000
00001000
00100000
00001000
00000000
00010000
00000000
,
01000000
00000000
01000000
00000000
10000000
00000000
00000000
00000000
00100000
00000000
00010000
00001000
00010000
00000000
00000100
00000000
,
00001000
00000000
00000001
00000000
00000100
00000000
00001000
00000000
00000000
00000000
00010000
00000000
00000100
00000000
00001000
00000010
,
00001000
00000000
00000100
00000000
00010000
00000000
00001000
00000000
00100000
00010000
00100000
01000000
10000000
00000000
00010000
01000000
,
00010000
00100000
00001000
00020000
00000100
00000000
00000020
00030030
,
00010000
00000000
00000100
00001000
00000100
00000000
00000000
00000000
00000010
00000000
00000001
00000100
00000001
00000000
00000010
00000000
,
00001000
00000000
00000000
00000000
00010000
00000000
01000000
00000000
00000000
00000000
10000000
00000000
00010000
00000000
01000000
00100000
,
01000000
00000000
00010000
00100000
00010000
00000000
00100000
00000000
00001000
00000000
00001000
00000000
00010000
00000000
00000010
00001000
,
00000010
00000100
00001000
00010000
00000000
00100000
10000000
00100000
,
01000000
00010000
01000000
00001000
00010000
00000000
00000100
00000000
00001000
00000000
00000001
00000000
00000100
00000000
00000010
00000000
,
00002000
00000000
00003200
00000000
00020300
00000000
00001000
00031000
,
00010000
00000100
00010000
00001000
00100000
00000000
01000000
00000000
10000000
00000000
00100000
00000000
00010000
00000000
00001000
00000000
,
00000200
00000000
00000302
00000000
00002003
00000100
00000100
00003100
,
00001000
00000010
00010000
00001000
00010000
00000000
00100000
00000000
10000000
00000000
01000000
00000000
00100000
00000000
00001000
00000000
,
00020000
00000000
00030020
00000000
00000230
00000001
00000001
00000301
,
00000100
00000100
00000100
00000100
00000010
00000010
00000010
00000010
,
00001000
00000010
00001000
00000001
00000100
00000001
00001000
00000000
00000100
00010000
00001000
00100000
00001000
00010000
00000100
00000000
,
00010000
00010000
00010000
00010000
00001000
00001000
00001000
00001000
,
01000000
00000000
10010000
10000000
00000000
10010000
00010000
00000000
,
01001000
00000000
00000000
00001000
00000100
00000001
00000000
00001000
,
00000100
00000000
00010000
01000000
00000000
01100000
00000000
00000000
,
10010000
00000000
00010000
01000000
00100000
00010000
00000000
00001000
,
00000010
00000000
00000001
00000000
00001000
00000000
00000010
00000000
00000000
00000000
00010000
00001000
00010000
00000000
00000100
00000000
,
00010000
00001000
00000000
00000000
00001000
00100000
00000000
00000000
00100000
01000000
00000000
00000000
10000000
00000000
00010000
00000000
,
01000000
00010000
00000000
00000000
00010000
00100000
00000000
00000000
00100000
00001000
00000000
00000000
00010000
00000000
00000100
00000000
,
00001000
00000001
00000000
00000000
00000001
00000100
00000000
00000000
00000010
00000000
00010000
00001000
00010000
00000000
00100000
00000000
,
00000000
00000000
10000000
00000000
10000000
00000000
10000000
00000000
10000000
00000000
00100000
00000000
01000000
00000000
00001000
00010000
,
00001000
00000000
00000100
00000010
00001000
00000001
00000000
00000010
,
00001000
00010000
01000000
10000000
00020000
00000000
01000000
01030000
,
00010000
00100000
00001000
00010000
00000100
00000010
00000001
00000100
,
00000020
00000000
00000001
00000000
00001000
00001000
00001000
00001030
,
00000010
00000100
00000010
00000000
00001000
00000000
00000001
00000000
00000100
00000000
00001000
00000000
00010000
00000000
01000000
00000000
,
10000000
00010000
10000000
00000000
00100000
00000000
00010000
00000000
00001000
00000000
00000010
00000000
00000001
00000000
00001000
00000000
,
00000100
00001000
00000100
00000000
00000100
00000000
00000100
00000000
00010000
00000000
00010000
00000000
00010000
00000000
00010000
00000000
,
00001000
00100000
00001000
00000000
00010000
00000000
00100000
00000000
01000000
00000000
00010000
00000000
10000000
00000000
01000000
00000000
,
00100000
00010000
00100000
00000000
00001000
01000000
00001000
00000000
00010000
00001000
00010000
00000100
00001000
00000000
00000010
00000000
,
00000100
00000000
00000100
00000000
00000002
00000000
00000000
00000000
00001003
00000000
00000001
00000010
00000001
00000000
00000100
00000000
,
00001000
00000000
00010000
00000000
00000100
00000000
00020000
00000000
00000000
00000000
01030000
00000000
10000000
00000000
00010000
01000000
,
00010000
00000000
10000000
00000000
00100000
00000000
00010000
00000000
00001000
00010000
00000100
00001000
00000100
00000000
00000010
00000001
,
00000010
00000100
00010000
00002000
00000000
01000000
02000000
03003000
,
00001000
00000000
00100000
00010000
00200000
00000000
00000000
00000000
01300000
00000000
10000000
00010000
10000000
00000000
00100000
00000000
,
00020000
00000000
00000000
00000000
00031000
00000000
00000200
00000000
00000000
00000000
00000301
00000000
00001000
00000000
00000100
00001000
,
00000100
00000000
00010000
00001000
00010000
00000000
00100000
00000000
01000000
00000000
01000000
00000000
00010000
00000000
10000000
00100000
,
10000000
01000000
00010000
00002000
00000000
00003100
00000001
00001000
,
00000100
00010000
00001000
00100000
00001000
00000000
00010000
00000000
00100000
00000000
01000000
00000000
00010000
00000000
10000000
00000000
,
02000000
00000000
03020000
00000000
00032000
00000000
00000100
00003100
,
00001000
00010000
00001000
01000000
00010000
00000000
00100000
00000000
10000000
00000000
00100000
00000000
00010000
00000000
01000000
00000000
,
00002000
00000000
00003200
00000000
00000302
00001000
00001000
00001003
,
00000001
00000100
00000010
00001000
00000010
00000000
00000100
00000000
00001000
00000000
00010000
00000000
00100000
00000000
10000000
00000000
,
02000000
00000000
03200000
00000000
00302000
00010000
00010000
00013000
,
00001000
00001000
00001000
00001000
00010000
00010000
00010000
00010000
,
00000010
00010000
00001000
01000000
00001000
00010000
00001000
00000000
00100000
00010000
00100000
01000000
10000000
01000000
00100000
00000000
,
00010000
00010000
00010000
00010000
01000000
01000000
01000000
01000000
,
00001000
00000000
00011000
00010000
00000000
00011000
00001000
00000000
;

//--------------- dance-double - forcednature ----------------
#NOTES:
     dance-double:
     forcednature:
     Challenge:
     17:
     0,0,0,0,0:
00000000
00000000
00000000
00000000
,
00000000
00000000
00000000
00000000
,
00000000
00000000
00000000
00000000
,
00000000
00000000
00000000
00000000
,
00000000
00000000
00000000
00000000
,
00000000
00000000
00000000
00000000
,
00010000
00000000
00001000
01000000
00010000
00000000
10000000
00100000
01000000
00010000
01000000
00001000
00010000
00001000
00100000
00010000
,
00100000
00000000
00000000
00000000
00000000
00000000
00001000
00000000
00000000
00010000
00000000
00000000
00000100
00000000
00000000
00000000
00000000
00000000
00001000
00000000
00000000
00000000
00000000
00000000
00000000
00000000
00000000
00000000
00000000
00000000
00000001
00000000
00000000
00000000
00000000
00000000
00000100
00000000
00000000
00000000
00000000
00000000
00000001
00000000
00001000
00000000
00000001
00000000
,
00001000
00001000
00000100
00000100
00010000
00010000
00001000
00001000
,
00100000
00000000
00000000
00010000
00000000
00000000
00100000
00000000
00000000
01000000
00000000
00000000
10000000
00000000
00000000
00100000
00000000
00000000
01000000
00000000
00000000
00010000
00000000
00000000
01000000
00000000
00000000
00001000
00000000
00000000
00010000
00000000
00001000
00000000
00010000
00000000
00001000
00000000
00000000
00000000
00000000
00000000
00010000
00000000
00000000
00000000
00000000
00000000
,
00000100
00000100
00010000
00010000
00001000
00001000
00100000
00100000
,
01000000
00000000
10010000
MMMM0000
00000000
01100000
MMMM0000
00000000
,
10010000
00000000
10000000
01000000
00010000
00001000
00000100
00000001
,
00000010
00000000
00000100
00001000
00000010
00000000
00000100
00000001
00001000
00000000
00000100
00010000
00001000
00000000
00100000
00000000
,
00010000
10000000
00100000
10000000
01000000
01000000
00010000
00010000
,
00001000
00000000
00000110
00000000
00000001
00000000
00001000
00001000
,
00001010
00000000
00000001
00000100
00001000
00010000
01000000
10000000
,
00100000
00000000
01000000
00010000
10000000
00000000
01000000
00100000
00010000
00000000
00100000
00001000
00010000
00000000
00000100
00000000
,
00001000
00000001
00000100
00001000
00010000
00010000
00000010
00000010
,
0000MMMM
00000000
00000000
00000000
00000000
00000000
0000MMMM
00000000
00000000
00000000
00000000
00000000
0000MMMM
00000000
00000000
00000001
00001000
00000001
00001000
00000000
00000000
00000001
00000000
00000000
,
00001001
00001000
00000010
00000100
00000001
00000010
00001000
00010000
,
00100000
00010000
00002000
00000000
00000100
00000000
00010000
00013000
,
00001000
00000000
00100000
00000000
00010000
00000000
10000000
00000000
00100000
00000000
00010000
00000000
00001000
00000000
00010000
00000100
,
00010000
00000000
00000010
00001000
00000010
00000000
00000100
00000000
00000001
00000000
00000001
00000000
00000010
00000000
00000010
00000000
,
00000100
00010000
00001000
01000000
00100000
10000000
01000000
00100000
,
00010000
00001000
00000100
00010000
00000010
00000100
00001000
00010000
,
00000100
00000000
00000000
00010000
00000000
00000000
01000000
00000000
00000000
10000000
00000000
00000000
00100000
00000000
00000000
10000000
00010000
10000000
00010000
00000000
00000000
01000000
00000000
00000000
,
00000000
00000000
00000000
00001000
00000000
00000000
00001000
00000000
00000000
00010000
00000000
00000000
00010000
00000000
00000000
00000000
00000000
00000000
00000100
00000000
00000000
00001000
00000100
00001000
,
00000100
00000000
00000010
00000001
00000100
00001000
00000100
00000001
,
00000010
00001000
00010000
00100000
02000000
00000000
10000000
13000000
,
01000000
00100000
10000000
00010000
00100000
00001000
00010000
00000100
,
00020000
00000000
01000000
00000000
00001000
00001000
00000100
00030100
,
00010000
00000000
00000100
00010000
00001000
00000000
00100000
00010000
10000000
00000000
00100000
01000000
00010000
00000000
00100000
00000000
,
00001000
00000000
00010000
00000010
00001000
00000000
00000100
00000010
00000001
00000000
00000100
00000010
00001000
00000000
00000100
00000000
,
00010000
00000000
00001000
01000000
00010000
01000000
00100000
00000000
10000000
00000000
01000000
00100000
00010000
00100000
00001000
00000000
,
00010000
00000000
00000100
00001000
00000001
00000010
00000100
00001000
00000100
00000000
00010000
00001000
00010000
00000010
00001000
00000010
,
00010000
00000000
00001000
00000000
00010000
00000000
00001000
00000000
00000000
00010000
00000000
00000000
00000100
00000000
00001000
00000000
00000100
00000000
00001000
00000000
00000000
00000100
00000000
00000000
00000010
00000000
00000001
00000000
00000010
00000000
00000001
00000000
00000000
00000010
00000000
00000000
00000100
00000000
00000000
00000000
00000000
00000000
00000100
00000000
00000000
00000000
00000000
00000000
,
00010000
00000000
00000000
00000000
00000000
00000000
00010000
00000000
00000000
00000000
00000000
00000000
00011000
00000000
00000000
00000000
00000000
00000000
00001000
00000000
00000000
01000000
00000000
00000000
00010000
00000000
00000000
00000000
00000000
00000000
10000000
00000000
00100000
00000000
10000000
00000000
00100000
00000000
00000000
00000000
00000000
00000000
01000000
00000000
00000000
00000000
00000000
00000000
,
00010000
00000000
00000000
00000000
00000000
00000000
10000000
00000000
00000000
00000000
00000000
00000000
01000000
00000000
00000000
00000000
00000000
00000000
11000000
00000000
00000000
00000000
00000000
00000000
MMMM0000
00000000
00000000
00000000
00000000
00000000
10000000
00000000
00000000
00010000
00000000
00000000
01000000
00000000
00000000
00000000
00000000
00000000
00001000
00000000
00010000
00000000
00001000
00000000
,
00010000
00000000
00000000
00000000
00000000
00000000
00000100
00000000
00000000
00000000
00000000
00000000
00001000
00000000
00000000
00000000
00000000
00000000
00000001
00000000
00000000
00000000
00000000
00000000
00000100
00000000
00000000
00000001
00000000
00000000
00000100
00000000
00000001
00000000
00000100
00000000
00000001
00000000
00000000
00000000
00000000
00000000
00001000
00000000
00000001
00000000
00001000
00000000
,
00000001
00000000
00000010
00000000
00000001
00000000
00000101
00000000
0000MMMM
00000000
00000001
00000100
00000001
00000000
00000010
00000000
,
00000100
00000000
00000000
00000000
00000000
00000000
00010000
00000000
00001000
00000000
00010000
00000000
00002000
00000000
00000000
00000000
00000000
00000000
00003000
00000000
00000000
00000000
00000000
00000000
01000000
00000000
00000000
00000000
00000000
00000000
00010000
00000000
00000000
10000000
00000000
00000000
00100000
00000000
00000000
00000000
00000000
00000000
00100000
00000000
00000000
00000000
00000000
00000000
,
02200000
00000000
00000000
03300000
00000000
00000000
00010000
00000000
00000000
10010000
00000000
00000000
MMMM0000
00000000
00000000
10000000
00000000
00000000
00100000
00000000
00000000
01000000
00010000
01000000
,
00010000
00000000
01000000
00001000
00010000
00000000
00001000
00010000
00000100
00000000
00001000
00000000
00000001
00000000
00000100
00000010
,
00000100
00000000
00000000
00000000
00000000
00000000
00000001
00000000
00000000
00000000
00000000
00000000
00001000
00000000
00000000
00000000
00000000
00000000
00001001
00000000
00000000
00000000
00000000
00000000
0000MMMM
00000000
00000000
00000000
00000000
00000000
00001000
00000000
00000000
00000010
00000000
00000000
00001000
00000000
00000000
00000000
00000000
00000000
00000001
00000000
00000100
00000000
00000001
00000000
,
00000100
00000000
00000010
00000100
00000010
00001000
00000001
00000000
00000100
00000000
00001000
00010000
00001000
00000000
00100000
00000000
,
00110000
00000000
11000000
00000000
01100000
00000000
00010000
00010000
,
01010000
00000000
01000000
00100000
10000000
00010000
00100000
00000000
01000000
00000000
00010000
00001000
00010000
00000000
00000010
00000000
,
00001010
00000000
00000101
00000000
00001000
00001000
00000100
00000100
,
00001100
00000000
00001000
00000010
00010000
00001000
00010000
00000000
00100000
00000000
10000000
00010000
01000000
00000000
00100000
00000000
,
01100000
00000000
00011000
00000000
00000100
00000100
00010000
00010000
,
00012000
00010000
01000000
01000000
00010000
00010000
00100000
00103000
,
00001000
00000000
00000000
00100000
00000000
00000000
00001000
00000000
00000000
00010000
00000000
00000000
00000100
00000000
00000000
00010000
00000000
00000000
00000100
00000000
00000000
00001000
00000000
00000000
00000001
00000000
00000000
00001000
00000000
00000000
00000001
00000000
00001000
00000000
00000001
00000000
00001000
00000000
00000000
00000000
00000000
00000000
00000100
00000000
00000000
00000000
00000000
00000000
,
00001000
00001000
00000010
00000010
00010000
00010000
00001000
00001000
,
01000000
00000000
01010000
MMMM0000
00000000
10100000
MMMM0000
00000000
,
10010000
00000000
10000000
01000000
00010000
00001000
00000100
00000001
,
00000010
00001000
00010000
00000100
00000000
00100000
00001000
00010000
,
00100000
10000000
01000000
00100000
00001000
00010000
00000010
00000100
,
00000001
00000000
00000000
00000100
00000000
00000000
00001000
00000000
00000000
00010000
00000000
00000000
00000000
00000000
00000000
00000100
00001000
00000100
00001000
00000000
00000000
00000001
00000000
00000000
,
00000101
00000000
00010010
00000000
00011000
00000000
00001000
00100000
,
00110000
00000000
11000000
00000000
00110000
00000000
00001000
00010000
,
00010100
00000000
00000000
00000000
00000000
00000000
00001001
00000000
00000000
00000000
00000000
00000000
00001000
00000000
00000000
00000001
00000100
00000001
00000100
00000000
00000000
00000010
00000000
00000000
,
00000000
00000000
00000000
00010000
00000000
00000000
00010000
00000000
00000000
00001000
00000000
00000000
00001000
00000000
00000000
00000000
00000000
00000000
01000000
00000000
00000000
00010000
10000000
00010000
,
10000000
00000000
00010000
10000000
01000000
00010000
00001000
00000100
,
00000001
00000010
00000100
00001000
00000001
00000000
00000100
00000100
,
00001000
00010000
00100000
01000000
00010000
01000000
00001000
00000100
,
00000020
00000000
00000000
00000000
00000200
00000030
00000000
00000000
00001000
00000000
00001000
00000000
00000001
00000000
00000301
00000000
,
00000100
00000000
00000001
00001000
00000100
00000000
00000010
00000100
00001000
00000000
00000010
00010000
00001000
00000000
00100000
00000000
,
00001000
00000000
00010000
00001000
01000000
00000000
00100000
10000000
01000000
00000000
00100000
00010000
10000000
00000000
00010000
00000000
,
01000000
00000000
00001000
00010000
00000100
00001000
00000100
00000000
00000010
00000000
00000001
00000100
00000010
00001000
00000010
00000000
,
00001000
00000000
00000100
00010000
00001000
00100000
00010000
00100000
00001000
00000000
00010000
00001000
01000000
00010000
10000000
00010000
,
10000000
00000000
00100000
00000000
10000000
00000000
00100000
00000000
00000000
10000000
00000000
00000000
00010000
00000000
01000000
00000000
00010000
00000000
01000000
00000000
00000000
00010000
00000000
00000000
10000000
00000000
01000000
00000000
10000000
00000000
01000000
00000000
00000000
10000000
00000000
00000000
00010000
00000000
00000000
00000000
00000000
00000000
00010000
00000000
00000000
00000000
00000000
00000000
,
01000000
00000000
00000000
00000000
00000000
00000000
01000000
00000000
00000000
00000000
00000000
00000000
01020000
00000000
00000000
00000000
00030000
00000000
00010000
00000000
00000000
00100000
00000000
00000000
00001000
00000000
00000000
00000000
00000000
00000000
00010000
00000000
00000100
00000000
00010000
00000000
00000200
00000000
00000000
00000000
00000300
00000000
00001000
00000000
00000000
00000000
00000000
00000000
,
00000010
00000000
00000000
00000000
00000000
00000000
00000100
00000000
00000000
00000000
00000000
00000000
00000001
00000000
00000000
00000000
00000000
00000000
00001001
00000000
00000000
00000000
00000000
00000000
0000MMMM
00000000
00000000
00000000
00000000
00000000
00001000
00000000
00000000
00000010
00000000
00000000
00000100
00000000
00000000
00000000
00000000
00000000
00000001
00000000
00001000
00000000
00000001
00000000
,
00001000
00000000
00000000
00000000
00000000
00000000
00000100
00000000
00000000
00000000
00000000
00000000
00020000
00000000
00000000
00000000
00030000
00000000
00001000
00000000
00000000
00000000
00000000
00000000
01000000
00000000
00000000
00010000
00000000
00000000
01000000
00000000
00010000
00000000
01000000
00000000
00020000
00000000
00000000
00000000
00030000
00000000
10000000
00000000
00100000
00000000
10000000
00000000
,
00100000
00000000
01000000
00000000
00010000
00000000
10010000
00000000
MMMM0000
00000000
10000000
01000000
00100000
00000000
00010000
00000000
,
01000000
00000000
00000000
00000000
00000000
00000000
00001000
00000000
00010000
00000000
00001000
00000000
00020000
00000000
00000000
00000000
00000000
00000000
00030000
00000000
00000000
00000000
00000000
00000000
00000100
00000000
00000000
00000000
00000000
00000000
00010000
00000000
00000000
00001000
00000000
00000000
00020000
00000000
00000000
00000000
00030000
00000000
00000010
00000000
00000000
00000000
00000000
00000000
,
00002020
00000000
00000000
00003030
00000000
00000000
00000001
00000000
00000000
00000101
00000000
00000000
0000MMMM
00000000
00000000
00001000
00000000
00000000
00000100
00000000
00000000
00000010
00000001
00000010
,
00000001
00000000
00000000
00000000
00000000
00000000
00001000
00000000
00000000
00000001
00000000
00000000
00000200
00000000
00000000
00000000
00000300
00000000
00000010
00000000
00000000
00001000
00000000
00000000
00000100
00000000
00000000
00000000
00000000
00000000
00010000
00000000
00000000
00000000
00000000
00000000
00002000
00000000
00000000
00000000
00003000
00000000
00010000
00000000
00000000
00001000
00000000
00000000
,
01000000
00000000
00000000
00000000
00000000
00000000
00010000
00000000
00000000
00000000
00000000
00000000
10000000
00000000
00000000
00000000
00000000
00000000
10100000
00000000
00000000
00000000
00000000
00000000
MMMM0000
00000000
00000000
00000000
00000000
00000000
00010000
00000000
00000000
10000000
00000000
00000000
00100000
00000000
00000000
00000000
00000000
00000000
01000000
00000000
00010000
00000000
01000000
00000000
,
00010000
00000000
01000000
00010000
01000000
00001000
00010000
00000000
00000100
00000000
00001000
00000001
00000010
00000000
00000100
00000000
,
00002200
00000000
00003300
00000000
00000000
00000000
00022000
00000000
00033000
00000000
00000000
00000000
02020000
00000000
03030000
00000000
00000000
00000000
10000000
00000000
00000000
10000000
00000000
00000000
,
11000000
00000000
01000000
00100000
00010000
01000000
00100000
00000000
10000000
00000000
00010000
01000000
00001000
00000000
00010000
00000000
,
00022000
00000000
00033000
00000000
00000000
00000000
00000220
00000000
00000330
00000000
00000000
00000000
00000001
00000000
00000000
00000001
00000000
00000000
00000100
00000000
00000000
00000100
00000000
00000000
,
00000101
00000000
00000001
00001000
00000100
00000010
00000001
00000000
00000100
00000000
00000010
00001000
00000100
00000000
00010000
00000000
,
00022000
00000000
00033000
00000000
00000000
00000000
02200000
00000000
03300000
00000000
00000000
00000000
10000000
00000000
00000000
10000000
00000000
00000000
00010000
00000000
00000000
00010000
00000000
00000000
,
00210000
00010000
10000000
10000000
01000000
01000000
00010000
00310000
,
00100000
00000000
00000000
00010000
00000000
00000000
00100000
00000000
00000000
00001000
00000000
00000000
00010000
00000000
00000000
00001000
00000000
00000000
00010000
00000000
00000000
00000100
00000000
00000000
00001000
00000000
00000000
00000001
00000000
00000000
00000100
00000000
00000001
00000000
00000100
00000000
00000001
00000000
00000000
00000000
00000000
00000000
00001000
00000000
00000000
00000000
00000000
00000000
,
00000100
00000100
00010000
00010000
00001000
00001000
01000000
01000000
,
00100000
00000000
01100000
MMMM0000
00000000
10010000
MMMM0000
00000000
;
