#VERSION:0.83;
#TITLE:Funk Assembly;
#SUBTITLE:;
#ARTIST:PSYQUI;
#TITLETRANSLIT:;
#SUBTITLETRANSLIT:;
#ARTISTTRANSLIT:;
#GENRE:;
#CREDIT:;
#MUSIC:Funk Assembly.ogg;
#BANNER:Tower of Eight Panels.png;
#BACKGROUND:Tower of Eight Panels-bg.png;
#CDTITLE:;
#SAMPLESTART:40.173;
#SAMPLELENGTH:11.836;
#SELECTABLE:YES;
#OFFSET:0.004;
#BPMS:0.000=162.000;
#STOPS:;
#SPEEDS:0.000=1.000=0.000=0;
#SCROLLS:0.000=1.000;
#TICKCOUNTS:0.000=4;
#TIMESIGNATURES:0.000=4=4;
#LABELS:0.000=Song Start;
#COMBOS:0.000=1;
#ORIGIN:;
#PREVIEWVID:;
#JACKET:;
#CDIMAGE:;
#DISCIMAGE:;
#LASTSECONDHINT:138.000000;
#BGCHANGES:;
#FGCHANGES:;

//--------------- dance-double - ----------------
#NOTEDATA:;
#STEPSTYPE:dance-double;
#DESCRIPTION:;
#DIFFICULTY:Easy;
#METER:10;
#RADARVALUES:0,0,0,0,0;
#CREDIT:Brother Mojo;
#NOTES:
00000000
00000000
00000000
00000000
,
00000000
00000000
00000000
00000000
,
00000000
00000000
00000000
00000000
,
00000000
00000000
00000000
00000000
,
00010000
00000000
00001000
00000000
00100000
00010000
01000000
00001000
,
00000000
00010000
00000000
00000000
00000000
00000100
00001000
00000000
,
00000010
00000100
00000000
00000001
00000000
00000000
00000000
00000000
,
00000000
00000000
00000000
00000000
,
00000010
00000000
00000100
00000000
00001000
00000010
00010000
00000000
,
00001000
00100000
00000000
00010000
00000000
01000000
00000000
00100000
,
00000000
10000000
01000000
00000000
00000000
00000000
00000000
00000000
,
20020000
00000000
00000000
00000000
00000000
00000000
00000000
30030000
,
10000000
00000000
01000000
00000000
00100000
00010000
10000000
00000000
,
00100000
00000000
01000000
00000000
00010000
00100000
00001000
00000000
,
00010000
00000000
00000010
00001000
00000100
00000000
00000010
00000000
,
00000001
00000100
00000010
00001000
,
00000001
00000000
00000010
00000000
00000100
00001000
00000010
00000000
,
00001000
00000100
00010000
00000000
00001000
00000000
00100000
00000000
,
00010000
01000000
00100000
00000000
01000000
00000000
00001000
00000000
,
00022000
00000000
00000000
00000000
00000000
00033000
00010000
00000010
,
00002000
00000000
00000000
00000000
,
00003200
00000000
00020300
00000000
,
00032000
00000000
00000000
02003000
,
00000000
00000000
03020000
00000000
,
10030000
01000000
00100000
00010000
,
01000000
00001000
00010000
00000010
,
00001000
00000100
00000010
00000001
00000100
00000010
00001000
00000100
,
00010000
00000000
00000000
00000000
,
00001000
00000000
00100000
00000000
00010000
00000000
01000000
00100000
,
00010000
00000000
00100000
01000000
00010000
00000000
00100000
00000000
,
00001000
00010000
00000010
00000100
,
00000001
00000100
00001000
00000000
00000000
00000000
00000000
00000000
,
00010000
00000000
00000010
00000000
00001000
00000000
00000100
00000010
,
00001000
00000000
00000010
00000100
00001000
00000000
00000010
00000000
,
00010000
00000000
00001000
00000000
01000000
00000000
00100000
10000000
,
00010000
00000000
00000000
00011000
,
00000010
00010010
00100000
00101000
,
00000100
00000000
00010100
00000000
01000000
00000000
00010000
00100000
,
01000000
11000000
00010000
01010000
,
10000000
01000000
00100000
00000000
00010000
01000000
00001000
00010000
,
00000100
00001100
00000001
00000011
,
00001000
00001010
00010000
00010100
,
00001000
01001000
00010000
00010010
,
00001000
00100000
00000000
00010000
00000000
01000000
00000000
00100000
,
10000000
00000000
00000000
01000000
00000000
00000000
00000000
00000000
,
00100000
00000000
00000000
00010000
00000000
00000000
00000000
00000000
,
01000000
00000000
00000000
00001000
00000000
00000000
00000000
00000000
,
00010000
00000000
00000000
00000100
00000000
00000000
00000000
00000000
,
00001000
00000000
00000000
00000010
00000000
00000000
00000000
00000000
,
00000100
00000000
00000000
00000001
00000000
00000000
00000000
00000000
,
00000010
00000000
00000000
00000100
00000000
00000000
00000000
00000000
,
00001001
00000000
00000000
00000000
,
00000001
00000100
00001000
00010000
,
00000010
00001000
00010000
01000000
,
00001000
00010000
00100000
10000000
,
01000000
00100000
00001000
00020000
,
02030000
13000000
01000000
00010000
,
00001000
00100000
00010000
00001000
,
00000100
00010000
00001000
00000010
,
00001001
00000000
00000000
00000000
,
00001000
00000000
00000010
00000000
00001000
00000001
00000010
00000000
,
00000100
00000000
00001000
00000000
00000100
00010000
00001000
00000000
,
00100000
00000000
00001000
00000000
01000000
00010000
00100000
00000000
,
01000000
10000000
00020000
00032000
,
00003002
00000000
00000013
00000000
00000100
00001000
00000001
00000000
,
00000100
00000000
00000010
00000000
00001000
00000100
00010000
00000000
,
00001000
01000000
00000000
00100000
00000000
10000000
00000000
01000000
,
00100000
00000000
00000000
00000000
00000000
00000000
00010000
00100000
,
00001000
00000000
01000000
00000000
00010000
00000000
00100000
01000000
,
00010000
00000000
01000000
00100000
00010000
00000000
01000000
00000000
,
00001000
00010000
00000100
00000010
,
00000001
00000010
00001000
00000000
00000000
00000000
00000000
00000000
,
00010000
00000000
00000100
00000000
00001000
00000000
00000010
00000100
,
00001000
00000000
00000100
00000010
00001000
00000000
00000100
00000000
,
00010000
00000000
00001000
00000000
00100000
00000000
01000000
10000000
,
00010000
00000000
00000000
00011000
,
00000010
00000100
00001000
01000000
,
00100000
00010000
00001000
00100000
,
00100000
01000000
00010000
00000100
,
00010000
00010000
00001000
00000000
00000000
00000000
00000000
00000000
,
01000000
00100000
00010000
00000010
,
00000100
00001000
00010000
00000100
,
00000100
00000010
00001000
00100000
,
10010000
00000000
00000000
00011000
,
00000100
00000000
00001000
00000010
00000000
00000010
00000100
00000000
,
00000001
00000000
00001000
00000100
00000000
00000100
00010000
00000000
,
00001000
00000000
01000000
00010000
00000000
00010000
00100000
00000000
,
01000000
00000000
10000000
00010000
00000000
00010000
01000000
00000000
,
00001000
00000000
00010000
00000010
00000000
00000010
00001000
00000000
,
00000100
00000000
00000010
00000001
00000000
00000001
00001000
00000000
,
00000010
00000000
00010000
00001000
00000000
00001000
00100000
00000000
,
00020000
00000000
00000000
00030000
00000000
00000000
01000000
00000000
00000000
00000000
01000000
00000000
00000000
00000000
00000000
00000000
;

//--------------- dance-double - ----------------
#NOTEDATA:;
#STEPSTYPE:dance-double;
#DESCRIPTION:;
#DIFFICULTY:Medium;
#METER:13;
#RADARVALUES:0.49393,0.548581,0.092612,0.632848,0.154353,448,436,12,82,0,0,0,0,0,0.49393,0.548581,0.092612,0.632848,0.154353,448,436,12,82,0,0,0,0,0;
#CHARTNAME:;
#CHARTSTYLE:;
#CREDIT:Brother Mojo;
#NOTES:
00000000
00000000
00000000
00000000
,
00000000
00000000
00000000
00000000
,
00000000
00000000
00000000
00000000
,
00000000
00000000
00000000
00000000
,
00000020
00000000
00002030
00000000
00003100
00000010
00001000
00020000
,
00000000
02030000
00000000
00000000
03000000
10000000
00100000
01000000
,
00010000
00200000
00000000
00301000
00000000
00000000
00000000
00000000
,
00000000
00000000
00000000
00000000
,
00020000
00000000
00030020
00000000
00001030
00000100
00000010
00000001
,
00000100
00000000
00000010
00001000
00000000
00000010
00020000
00000000
00000000
00000000
00031000
00000000
00000000
00000000
00100000
00000000
,
00000000
00100000
00020000
00000000
00030000
00000000
01000000
00100000
,
10000000
00000000
01000000
00010000
00001000
00000010
00000001
00000000
,
00002000
00000000
00003020
00000000
00000031
00000010
00001000
00000200
,
00000000
00000320
00000000
00000031
00000000
00000100
00001000
00010000
,
00001000
00200000
00000000
00310000
00000000
10000000
00100000
00000000
,
01000000
00010000
00100000
00001000
00000000
00100000
00010000
00000000
,
02000000
00000000
03200000
00000000
00310000
00001000
00000100
00000010
,
00001000
00000000
00000001
00000010
00000000
00000100
00002000
00000000
00000000
00000000
00003010
00000000
00000000
00000000
00000100
00000000
,
00000000
00001000
00020000
00000000
00031000
00100000
01000000
00000000
,
20020000
00000000
00000000
00000000
00000000
30030000
10000000
00100000
,
02000000
00100000
00100000
00100000
,
03020000
01000000
00230000
00010000
,
00302000
00100000
00100000
00023000
,
00001000
00001000
00030200
00001000
,
00020300
00000010
00000001
00000100
,
00032000
00100000
10000000
01000000
,
00013000
00000010
00000100
00001000
00010000
00100000
01000000
00010000
,
10000000
01000000
00000000
01000000
00010000
00001000
00000010
00000000
,
00000002
00000000
00000023
00000000
00000230
00000000
00010300
00000010
,
00000200
00000000
00000000
00000300
00000100
00000000
00000010
00000000
00020000
00000000
00000000
00000000
00031000
00000000
00000000
00001000
,
00100000
00000000
02000000
00000000
03200000
00000000
00301000
01000000
,
00100000
01000000
00001000
00000000
00010000
00001000
00100000
00010000
,
20000000
00000000
30200000
00000000
02300000
00000000
03001000
00100000
,
02000000
00000000
00000000
03000000
01000000
00000000
00100000
00000000
00002000
00000000
00000000
00000000
00013000
00000000
00000000
00010000
,
00000010
00000000
00000200
00000000
00000320
00000000
00010030
00001000
,
00000010
00000001
00000000
00000001
00000100
00000010
00001010
00000000
,
00001000
00000021
00001030
00012000
,
00003100
00000000
00002010
00000000
00013000
00000000
00100000
00010000
,
01000000
00210000
10300000
01020000
,
00031000
00010000
01000000
00000000
00100000
00010000
00001000
00000100
,
00000010
00002100
00013000
01020000
,
00031000
00000000
00210000
00000000
10300000
00000000
00010000
01000000
,
00001000
00012000
00003100
00000010
,
00001001
00000001
00000000
00000100
00000000
00001000
00000000
00010000
,
00200000
00000000
00300000
10000000
00000000
10000000
00000000
00000000
,
01000000
00000000
00000000
00100000
00000000
00100000
00000000
00000000
,
00010000
00000000
00000000
01000000
00000000
01000000
00000000
00000000
,
00100000
00000000
00000000
00010000
00000000
00010000
00000000
00000000
,
00001000
00000000
00000000
00000010
00000000
00000010
00000000
00000000
,
00000001
00000000
00000000
00000100
00000000
00000100
00000000
00000000
,
00000010
00000000
00000000
00001000
00000000
00001000
00000000
00000000
,
00000001
00000000
00000001
00001000
00000100
00010000
00001000
01000000
,
00010000
00000000
00000000
00010000
00100000
00000000
00000000
00100000
01000000
00000000
00000000
01000000
10000000
00000000
00000000
10000000
,
00100000
00000000
00000000
00100000
01000000
00000000
00000000
01000000
00010000
00000000
00000000
00010000
00100000
00000000
00000000
00100000
,
00001000
00000000
00000000
00001000
00010000
00000000
00000000
00010000
00000100
00000000
00000000
00000100
00001000
00000000
00000000
00001000
,
00000010
00000000
00000000
00000010
00000100
00000000
00000000
00000100
00000001
00000000
00000000
00000001
00000020
00000000
00000000
00000000
,
00002030
00000000
00000000
00000000
00013000
00000000
00000000
00010000
00000100
00000000
00000000
00000100
00001000
00000000
00000000
00001000
,
00000010
00000000
00000000
00000010
00000100
00000000
00000000
00000100
00001000
00000000
00000000
00001000
00010000
00000000
00000000
00010000
,
00100000
00000000
00000000
00100000
01000000
00000000
00000000
01000000
00010000
00000000
00000000
00010000
00100000
00000000
00000000
00100000
,
00001000
00010000
00000000
00000010
00001000
00000100
00000020
00000000
,
00000031
00000000
00000100
00001000
00000100
00000010
00001000
00000100
,
00010000
00001000
00100000
00001000
00010000
01000000
00010000
00001000
,
00100000
00000000
00010000
01000000
00100000
10000000
00010000
10000000
,
00100000
00010000
00001000
00010000
00000020
00000000
00200030
00000000
,
00320000
00000000
00130000
01000000
00010000
00001000
00100000
00010000
,
10000000
00100000
01000000
00010000
00100000
00001000
00010000
00001000
,
00000100
00000000
00000010
00002000
00000000
00003200
00000000
00000310
,
00001001
00000000
00000001
00001000
00000100
00010000
00001000
00000020
,
00000032
00000000
00020003
00000000
00032000
00000000
01003000
00001000
,
00000200
00000000
00000000
00000300
00000100
00000000
00001000
00000000
02000000
00000000
00000000
00000000
03010000
00000000
00000000
00010000
,
10000000
00000000
00002000
00000000
00203000
00000000
01300000
00010000
,
00000010
00001000
00000200
00000000
00010300
00001000
01000000
00100000
,
20000000
00000000
30002000
00000000
00023000
00000000
00030100
00010000
,
02000000
00000000
00000000
03000000
01000000
00000000
00010000
00000000
00000200
00000000
00000000
00000000
00001300
00000000
00000000
00001000
,
00000001
00000000
00020000
00000000
00030020
00000000
00000130
00001000
,
00100000
00020000
00000000
10030000
00100000
00010000
00002000
00000000
,
02003000
10000000
00010000
03002000
,
00000100
00000000
00000000
00000000
00010000
00000000
00000000
00000000
00203000
00000000
00000000
00000000
00301000
00000000
00000000
00001000
,
00020000
01000000
00001000
00030200
,
00000301
00000100
00002000
00000000
00003001
00000100
00000010
00001000
,
00000200
00000001
00001000
00020300
,
01000000
00000000
00000000
00000000
00001000
00000000
00000000
00000000
00030020
00000000
00000000
00000000
00010030
00000000
00000000
00010000
,
00002000
00000100
00010000
01003000
,
10010000
00010000
00000000
10000000
01000000
00100000
00002000
00000000
,
00013000
00000000
00000100
00001000
00000000
00001000
00000010
00000000
,
00000100
00000000
00000000
00000000
00000001
00000000
00000010
00000000
00000000
00000000
00000010
00000000
00000100
00000000
00000000
00000100
,
00002000
00000000
00003010
00010000
00000000
00010000
00001000
00000000
,
00100000
00000000
00010000
01000000
00000000
01000000
00200000
00000000
,
20300000
00000000
30010000
00100000
00000000
00100000
00001000
00000000
,
00010000
00000000
00000000
00000000
00000010
00000000
00001000
00000000
00000000
00000000
00001000
00000000
00000100
00000000
00000000
00000100
,
00000020
00000000
00000031
00000100
00000000
00000100
00001000
00000000
,
00010000
00000000
00000000
00010000
00000000
00000000
00000100
00000000
00000000
00000000
00000100
00000000
00000000
00000000
00000000
00000000
;

//--------------- dance-double - ----------------
#NOTEDATA:;
#STEPSTYPE:dance-double;
#DESCRIPTION:;
#DIFFICULTY:Hard;
#METER:16;
#RADARVALUES:0.647181,0.839006,0.115765,0.59426,0.42833,587,572,15,77,0,0,0,0,0,0.647181,0.839006,0.115765,0.59426,0.42833,587,572,15,77,0,0,0,0,0;
#CHARTNAME:;
#CHARTSTYLE:;
#CREDIT:Brother Mojo;
#NOTES:
00000000
00000000
00000000
00000000
,
00000000
00000000
00000000
00000000
,
00000000
00000000
00000000
00000000
,
00000000
00000000
00000000
00000000
,
00020000
00000000
00032000
00000000
00103000
00010000
00100000
02000000
,
00000000
00000000
23000000
00000000
00000000
00000000
00000000
00000000
00000000
00000000
30100000
01000000
00010000
00000000
01000000
00001000
,
00010000
00000000
00000010
00002000
00000000
00000000
00003001
00000000
00000000
00000000
00000010
00000000
00000000
00000000
00000000
00000000
,
00000100
00000010
00000000
00000100
00000000
00000000
00001000
00000000
00000000
00000000
00001000
00000000
00000000
00000000
00000000
00000000
,
00000002
00000000
00000203
00000000
00000310
00001000
00000010
00010000
,
00001000
00100000
00010000
10000000
00000000
00010000
00100000
00000000
00000000
00000000
01000000
00000000
00000000
00000000
10000000
00000000
,
00000000
00000000
00100000
01000000
00020000
00000000
00000000
00000000
00000000
00000000
00000000
00000000
00130000
00000000
00001000
00000000
,
00022000
00000000
00000000
00033000
,
00010000
00001000
00000010
00000100
00001000
00000010
00000100
00000001
,
00000000
00000000
00000010
00000000
00001000
00000000
00010000
00000000
00000100
00000000
00001000
00000010
00010000
00000000
00001000
00100000
,
00010000
00000000
01000000
00001000
00000000
00000000
00010000
00000000
00100000
00000000
10000000
00000000
00010000
00000000
00000000
00000000
,
00100000
00000000
01000000
00010000
00000000
00000000
00001000
00000000
00010000
00000000
00000010
00000000
00001000
00000000
00000100
00010000
,
00001000
01000000
00100000
00010000
00001000
01000000
00100000
10000000
,
00010000
00100000
00010000
10000000
00000000
01000000
00100000
00000000
00000000
00000000
00010000
00000000
00100000
00000000
00001000
00000000
,
00000000
00000000
00010000
00000010
00001000
00000000
00000100
00000000
00000010
00000000
00000001
00000000
00001000
00000000
00000000
00000000
,
00000010
00000000
00000000
00000010
00010000
00000000
00000000
00010000
00001000
00000000
00100000
00000000
00010000
00000000
01000000
00000000
,
20010000
01000000
00010000
00100000
,
30020000
01000000
00230000
00001000
,
00300020
00010000
00001000
00000230
,
00000001
00000010
00002300
00013000
,
00011000
01010000
00011000
00001010
,
00011000
00110000
00011000
00001100
,
00000100
00000000
00001000
00000000
00000010
00000000
00010000
00000000
00001000
00000000
00100000
00000000
00010000
00000000
01000000
00001000
,
00010000
00000200
00000000
00000310
00000001
00000100
00002000
00000000
,
02003000
00000000
03000200
00000000
00020300
00000000
00030001
00000010
,
00002000
00000000
00000000
00000000
01003000
00000000
00100000
00000000
00020000
00000000
00000000
00000000
00031000
00000000
00000000
00001000
,
00200000
00000000
00000000
00000000
00300020
00000000
00000000
00000000
00020030
00000000
00000000
00000000
00030100
00000000
00001000
00000100
,
00000010
00000000
00000001
00000000
00002000
00000000
00000000
00000000
00003010
00010000
00000010
00001000
00000000
00000100
00001000
00000000
,
00000200
00000000
02000300
00000000
03002000
00000000
10003000
00100000
,
00020000
00000000
00000000
00000000
00030100
00000000
00000010
00000000
00002000
00000000
00000000
00000000
00013000
00000000
00000000
00010000
,
00000020
00000000
00000000
00000000
00200030
00000000
00000000
00000000
00302000
00000000
00000000
00000000
01003000
00000000
00010000
00100000
,
01000000
00000000
10000000
00000000
00000000
00000000
00100000
01000000
00010000
00000000
00100000
00000000
00102000
00000000
00000000
00000000
,
02003000
00000000
03010000
10000000
01000000
00010000
01000000
10000000
,
00100000
00000000
00010000
00000000
00001000
00000000
00000010
00000000
00000001
00000000
00001000
00000000
00000010
00000000
00000100
00000001
,
00000100
00000010
00001000
00000001
00000100
00001000
00000100
00000001
,
00000010
00000000
00001000
00000000
00010000
00000000
00000010
00000000
00001000
00000100
00010000
00000000
00001000
01000000
00010000
00000000
,
00200000
00000000
00310000
10000000
00100000
00010000
00100000
10000000
,
01000000
00000000
00010000
00000000
00001000
00000000
00000100
00000000
00000001
00000000
00001000
00000000
00000100
00000000
00000010
00000001
,
00000010
00000100
00010000
00001000
00000010
00001000
00010000
00100000
,
10000000
01000000
00000000
00100000
00000000
00001000
00000000
00010000
,
00022000
00000000
00033000
00000100
00000000
00000100
00000000
00000000
,
00001000
00000000
00000000
00000010
00000000
00000000
00000100
00000000
00000000
00000000
00000100
00000000
00000000
00000000
00000000
00000000
,
00000001
00000000
00000000
00001000
00000000
00000000
00000100
00000000
00000000
00000000
00000100
00000000
00000000
00000000
00000000
00000000
,
00010000
00000000
00000000
00001000
00000000
00000000
01000000
00000000
00000000
00000000
01000000
00000000
00000000
00000000
00000000
00000000
,
00010000
00000000
00000000
00100000
00000000
00000000
01000000
00000000
00000000
00000000
01000000
00000000
00000000
00000000
00000000
00000000
,
10000000
00000000
00000000
00010000
00000000
00000000
01000000
00000000
00000000
00000000
01000000
00000000
00000000
00000000
00000000
00000000
,
00100000
00000000
00000000
00010000
00000000
00000000
00001000
00000000
00000000
00000000
00001000
00000000
00000000
00000000
00000000
00000000
,
00011000
00000000
00000000
00000000
00010000
00000000
00001000
00010000
00000000
00000010
00001000
00000010
00000100
00000001
00001000
00000001
,
00000100
00000000
00000010
00001000
00000010
00000000
00001000
00000001
00001000
00000000
00000100
00001000
00000100
00000000
00010000
00001000
,
00010000
00000000
00001000
01000000
00001000
00000000
01000000
00010000
01000000
00000000
00100000
01000000
00100000
00000000
10000000
00100000
,
10000000
00000000
00010000
00100000
00010000
00000000
10000000
00010000
10000000
00000000
00010000
01000000
00010000
00000000
01000000
00001000
,
01000000
00000000
00001000
00010000
00001000
00000000
00010000
00000100
00010000
00000000
00000010
00001000
00000002
00000000
00001003
00000010
,
00000200
00000000
00000301
00001000
00000100
00000000
00010000
00001000
00010000
00000000
00001000
00100000
00001000
00000000
00100000
00010000
,
00100000
00000000
01000000
10000000
01000000
00000000
10000000
00010000
10000000
00000000
00100000
01000000
00100000
00000000
01000000
00010000
,
01000000
00000000
00001000
01000000
00001000
00000000
00010000
00001000
00010000
00000000
00000010
00010000
00000010
00000000
00001000
00000100
,
00000010
00000002
00000000
00000103
00001000
00010000
00200000
00000000
,
10300000
00000000
00100000
01000000
00010000
00000000
01000000
00100000
10000000
00000000
00010000
00100000
00001000
00000000
00010000
00001000
,
01000000
00000000
00001000
00010000
00000010
00000000
00010000
00000100
00001000
00000000
00000010
00000100
00000001
00000000
00000100
00000010
,
00001000
00000000
00000001
00000010
00000100
00000000
00001000
00000100
00000010
00000000
00000001
00001000
00000010
00000000
00001000
00000100
,
00010000
00000000
00001000
00010000
00000010
00000000
00010000
00001000
00000020
00000000
00000031
00000010
00002000
00000000
00013000
00001000
,
00000020
00000000
00000130
00001000
00000010
00000000
00010000
00000100
00001000
00000000
00000010
00010000
00001000
00000000
00100000
00001000
,
00010000
00000000
00001000
01000000
00010000
00000000
00100000
01000000
10000000
00000000
01000000
00100000
00010000
00000000
01000000
00100000
,
10000000
00010000
01000000
00200000
00000000
00320000
00000000
00031000
,
00011000
00000000
00000000
00000000
00010000
00000000
00001000
01000000
00000000
00100000
10000000
00100000
01000000
00000000
00020000
00000000
,
00230000
00000000
00300020
00000000
00020030
00000000
00030001
00000100
,
00002000
00000000
00000000
00000000
00103000
00000000
01000000
00000000
00020000
00000000
00000000
00000000
00031000
00000000
00000000
00001000
,
02000000
00000000
00000000
00000000
03000200
00000000
00000000
00000000
00020300
00000000
00000000
00000000
00030010
00000000
00001000
00000010
,
00000100
00000000
00000001
00000000
00002000
00000000
00000000
00000000
00003100
00010000
00000100
00001000
00000000
00000010
00001000
00000000
,
00000020
00000000
00200030
00000000
00302000
00000000
10003000
01000000
,
00020000
00000000
00000000
00000000
00030010
00000000
00000100
00000000
00002000
00000000
00000000
00000000
00013000
00000000
00000000
00010000
,
00000200
00000000
00000000
00000000
02000300
00000000
00000000
00000000
03002000
00000000
00000000
00000000
00103000
00000000
00010000
01000000
,
00001000
00000000
00010000
00000000
00000000
00000000
00000010
00001000
00000100
00000000
00000010
00000000
00002002
00000000
00000000
00003003
,
00000002
00000203
00020300
02030000
,
03000020
00000000
00000000
00000000
00002030
00000000
00000000
00000000
00203000
00000000
00000000
00000000
10300000
00000000
00000000
00010000
,
20000000
32000000
03002000
00003200
,
00000310
00000000
00001000
00000000
00020000
00000000
00000000
00000000
00031000
01000000
00010000
01000000
00000000
00100000
10000000
00000000
,
00200000
00302000
00003020
02000030
,
03020000
00000000
00000000
00000000
00030200
00000000
00000000
00000000
00000302
00000000
00000000
00000000
00001003
00000000
00000000
00000001
,
00000100
00000020
00002030
00203000
,
10300000
00000000
01000000
00000000
00000000
00000000
00010000
00000000
00000100
00000000
00000010
00000000
00002002
00000000
00000000
00003003
,
00000002
00000000
00000103
00001000
00010000
00000010
00001000
00000000
,
00000200
00000000
00000000
00000000
00000310
00000000
00001000
00000000
00010000
00000000
00100000
00000000
01000000
00000000
00000000
00010000
,
20000000
00000000
31000000
00010000
00001000
00100000
00010000
00000000
,
02000000
00000000
03100000
00010000
00001000
00000010
00002000
00000000
,
02003000
00000000
03100000
00010000
00001000
01000000
00010000
00000000
,
00100000
00000000
00000000
00000000
00001000
00000000
00010000
00000000
00000100
00000000
00000010
00000000
00001000
00000000
00000000
00010000
,
00000200
00000000
00000310
00001000
00010000
00000100
00001000
00000000
,
00000020
00000000
00000030
00000010
00000000
00000000
00020000
00000000
00030000
00000000
00010000
00000000
00000000
00000000
00000000
00000000
;

//--------------- dance-double - ----------------
#NOTEDATA:;
#STEPSTYPE:dance-double;
#DESCRIPTION:;
#DIFFICULTY:Challenge;
#METER:18;
#RADARVALUES:0.683564,0.839006,0.092612,0.571107,0.513224,620,608,12,74,0,0,0,0,0,0.683564,0.839006,0.092612,0.571107,0.513224,620,608,12,74,0,0,0,0,0;
#CHARTNAME:Ranged Attacks;
#CHARTSTYLE:;
#CREDIT:Brother Mojo;
#NOTES:
00000000
00000000
00000000
00000000
,
00000000
00000000
00000000
00000000
,
00000000
00000000
00000000
00000000
,
00000000
00000000
00000000
00000000
,
00020000
00000000
00032000
00000000
01003000
00010000
00100000
02000000
,
00000000
00000000
13000000
00020000
00000000
00000000
00000000
00000000
00000000
00000000
10030000
00100000
01000000
00010000
01000000
00001000
,
00010000
00000000
00000010
00002000
00000000
00000000
00003001
00000000
00000000
00000000
00000010
00000000
00000000
00000000
00000000
00000000
,
00000100
00000010
00000000
00000100
00000000
00000000
00001000
00000000
00000000
00000000
00001000
00000000
00000000
00000000
00000000
00000000
,
00000002
00000000
00000203
00000000
00000310
00001000
00000100
00010000
,
00001000
00100000
00010000
10000000
00000000
00010000
01000000
00000000
00000000
00000000
00100000
00000000
00000000
00000000
10000000
00000000
,
00000000
00000000
10000000
01000000
00200000
00000000
00010000
00000000
00000000
00000000
00310000
00000000
01000000
00000000
00001000
00000000
,
00010000
00000000
00000000
00000000
00000000
00000000
00000000
00000000
00000010
00100000
00000010
00200000
00000020
00000000
00300030
00000000
,
00010000
00001000
00000010
00000100
00010000
00001000
00000100
00000010
,
00010000
00000000
00000100
00000000
00000001
00000000
00000100
00000000
00010000
00000000
00001000
00100000
00010000
00100000
01000000
10000000
,
00010000
00000000
01000000
00001000
00010000
00000000
00000010
00000000
00001000
00000000
00010000
00000000
01000000
00000000
00000100
00000000
,
00001000
00000000
00010000
00000000
00100000
00000000
01000000
00000000
00010000
00000000
00001000
00000000
00100000
00000000
00010000
00100000
,
00001000
00010000
00100000
01000000
00001000
00010000
01000000
00100000
,
00001000
00100000
00010000
10000000
00000000
00010000
01000000
00000000
00001000
00000000
00010000
00000000
00001000
00000000
00000010
00000000
,
00000001
00000000
00000010
00000100
00001000
00000000
00000001
00000000
00000100
00000000
00001000
00000000
00010000
00000000
00100000
00000000
,
10000000
00000000
00010000
00100000
00010000
00000000
01000000
00001000
01000000
00000000
00001000
00000000
00011000
00000000
00010000
00000000
,
00000020
00000001
00000100
00001000
,
00020030
00000100
00032000
01000000
,
20003000
00010000
00100000
32000000
,
10000000
00100000
03020000
00031000
,
00010100
00101000
00010010
01001000
,
10010000
00011000
00001001
00011000
,
00100000
00000000
00001000
00000000
01000000
00000000
00000010
00000000
00010000
00000000
00000100
00000000
00100000
00000000
00001000
01000000
,
00000100
00000000
00010000
00100000
00000000
00000000
01000000
00000000
00001000
00000000
00000010
00000000
00000002
00000000
00000000
00000000
,
02000003
00000000
03000020
00000000
00200030
00000000
00300100
01000000
,
00200000
00000000
00000000
00000000
01300000
00000000
00000100
00000000
00000020
00000000
00000000
00000000
00000031
00000000
00000000
00000001
,
00200000
00000000
00000000
00000000
00300200
00000000
00000000
00000000
02000300
00000000
00000000
00000000
03000010
00000000
00100000
00000010
,
00100000
00000000
00000100
00000000
02000000
00000000
00000000
00000000
03100000
10000000
00100000
01000000
00000000
00010000
01000000
00001000
,
00200000
00000000
00300200
00000000
02000300
00000000
03000010
00100000
,
02000000
00000000
00000000
00000000
03100000
00000000
00000010
00000000
00000200
00000000
00000000
00000000
00000301
00000000
00000000
00000001
,
02000000
00000000
00000000
00000000
03000020
00000000
00000000
00000000
00200030
00000000
00000000
00000000
00300100
00000000
01000000
00000100
,
01000000
00000000
00001000
00100000
00000000
00000000
00100000
00010000
10000000
00000000
00100000
00000000
02000000
00000000
00000000
00000000
,
03000200
00000000
00010300
00000010
00100000
00001000
00000100
00001000
,
00100000
00000000
00000010
00000000
00010000
00000000
01000000
00000000
20000000
00000000
30010000
00000000
00000100
00000000
00001000
00010000
,
00100000
01000000
00001000
00000010
00001000
01000000
00000100
00010000
,
00100000
00000000
00001000
00000000
00000001
00000000
00000100
00000000
00000010
00001000
00000100
00010000
00001000
00100000
00000000
00010000
,
02000000
00000000
03010000
00100000
00001000
00000000
00100000
00000000
00000010
00000000
00010000
00000000
01000000
00000000
00010000
00000000
,
00000010
00000000
00100000
00000000
00001000
00000000
00000100
00000000
00000002
00000000
00001003
00000000
01000000
00000000
00010000
00001000
,
00000010
00000100
00010000
00100000
00010000
00000100
01000000
00001000
,
00100000
00000010
00000000
01000000
00000000
00000100
00000000
00010000
,
00022000
00000000
00033000
00001000
00000000
00000000
01000000
00000000
00000000
00000000
01000000
00000000
00000000
00000000
00000000
00000000
,
00100000
00000000
00000000
00100000
00000000
00000000
10000000
00000000
00000000
00000000
10000000
00000000
00000000
00000000
00000000
00000000
,
01000000
10000000
00000000
01000000
00000000
00000000
00010000
00000000
00000000
00000000
00010000
00000000
00000000
00000000
00000000
00000000
,
00001000
00000000
00000000
00001000
00000000
00000000
00000010
00000000
00000000
00000000
00000010
00000000
00000000
00000000
00000000
00000000
,
00000001
00000010
00000000
00000001
00000000
00000000
00000100
00000000
00000000
00000000
00000100
00000000
00000000
00000000
00000000
00000000
,
00000010
00000000
00000000
00000010
00000000
00000000
00001000
00000000
00000000
00000000
00001000
00000000
00000000
00000000
00000000
00000000
,
00000100
00001000
00000000
00000100
00000000
00000000
00010000
00000000
00000000
00000000
00010000
00000000
00000000
00000000
00000000
00000000
,
00100010
00000000
00000000
00000000
00100000
00000000
00000010
00010000
00000000
00001000
00100000
00000010
00010000
00000100
01000000
00001000
,
00020000
00000000
00031000
00010000
01000000
00000000
00100000
00010000
01000000
00000000
00001000
00010000
01000000
00000000
00100000
00010000
,
01000000
00000000
00001000
00010000
01000000
00000000
00100000
00010000
01000000
00000000
00001000
00010000
01000000
00000000
00010000
00001000
,
00000100
00000000
00000010
00001000
00000100
00000000
00010000
00001000
00000100
00000000
00000010
00001000
00000100
00000000
00010000
00001000
,
00000100
00000000
00000010
00001000
00000100
00000000
00010000
00001000
00000100
00000000
00000001
00000010
00002000
00000000
00013000
01000000
,
20000000
00000000
30100000
00010000
00001000
00000000
00100000
00010000
01000000
00000000
00100000
00010000
00001000
00000000
00100000
00010000
,
01000000
00000000
00100000
00010000
00001000
00000000
00100000
00010000
01000000
00000000
00100000
00010000
00001000
00000000
00000010
00001000
,
00010000
00000000
00000010
00001000
00000100
00000000
00000010
00001000
00010000
00000000
00000010
00001000
00000100
00000000
00000010
00001000
,
00010000
00000000
00001000
00100000
00000000
00000000
00010000
00000000
01000000
00000000
00001000
00000000
00000020
00000000
00000000
00000000
,
00000031
00000000
00000100
00001000
00010000
00000000
00001000
00000010
00000001
00000000
00000100
00001000
00010000
00000000
00001000
00000010
,
00000001
00000000
00000100
00001000
00010000
00000000
00001000
00000010
00000001
00000000
00000100
00001000
00010000
00000000
00100000
10000000
,
01000000
00000000
01000000
00010000
00001000
00000000
00010000
00100000
10000000
00000000
01000000
00010000
00001000
00000000
00010000
00100000
,
10000000
00000000
01000000
00010000
00001000
00000000
00010000
00100000
20000000
00000000
30001000
01000000
00000200
00000000
00010300
00000001
,
00002000
00000000
00003010
00001000
00000100
00000000
00100000
00010000
01000000
00000000
00000010
00001000
00000100
00000000
00100000
00010000
,
01000000
00000000
00000100
00001000
00000010
00000000
01000000
00010000
00100000
00000000
00000100
00001000
00000010
00000000
01000000
00010000
,
00100000
00001000
01000000
00000020
00000000
00200030
00000000
00301000
,
01000100
00000000
00000000
00000000
00000100
00000000
01000000
00001000
00000000
00010000
00000010
00100000
00000001
00000000
20000000
00000000
,
30000200
00000000
00200300
00000000
00300020
00000000
01000030
00000100
,
00000020
00000000
00000000
00000000
00000130
00000000
01000000
00000000
00200000
00000000
00000000
00000000
10300000
00000000
00000000
10000000
,
00000020
00000000
00000000
00000000
02000030
00000000
00000000
00000000
03000200
00000000
00000000
00000000
00100300
00000000
00000010
00100000
,
00000010
00000000
01000000
00000000
00000200
00000000
00000000
00000000
00000310
00000001
00000010
00000100
00000000
00001000
00000100
00010000
,
00000020
00000000
02000030
00000000
03000200
00000000
00100300
00000010
,
00000200
00000000
00000000
00000000
00000310
00000000
00100000
00000000
02000000
00000000
00000000
00000000
13000000
00000000
00000000
10000000
,
00000200
00000000
00000000
00000000
00200300
00000000
00000000
00000000
00300020
00000000
00000000
00000000
01000030
00000000
00000100
01000000
,
00000100
00000000
00010000
00000010
00000000
00000000
00000010
00001000
00000001
00000000
00000010
00000000
00000200
00000000
00000000
00000000
,
02000300
03020000
00030200
00200300
,
00302000
00000000
00000000
00000000
00003020
00000000
00000000
00000000
00200030
00000000
00000000
00000000
00310000
00000000
00000000
00010000
,
20000000
32000000
03002000
00003002
,
00000103
00000000
00010000
00000000
20000000
00000000
00000000
00000000
30100000
01000000
00010000
00100000
00000000
00100000
00001000
00010000
,
00000200
00002300
02003000
03000020
,
00020030
00000000
00000000
00000000
00230000
00000000
00000000
00000000
00300020
00000000
00000000
00000000
00001030
00000000
00000000
00001000
,
00000002
00000203
00020300
20030000
,
31000000
00000000
00100000
00010000
00000000
00000000
10000000
00000000
00100000
00000000
00010000
00000000
00002000
00000000
00000000
00000000
,
02003000
00000000
03001000
00100000
01000000
00100000
00001000
00000000
,
01000000
00000000
00000000
00001000
00010000
00000000
00000010
00000000
00000100
00000000
00000010
00000000
00010000
00000000
00000100
00100000
,
00000010
00000000
00000000
00010000
00001000
00000000
01000000
00000000
00100000
00000000
01000000
00000000
00001000
00000000
00000000
00000000
,
00100000
00000000
00000000
00001000
00010000
00000000
00000100
00000000
00000010
00000000
00000100
00000000
00200000
00000000
00000000
00000000
,
00300020
00000000
00010030
00000001
00001000
00000001
00010000
00000000
,
00000010
00000000
00000000
00100000
00001000
00000000
10000000
00000000
00010000
00000000
10000000
00000000
00001000
00000000
00100000
00000100
,
01000000
00000000
00000000
00001000
00100000
00000000
00000010
00000000
00010000
00000000
00000010
00000000
00100000
00000000
00000000
00000000
,
00010200
00000000
00000300
00000100
00000000
00000000
02000000
00000000
03000000
00000000
01000000
00000000
00000000
00000000
00000000
00000000
;
