#TITLE:Explosive;
#SUBTITLE:;
#ARTIST:Bond;
#TITLETRANSLIT:;
#SUBTITLETRANSLIT:;
#ARTISTTRANSLIT:;
#GENRE:;
#CREDIT:;
#BANNER:explosive.png;
#BACKGROUND:explosive-bg.png;
#LYRICSPATH:;
#CDTITLE:;
#MUSIC:explosive.ogg;
#OFFSET:0.027000;
#SAMPLESTART:38.060001;
#SAMPLELENGTH:15.000000;
#SELECTABLE:YES;
#BPMS:0.000000=115.000000
;
#STOPS:
;
#BGCHANGES:;
#KEYSOUNDS:;
#ATTACKS:;

//---------------dance-double - ----------------
#NOTES:
     dance-double:
     :
     Challenge:
     17:
     0.649480,0.819748,0.152179,0.361426,0.927344,478.000000,462.000000,16.000000,38.000000,260.000000,0.000000,0.649480,0.819748,0.152179,0.361426,0.927344,478.000000,462.000000,16.000000,38.000000,260.000000,0.000000:
// measure 0
00000000
00000000
00000000
00000000
,  // measure 1
00000000
00000000
00000000
00000000
,  // measure 2
00000000
00000000
00000000
00000000
,  // measure 3
00000000
00000000
00000000
00000000
,  // measure 4
00010000
00001000
00100000
00010000
00200000
00000000
00000000
00000000
00000000
00000000
02300000
00000000
00000000
00000000
00000000
00000000
,  // measure 5
03020000
00000000
00030020
00000000
00000000
00000230
00000000
00000000
,  // measure 6
00002300
00020000
00000000
00000000
,  // measure 7
00033000
00000000
00000000
00000000
,  // measure 8
00011000
00000000
00000000
00000000
00001000
00010000
00100000
10000000
MMMM0000
00000000
00010000
00001000
00000010
00000001
0000MMMM
00000000
,  // measure 9
00000110
00000000
00000000
00000000
00001000
00010000
01000000
10000000
MMMM0000
00000000
00010000
00001000
00000100
00000001
0000MMMM
00000000
,  // measure 10
00000110
00000000
00000000
00000000
00000001
00000100
00001000
00010000
MMMM0000
00000000
10000000
01000000
00010000
00001000
0000MMMM
00000000
,  // measure 11
00000110
00000000
00000000
00000000
00000001
00000010
00001000
00010000
MMMM0000
00000000
10000000
00100000
00010000
00001000
0000MMMM
00000000
,  // measure 12
00000001
00000100
00000010
00001000
00000020
00000000
00000000
00000000
00000000
00000000
00000230
00000000
00000000
00000000
00000000
00000000
,  // measure 13
00002300
00000000
00203000
00000000
00000000
00320000
00000000
00000000
,  // measure 14
10030000
00000000
00000000
00000000
00100000
10000000
01000000
00010000
MMMM0000
00000000
00000010
00000001
00000100
00001000
0000MMMM
00000000
,  // measure 15
00011000
00000000
00000000
00000000
00000010
00000001
00000100
00001000
0000MMMM
00000000
00100000
10000000
01000000
00010000
MMMM0000
00000000
,  // measure 16
00000010
00000001
00001000
00000010
00000200
00000000
00000000
00000000
00000000
00000000
00000320
00000000
00000000
00000000
00000000
00000000
,  // measure 17
00020030
00000000
02030000
00000000
00000000
03200000
00000000
00000000
,  // measure 18
00301000
00000000
00000000
00000000
0001MMMM
00001000
00000010
00000100
MMMM0020
00000000
00001030
00010000
00000100
00001000
00000010
00000001
,  // measure 19
00000010
00001000
00000100
00000000
0001MMMM
00001000
00000100
00000010
00000100
00001000
00010000
00000100
00010000
00001000
00100000
01000000
,  // measure 20
00100000
00010000
01000000
00000000
MMMM1000
00010000
01000000
00100000
01000000
00010000
00001000
01000000
00001000
00010000
00000010
00000100
,  // measure 21
00000010
00001000
00000001
00000100
00001000
00010000
00100000
00010000
MMMM2000
00000000
00013000
01000000
10000000
00100000
00010000
00100000
,  // measure 22
10000000
01000000
00010000
00000000
MMMM1000
00010000
00100000
01000000
0020MMMM
00000000
00310000
00001000
01000000
00010000
00100000
01000000
,  // measure 23
00010000
00001000
00000100
00000010
0001MMMM
00001000
00000010
00000100
MMMM0020
00000000
00001030
00010000
00000100
00001000
00000010
00000100
,  // measure 24
00001000
00010000
01000000
00100000
MMMM1000
00010000
00100000
01000000
0020MMMM
00000000
10300000
00100000
01000000
00010000
00100000
00001000
,  // measure 25
00010000
00001000
00000010
00000001
00000100
00000110
00000000
00010010
00000000
00000000
0001MMMM
00000000
00000000
MMMM1000
00000000
01000000
,  // measure 26
00001000
00000000
00000000
00000000
0001MMMM
00001000
00000100
00000010
MMMM0200
00000000
00001300
00010000
01000000
10000000
00100000
00010000
,  // measure 27
00001000
00000010
00000010
00000100
0001MMMM
00001000
00001000
00010000
00100000
00100000
01000000
00010000
10000000
01000000
00010000
00001000
,  // measure 28
01000000
00100000
01000000
00000000
00010000
00000000
01000000
00000000
MMMM1000
00000000
00010000
00000000
00010000
00000000
00001000
00000000
00000010
00000000
00000010
00000000
00000100
00000000
00001000
00000000
00000001
00000000
00000100
00000000
00001000
00000000
00010000
00000000
,  // measure 29
00000100
00000010
00000100
00000000
00001000
00000000
00000100
00000000
0001MMMM
00000000
00001000
00000000
00000100
00000000
00000010
00000000
MMMM0200
00000000
00000000
00000000
00001300
00000000
00010000
00000000
01000000
00000000
10000000
00000000
00100000
00000000
00010000
00000000
,  // measure 30
00001000
00100000
00001000
00000000
00010000
00000000
00000000
00000000
MMMM1000
00000000
00010000
00000000
01000000
00000000
00100000
00000000
0200MMMM
00000000
00000000
00000000
03010000
00000000
00001000
00000000
00000100
00000000
00000001
00000000
00000010
00000000
00001000
00000000
,  // measure 31
00010000
00100000
00100000
01000000
MMMM1000
00010000
00010000
00001000
00000010
00000010
00000100
00001000
00000001
00000100
00001000
00010000
,  // measure 32
00000100
00000010
00000100
00000000
00001000
00000000
00000100
00000000
00010000
00000000
00000000
00000000
MMMM1000
00000000
00000000
00000000
0010MMMM
00000000
00000000
00000000
MMMM1000
00000000
00000000
00000000
0001MMMM
00000000
00000000
00000000
MMMM0010
00000000
00000000
00000000
,  // measure 33
0001MMMM
00000000
MMMM1000
00000000
1000MMMM
01000000
00100000
00010000
01000000
00100000
00010000
00001000
00100000
00010000
00001000
00000100
,  // measure 34
00010000
00001000
00000100
00000010
00001000
00000100
00000010
00001000
0002MMMM
00000000
00030100
00000010
00000001
00000100
00001000
00010000
,  // measure 35
01000000
10000000
00100000
00010000
00001000
00100000
01000000
00010000
MMMM2000
00000000
01003000
00100000
10000000
01000000
00010000
00001000
,  // measure 36
00000010
00000001
00000100
00001000
00010000
00000100
00000010
00001000
0002MMMM
00000000
00030010
00000100
00001000
00010000
01000000
00010000
,  // measure 37
00001000
00010000
00100000
10000000
01000000
01100000
00000000
00101000
00000000
00000000
MMMM1000
00000000
00000000
0001MMMM
00000000
00000100
,  // measure 38
00001000
00000000
00000000
00000000
MMMM0010
00001000
00000010
00000100
00001000
00000000
0010MMMM
00010000
00100000
01000000
00010000
00000000
,  // measure 39
00011000
00000000
00000000
00000000
00001000
00000010
00000001
00000100
MMMM1000
00000000
00010000
00100000
10000000
01000000
0001MMMM
00000000
,  // measure 40
00001000
00010000
00100000
01000000
00200000
00000000
00000000
00000000
00000000
00000000
20300000
00000000
00000000
00000000
00000000
00000000
,  // measure 41
30020000
00000000
00230000
00000000
00000000
00302000
00000000
00000000
,  // measure 42
00013000
00000000
00000000
00000000
00001000
00010000
00100000
10000000
MMMM0000
00000000
00010000
00001000
00000010
00000001
0000MMMM
00000000
,  // measure 43
00000110
00000000
00000000
00000000
00001000
00010000
01000000
10000000
MMMM0000
00000000
00010000
00001000
00000100
00000001
0000MMMM
00000000
,  // measure 44
00000001
00000100
00000010
00001000
00000020
00000000
00000000
00000000
00000000
00000000
00000230
00000000
00000000
00000000
00000000
00000000
,  // measure 45
00002300
00000000
00203000
00000000
00000000
02300000
00000000
00000000
,  // measure 46
03010000
00000000
00000000
00000000
MMMM1000
00010000
00100000
10000000
01000000
00000000
0001MMMM
00001000
00000010
00000001
00000100
00000000
,  // measure 47
MMMM1000
00000000
0001MMMM
00000000
MMMM1000
00000010
00000001
00000100
00001000
00000000
0001MMMM
00100000
10000000
01000000
00010000
00000000
,  // measure 48
MMMM1000
00000000
0001MMMM
00000000
MMMM1000
00010000
00100000
00010000
00011000
00000000
0001MMMM
00001000
00000010
00001000
00011000
00000000
,  // measure 49
01001000
00010100
00011000
00000000
00000000
00000000
00000000
00000000
;
