#TITLE:Elisha;
#SUBTITLE:;
#ARTIST:DJ YOSHITAKA;
#TITLETRANSLIT:;
#SUBTITLETRANSLIT:;
#ARTISTTRANSLIT:;
#GENRE:;
#CREDIT:;
#MUSIC:Elisha.ogg;
#BANNER:Elisha.png;
#BACKGROUND:Elisha-bg.png;
#CDTITLE:./CDTITLES/BEATMANIA IIDX.PNG;
#SAMPLESTART:79.135;
#SAMPLELENGTH:15.000;
#SELECTABLE:YES;
#OFFSET:0.000;
#BPMS:0.000=185.000;
#STOPS:;
#MENUCOLOR:;
#METERTYPE:DDR;
#LISTSORT:;
#BGCHANGES:0.000=Elisha.avi=1.000=0=0=0=StretchNoLoop====,
99999.000=-nosongbg-=1.000=0=0=0=StretchNoLoop====
;
#FGCHANGES:;

//--------------- dance-double - t7r ----------------
#NOTES:
     dance-double:
     t7r:
     Easy:
     7:
     0,0,0,0,0:
00000000
00000000
00000000
00000000
,
00000000
00000000
00000000
00000000
,
00000000
00000000
00000000
00000000
,
00000000
00000000
00000000
00000000
,
00000000
00000000
00000000
00000000
,
00000000
00100000
00000000
00000000
00200000
00000000
00000000
01300000
,
00000000
02000000
03001000
00010000
,
00000000
00000010
00000000
00000000
00000020
00000000
00000030
00000000
,
00000110
00000001
00000100
00000010
,
00010000
00000100
00020000
00030000
,
00001000
01000000
00010000
10010000
,
10000000
01000000
20000000
30000000
,
01000000
00100000
00001000
00011000
,
00000010
00000100
00000102
00000000
,
00000013
00000100
00010000
00001000
,
00010000
00000000
00000000
00001000
00000000
00010000
00000000
00000000
,
00011000
00100000
00010000
01000000
,
00002000
00000000
00000000
00000000
,
00000000
00000000
00000000
00000000
,
00023000
00000000
00000000
00000000
,
00000000
00000000
00000000
00000000
,
00030020
00000000
00000000
00000000
,
00000000
00000000
00000000
00000000
,
00000230
00000000
00000000
00000000
,
00000320
00000000
00000000
00000000
,
00020030
00000000
00000000
00000000
,
00000000
00000000
00000000
00000000
,
00032000
00000000
00000000
00000000
,
00000000
00000000
00000000
00000000
,
02003000
00000000
00000000
00000000
,
00000000
00000000
00000000
00000000
,
03200000
00000000
00000000
00000000
,
02300000
00000000
03020000
00000000
,
10030000
01000000
00100000
00000000
,
00001000
00010000
00000010
00000000
,
00000100
00000001
00001000
00000000
,
00000001
00000010
00000100
00000000
,
00010000
00001000
01000000
00000000
,
00100000
10000000
00010000
00000000
,
10000000
01000000
00100000
00001000
,
00010000
00000000
00000010
00000000
,
00000100
00000001
00001000
00000000
,
00000001
00000010
00000100
00000000
,
00010000
00001000
00100000
00000000
,
00010000
01000000
00100000
00000000
,
10000000
00010000
01000000
00000000
,
00001000
00010000
00000010
00000000
,
00000100
00000001
00000010
00000100
,
00010000
00001000
00100000
00000000
,
00002000
00000000
00000000
00000000
,
00000000
00000000
00000000
00000000
,
00000000
00000000
00010000
00000000
,
00000000
00000000
00013000
00000000
,
00001000
00001000
01000000
01000000
,
00100000
00100000
10000000
10000000
,
01000000
00100000
00000000
00000000
00001000
00000000
00010000
00000000
,
00000010
00000100
00000000
00000000
00000010
00000000
00010000
00000000
,
00022000
00000000
00000000
00000000
,
00000000
00000000
00000000
00000000
,
00000000
00000000
00000000
00000000
,
00000000
00033000
00011000
00001000
,
01000000
01000000
00100000
00100000
,
10000000
01000000
00100000
00010000
,
00000100
00000100
00001000
00000010
,
00000100
00000001
00000010
00000100
,
00010000
00010000
00001000
00100000
,
00010000
01000000
00100000
10000000
,
01000000
01000000
00100000
00001000
,
00010000
00000010
00000100
00000001
,
00000000
00001000
00000000
00001000
00000100
00000000
00010000
00000000
,
00010000
00000000
00000000
00001000
00000000
00001000
00000000
00001000
,
00000000
01000000
00000000
01000000
00100000
00000000
01000000
00000000
,
01000000
00000000
00000000
00010000
00000000
00010000
00000000
00010000
,
00000000
00100000
00000000
00100000
00001000
00000000
00010000
00000000
,
00010000
00000000
00000000
00000010
00000000
00000010
00000000
00000100
,
00000000
00000001
00000000
00000001
00001000
00000000
00000100
00000000
,
00010000
00011000
00200000
00300000
,
00010000
01000000
10000000
01000000
,
00010000
00001000
00000100
00000001
,
00000100
00001000
00010000
01000000
,
10000000
01000000
00001000
00010000
,
00012000
00100000
00000000
00103000
,
00021000
00000010
00000000
00030010
,
00011000
00000000
00000000
01000000
00000000
01000000
00000000
01000000
,
00001000
00010000
00011000
00000010
,
00000200
00000000
00000000
00000000
,
00000000
00000000
00000000
00000000
,
00000320
00000000
00000000
00000000
,
00000000
00000000
00000000
00000000
,
00020030
00000000
00000000
00000000
,
00000000
00000000
00000000
00000000
,
00032000
00000000
00000000
00000000
,
00020000
00000000
00000000
00000000
,
00033000
00000000
00000000
00000000
;

//--------------- dance-double - t7r ----------------
#NOTES:
     dance-double:
     t7r:
     Medium:
     10:
     0,0,0,0,0:
00000000
00000000
00000000
00000000
,
00000000
00000000
00000000
00000000
,
00000000
00000000
00000000
00000000
,
00000000
00000000
00000000
00000000
,
00000000
00000000
00000000
00000000
,
01000000
00020000
00000000
00030000
00010000
00000000
00000000
00020000
,
00000000
00031000
00000010
00000110
,
00000001
00000200
00000000
00000300
00000100
00000000
00000000
00000100
,
00000010
00010000
00001000
00011000
,
00001000
02000000
00010000
00000000
03010000
00000000
10000000
02000000
,
10000000
13000000
02100000
03001000
,
00100000
00002000
00010000
00000000
00013000
00000000
00100000
00002000
,
00010000
00000000
00013000
00000000
00000010
00000100
00000001
00000000
,
00000010
00000200
00010000
00000000
00010300
00000000
00000100
00020000
,
00001000
00000000
00031000
00000000
00001000
01000000
00100000
10000000
,
00010000
00000000
01000000
00001000
00000000
01001000
00000000
00001000
,
00200000
00000000
00301000
00000000
00010000
00001000
00010000
00000000
,
00000020
00000000
00000000
00000000
,
00000000
00000000
00000000
00001030
,
00000200
00000000
00000000
00000000
,
00000000
00000000
00000000
00010300
,
00002000
00000000
00000000
00000000
,
00000000
00000000
00000000
01003000
,
00200000
00000000
00000000
00000000
,
02300000
00000000
00000000
00000000
,
03002000
00000000
00000000
00000000
,
00000000
00000000
00000000
00013000
,
00000020
00000000
00000000
00000000
,
00000000
00000000
00000000
00000130
,
00000020
00000000
00000000
00000000
,
00000000
00000000
00000000
00010030
,
00002000
00000000
00000000
00000000
,
00023000
00000000
00002000
00033000
,
00001000
01000000
00020000
00000000
01000000
00000000
01030000
00000000
,
00010000
00100000
02000000
00000000
00100000
00000000
03100000
00000000
,
00001000
00010000
00000020
00000000
00000100
00000000
00000130
00000000
,
00000010
00001000
00000002
00000000
00000013
00000100
00020000
00000000
,
00030100
00010000
00002000
00000000
01000000
00000000
01003000
00000000
,
00010000
00100000
00002000
00000000
00010000
00000000
00013000
00000000
,
00000010
00000100
00000002
00000000
00000010
00000000
00000013
00000000
,
00000100
00000000
00010000
00000000
00002000
00000000
00000000
00000000
01003000
00000000
00000000
00010000
00000000
00000000
10000000
00000000
,
00010000
00100000
00000000
00010000
01000000
00000000
00010000
00000000
,
10000000
00000000
00010000
01000000
00000000
00001000
00000000
00010000
,
00000000
00000010
00000000
00000100
00000001
00000000
00000100
00000000
,
00000001
00000000
00000010
00000100
00000000
00010000
00000000
00001000
,
00000000
00010000
00000000
00100000
10000000
00000000
00100000
00000000
,
01000000
00000000
00001000
00100000
00000000
00001000
00000000
00010000
,
00000000
00000010
00000000
00000001
00000010
00000000
00010000
00000000
,
00001000
00000000
00000000
00000000
00011000
00000000
00000000
00000000
00100000
00000000
00000000
00001000
00000000
00000000
00010000
00000000
,
00002000
00000000
00000000
00000000
,
00000000
00000000
00000000
00000000
,
00000000
00010000
00010000
00000000
00010000
00000000
00010000
00000000
,
00000000
00010000
00010000
00000000
00010000
00000000
00013000
00000000
,
00001000
00010000
00100000
00000000
00010000
00001000
00000010
00000000
,
00001000
00010000
01000000
00000000
00010000
00001000
00000100
00000000
,
00000010
00000000
00000110
00000000
00001000
00000001
00000100
00000000
,
00000010
00000000
00010100
00000000
00000100
00010000
00001000
00000000
,
00022000
00000000
00000000
00000000
,
00000000
00000000
00000000
00000000
,
00000000
00000000
00000000
00000000
,
00000000
00033000
00011000
01000000
,
00100000
10000000
01000000
10000000
00100000
00000000
01000000
00000000
,
01010000
00000000
00010000
00100000
00000000
00001000
00000000
00010000
,
00000010
00001000
00000100
00001000
00000010
00000000
00000100
00000000
,
00000110
00000000
00000001
00000010
00000000
00000100
00000000
00010000
,
00001000
01000000
00010000
00100000
00010000
00000000
01000000
00000000
,
01010000
00000000
00010000
01000000
00000000
00100000
00000000
10000000
,
00010000
00100000
01000000
00100000
00001000
00000000
00010000
00000000
,
00011000
00000000
00010000
00000010
00000000
00000100
00000000
00000001
,
00000010
00001000
00000010
00000100
00010000
00000000
00011000
00000000
,
01010000
00000000
00010000
01000000
00000000
00100000
00000000
10000000
,
01000000
00010000
01000000
00100000
00001000
00000000
00011000
00000000
,
00001010
00000000
00000010
00000100
00000000
00000001
00000000
00001000
,
00000001
00000100
00001000
00000100
00000010
00000000
00010010
00000000
,
00011000
00000000
00001000
01000000
00000000
00010000
00000000
10000000
,
00010000
00100000
10000000
00100000
01000000
00000000
11000000
00000000
,
00100000
00000000
00011000
00000000
00000010
00000100
00000001
00000000
,
00001000
00000000
00000100
00000000
00010000
00000000
00000000
00000000
00002000
00000000
00000000
02003000
00000000
00000000
03010000
00000000
,
20000000
00000000
00000000
32000000
00000000
00000000
03100000
00000000
00002000
00000000
00000000
00023000
00000000
00000000
00030010
00000000
,
00000200
00000000
00000000
00000302
00000000
00000000
00001003
00000000
00000200
00000000
00000000
00020300
00000000
00000000
00031000
00000000
,
00020000
00000000
00000000
00032000
00000000
00000000
00013000
00000000
00002000
00000000
00000000
00000000
00013000
00000000
00001000
00000000
,
02000000
00000000
00000000
03200000
00000000
00000000
10300000
00000000
01000000
00000000
00010000
00000000
00001000
00000000
00000000
00000000
,
00000020
00000000
00000000
00000032
00000000
00000000
00000103
00000000
00001000
00000000
00010000
00000000
01000000
00000000
00000000
00000000
,
01100000
00000000
00010000
01000000
00000000
01010000
00000000
00001000
,
00010000
00000000
00010010
00000000
00000100
00000010
00010000
00000000
,
00012000
00000000
00000000
00000000
,
00000000
00000000
00000000
00000000
01003000
00100000
01000000
00000000
,
00200000
00000000
00000000
00000000
,
00000000
00000000
00000000
00000000
01300000
00010000
01000000
00000000
,
00002000
00000000
00000000
00000000
,
00000000
00000000
00000000
00000000
00013000
00000010
00010000
00000000
,
00000020
00000000
00000000
00000000
,
00000200
00000000
00000000
00000000
,
00000330
00000000
00000000
00000000
;

//--------------- dance-double - t7r ----------------
#NOTES:
     dance-double:
     t7r:
     Hard:
     14:
     0,0,0,0,0:
00000000
00000000
00000000
00000000
,
00000000
00000000
00000000
00000000
,
00000000
00000000
00000000
00000000
,
00000000
00000000
00000000
00000000
,
00000000
00000000
00000000
00000000
,
10000000
00200000
10300000
00000000
10200000
00000000
01300000
00002000
,
00013000
00021000
00030010
00000110
,
00000001
00000020
00000031
00000000
00000021
00000000
00000031
00000200
,
00000301
00000000
00001001
00000000
00000100
00010000
00001000
00000000
,
00100000
00010000
01000000
00100000
20000000
00000000
30010000
02000000
,
03001000
00011000
00010100
00011000
,
00010000
00000020
00000130
00000000
00000210
00000000
00000301
00001000
,
00000100
00000000
00010100
00000000
00001000
00010000
00001000
00000000
,
01000000
00200000
10300000
00000000
10200000
00000000
01300000
00001000
,
00021000
00000000
00031000
00000000
00010000
00010000
00000010
00000010
,
00000110
00000000
00000001
00001001
00000000
00010100
00000000
00000100
,
00020000
00031000
01000000
10010000
,
00200000
00000000
00000000
00000000
,
00000000
00000000
00000000
00000000
00301000
00010000
00000010
00000100
,
00000020
00000000
00000000
00000000
,
00000000
00000000
00000000
00000000
00000130
00000010
00010000
00001000
,
00020000
00000000
00000000
00000000
,
00000000
00000000
00000000
00000000
00031000
01000000
00010000
00100000
,
02000000
00000000
00000000
03200000
00000000
00000000
00000000
00000000
,
00302000
00000000
00000000
00023000
00000000
00000000
00000000
00000000
,
00032000
00000000
00000000
00000000
,
00000000
00000000
00000000
00000000
01003000
00001000
00010000
00000100
,
00002000
00000000
00000000
00000000
,
00000000
00000000
00000000
00000000
00003010
00000100
00000010
00010000
,
00000200
00000000
00000000
00000000
,
00000000
00000000
00000000
00000000
00010300
00001000
00100000
00010000
,
02000000
00000000
00000000
03200000
00000000
00000000
00000000
00000000
,
20300000
00000000
00000000
00020000
00000000
00000000
30030000
00000000
,
10000000
00000000
01000000
00000000
02000000
00000000
00000000
00000000
03100000
00000000
00000000
00001000
00000000
00000000
00010000
00000000
,
00000010
00000000
00000100
00000000
00000200
00000000
00000000
00000000
00000310
00000000
00000000
00001000
00000000
00000000
00000010
00000000
,
00000100
00000000
00000001
00000000
00000002
00000000
00000000
00000000
00001003
00000000
00000000
00000100
00000000
00000000
00010000
00000000
,
00001000
00010000
00020000
00000000
00031000
01000000
02000000
00000000
,
03100000
00000000
10000000
00000000
20000000
00000000
00000000
00000000
30100000
00000000
00000000
01000000
00000000
00000000
00001000
00000000
,
00100000
00000000
00001000
00000000
00002000
00000000
00000000
00000000
00013000
00000000
00000000
00000010
00000000
00000000
00000100
00000000
,
00000001
00000000
00000010
00000000
00000020
00000000
00000000
00000000
00000130
00000000
00000000
00010000
00000000
00000000
00001000
00000000
,
01000000
00100000
00200000
00000000
10300000
00010000
00020000
00000000
,
01030000
00000000
00001000
00000000
00001000
00000000
00000000
00000000
00010000
00000000
00000000
00000100
00000000
00010000
00001000
00000000
,
00000010
00000000
00000100
00000000
00010000
00000000
00000000
00000000
00001000
00000000
00000000
00100000
00000000
00010000
01000000
00000000
,
00100000
00000000
10000000
00000000
00010000
00000000
00000000
00000000
01000000
00000000
00000000
00001000
00000000
00100000
00001000
00000000
,
00010000
00000010
00000200
00000000
00000301
00000010
00000200
00000000
,
00010300
00000000
00001000
00000000
02000000
00000000
00000000
00000000
03100000
00000000
00000000
10000000
00000000
00100000
01000000
00000000
,
00100000
00000000
10000000
00000000
00020000
00000000
00000000
00000000
01030000
00000000
00000000
00001000
00000000
00100000
00001000
00000000
,
00010000
00000000
00000010
00000000
00000200
00000000
00000000
00000000
00000310
00000000
00000000
00001000
00000000
00000001
00000010
00000000
,
00000001
00000100
00000020
00000000
00020030
00000000
00031000
00000000
,
00021000
00000000
00000000
00000000
,
00000000
00000000
00000000
00000000
,
00000000
00000000
00001000
00000000
00001000
00000000
00000000
00000000
00001000
00000000
00000000
00001000
00000000
00000000
00001000
00000000
,
00000000
00000000
00001000
00000000
00001000
00000000
00000000
00000000
00001000
00000000
00000000
00001000
00000000
00000000
00031000
00000000
,
01000000
00100000
10000000
00000000
01000000
00100000
00001000
00000000
,
00010000
00000010
00000100
00000000
00000010
00001000
00000001
00000010
,
00000100
00010000
00001000
00000000
01000000
00010000
10000000
00100000
,
01000000
00000000
01001000
00000000
00100000
00001000
00010000
00000000
,
00022000
00000000
00000000
00000000
,
00000000
00000000
00000000
00000000
,
00000000
00000000
00000000
00000000
,
00000000
00033000
00011000
01010000
,
10000000
01000000
00100000
00001000
00010000
00000000
00011000
00000000
,
00010010
00000000
00000100
00000001
00000010
00001000
00000010
00000100
,
00001000
00000100
00000010
00000001
00001000
00000000
00001010
00000000
,
00011000
00000000
01000000
00010000
00100000
10000000
00100000
01000000
,
10000000
00100000
01000000
00010000
10000000
00000000
01100000
00000000
,
00011000
00000000
00000010
00000001
00000010
00001000
00000010
00000100
,
00001000
00000010
00000100
00000001
00001000
00000000
00000110
00000000
,
00010010
00000000
00000100
00001000
00010000
00100000
01000000
01000000
,
10000000
00100000
00010000
00100000
01000000
00000000
01100000
00000000
,
00101000
00000000
00001000
00010000
00000100
00000001
00000100
00000010
,
00000001
00000100
00001000
00000100
00000010
00000000
00000110
00000000
,
00010010
00000000
00010000
00001000
01000000
10000000
01000000
00100000
,
10000000
01000000
00010000
00001000
00000100
00000000
00000110
00000000
,
00000011
00000000
00000001
00000100
00000010
00001000
00000001
00000010
,
00000001
00000100
00000010
00001000
00010000
00000000
01000000
00100000
,
10000000
00000000
01200000
00000000
10300000
00010000
01000000
00000000
,
00010000
00000000
10000000
00000000
01000000
00000000
00100000
00000000
00001000
00000000
00100000
00001000
00000000
00100000
00002000
00000000
,
00013000
00000000
00000010
00010000
00000000
00000010
00020000
00000000
00030100
00000000
00001000
00000100
00000000
00001000
00000200
00000000
,
00000310
00000000
00000001
00000100
00000000
00000010
00020000
00000000
00031000
00000000
00100000
00010000
00000000
01000000
00200000
00000000
,
10300000
00000000
00010000
00100000
00000000
00010000
00200000
00000000
00301000
00020000
00030000
00001000
00010000
00000000
00001000
00000000
,
00011000
00000000
00000000
00010000
00000010
00000000
00000100
00000000
00000010
00001000
00000000
00000001
00001000
00000000
00000100
00000000
,
00010100
00000000
00000000
00000100
00010000
00000000
00001000
00000000
00100000
00010000
00000000
10000000
00010000
00000000
01000000
00000000
,
00100000
00000000
10000000
01000000
10000000
00000000
11000000
00000000
00000000
00000000
00110000
00000000
00000000
00000000
00011000
00000000
,
00000010
00000000
00000100
00000000
00000001
00000000
00000000
00000000
00001000
00000100
00010000
00001000
00010000
00000000
00000000
00000000
,
00012000
00000000
00000000
00000000
,
00000000
00000000
00000000
00000000
01003000
00100000
01000000
00010000
,
00200000
00000000
00000000
00000000
,
00000000
00000000
00000000
00000000
00301000
00010000
00000010
00000100
,
00000020
00000000
00000000
00000000
,
00000000
00000000
00000000
00000000
00001030
00000100
00010000
00001000
,
00020000
00000000
00000000
00000000
,
00002000
00000000
00000000
00000000
,
00033000
00000000
00000000
00000000
;
