#VERSION:0.83;
#TITLE:Dat Disco Swindle;
#SUBTITLE:(DANCERUSH Cut);
#ARTIST:Firebeatz & Schella;
#TITLETRANSLIT:;
#SUBTITLETRANSLIT:;
#ARTISTTRANSLIT:;
#GENRE:;
#CREDIT:;
#MUSIC:Dat Disco Swindle.ogg;
#BANNER:Dat Disco Swindle.png;
#BACKGROUND:Dat Disco Swindle-bg.png;
#CDTITLE:;
#SAMPLESTART:60.122;
#SAMPLELENGTH:16.071;
#SELECTABLE:YES;
#OFFSET:-0.003;
#BPMS:0.000=126.000;
#STOPS:125.000=0.952;
#SPEEDS:0.000=1.000=0.000=0;
#SCROLLS:0.000=1.000;
#TICKCOUNTS:0.000=4;
#TIMESIGNATURES:0.000=4=4;
#LABELS:0.000=Song Start;
#COMBOS:0.000=1;
#ORIGIN:;
#PREVIEWVID:;
#JACKET:Dat Disco Swindle-jacket.png;
#CDIMAGE:;
#DISCIMAGE:;
#BGCHANGES:;
#FGCHANGES:;

//--------------- dance-double - Haley Halcyon ----------------
#NOTEDATA:;
#STEPSTYPE:dance-double;
#DESCRIPTION:Haley Halcyon;
#DIFFICULTY:Medium;
#METER:8;
#RADARVALUES:0,0,0,0,0;
#NOTES:
00000000
00000000
00000000
00000000
,
00000000
00000000
00000000
00000000
,
00000000
00000000
00000000
00000000
,
00000000
00000000
00000000
00000000
,
00001000
00020000
00000010
00031000
,
00010000
00002000
00100000
00013000
,
00001000
00020000
00000010
00031000
,
00020000
00030020
00000032
00000203
,
00001300
00000100
00000010
00000001
,
00001000
00000010
00000001
00000010
,
00001000
00000100
00010000
00001000
,
00010000
01000000
10000000
01000000
,
10000000
00100000
01000000
00010000
,
10000000
01000000
00010000
01000000
,
10000000
00100000
00010000
00100000
,
10000000
00010000
10000000
00010000
,
10010000
00010000
01000000
01000000
,
00001000
01000000
00002000
00013000
,
00011000
00010000
00001000
00001000
,
00010000
00001000
00020000
00030100
,
00001100
00000100
00001000
00000100
,
00001001
00000001
00000100
00000001
,
00000101
00000010
00000100
00000010
,
00001010
00000010
00001000
00000010
,
00010000
00001000
00100000
00010000
,
10000000
00000000
00100000
00000000
10000000
00010000
10000000
00000000
,
00010000
01000000
10000000
01000000
,
00010000
00000000
00100000
00000000
01000000
00100000
00010000
00000000
,
00011000
00110000
00011000
00110000
,
00011000
01010000
00011000
01010000
,
00001000
00010000
01000000
00010000
00001000
00010000
01000000
00010000
,
00011000
00000000
00000000
00000000
00022000
00033000
00000000
00000000
00001000
00000000
00010000
00000000
01000000
00000000
00010000
00000000
,
00001000
00010000
01000000
00010000
00001000
00000000
00001000
00000000
,
00010000
00001000
00010000
00000000
00010000
00001000
00000100
00001000
,
00010000
00001000
00000100
00001000
00010000
00000000
00010000
00000000
,
00001000
00010000
00002000
00000000
00003010
00001000
00010000
00001000
,
00000010
00001000
00010000
00001000
00000010
00000000
00000100
00000000
,
00010000
00000000
00001000
00010000
00100000
00010000
00001000
00010000
,
00100000
00010000
00001000
00000000
02000000
00000000
03200000
00000000
,
00320000
00000000
00000000
00031000
00000000
00000000
00020000
00000000
00000000
00031000
00000100
00000001
,
00002000
00000000
00003100
00000000
00000001
00000100
00001000
00000100
,
00000001
00000100
00001000
00000000
00010200
00000000
00010000
00000000
,
00200300
00000000
00310000
00000000
00010000
00100000
10000000
00000000
,
00010000
01000000
10000000
00000000
02100000
00000000
00010000
00000000
,
03002000
00000000
00013000
00000000
00010000
00001000
00000010
00001000
,
00010000
00001000
00010000
00000000
00000210
00000000
00001000
00000000
,
00020300
00031000
00100000
00000010
,
00010000
00000000
00001000
00000000
00011000
00000000
00000010
00010000
,
00001000
00000000
00100000
00001000
00010000
00000000
00000010
00010000
,
00001000
00000000
00100000
00001000
00011000
00000000
00000100
00010000
,
00001000
00000000
01000000
00001000
00010000
00000000
00000100
00010000
,
00001000
00000000
01000000
00001000
00011000
00000000
00000010
00000000
,
00011000
00000010
00011000
00100000
,
00011000
00100000
00011000
00000010
,
00011000
00100000
00011000
00100010
,
00011000
01000100
00000000
00000000
;

//--------------- dance-double - Haley Halcyon ----------------
#NOTEDATA:;
#STEPSTYPE:dance-double;
#DESCRIPTION:Haley Halcyon;
#DIFFICULTY:Hard;
#METER:13;
#RADARVALUES:0,0,0,0,0;
#NOTES:
00000000
00000000
00000000
00000000
,
00000000
00000000
00000000
00000000
,
00000000
00000000
00000000
00000000
,
00000000
00000000
00000000
00000000
,
00011000
00000000
00000000
00000000
00000000
00000000
01000000
00000000
00000000
00010000
00000000
01000000
00010000
00000000
00000000
00100000
00000000
00000000
01000000
00000000
00000000
10000000
00000000
00000000
,
10010000
00000000
00000000
00000000
00000000
00000000
00100000
00000000
00000000
00001000
00000000
00100000
00001000
00000000
00000000
00010000
00000000
00000000
00000100
00000000
00000000
00010000
00000000
00000000
,
00011000
00000000
00000000
00000000
00000000
00000000
00000010
00000000
00000000
00001000
00000000
00000010
00001000
00000000
00000000
00000100
00000000
00000000
00000010
00000000
00000000
00000001
00000000
00000000
,
00001000
00000100
00000010
00000100
00001000
00000100
00000010
00000100
,
00001000
00000001
00001000
00000010
00000100
00000001
00000100
00000010
,
00001000
00000001
00001000
00000100
00000010
00000100
00010000
00010000
,
00001000
00010000
00001000
01000000
00100000
01000000
00010000
01000000
,
00001000
00010000
00001000
00100000
01000000
00100000
00010000
00010000
,
10000000
01000000
10000000
00100000
01000000
00100000
10000000
01000000
,
00100000
00010000
00100000
01000000
10000000
01000000
00100000
00001000
,
00010000
00001000
00100000
00001000
00010000
00001000
01000000
00001000
,
00010000
00010000
00001000
00001000
00010000
00010000
00001000
00000000
,
10010000
00000000
10000000
00000000
00010000
01000000
00010000
00000000
10000000
00000000
00010000
01000000
00010000
00000000
10000000
00000000
,
10010000
00000000
10010000
00000000
00010000
01000000
00010000
00000000
00200000
00000000
00000000
00000000
00301000
00000000
00001000
00000000
,
00011000
00000000
00010000
00000000
00000100
00001000
00000100
00000000
00010000
00000000
00000100
00001000
00000100
00000000
00010000
00000000
,
00011000
00000000
00011000
00000000
00000010
00001000
00000010
00000000
00010000
00001000
00010000
00001000
00000000
00000000
00010000
00000000
,
00011000
00000000
00010000
00000000
00000100
00001000
00000100
00000000
00010000
00000000
00000100
00001000
00000100
00000000
00010000
00000000
,
00010100
00000000
00010100
00000000
00010000
00001000
00010000
00000000
00000100
00000000
00010000
00001000
00010000
00000000
00000100
00000000
,
00001001
00000000
00000001
00000000
00001000
00000100
00001000
00000000
00000001
00000000
00001000
00000100
00001000
00000000
00000001
00000000
,
00001001
00000000
00001001
00000000
00001000
00000100
00001000
00000000
00000001
00000010
00000001
00000010
00000000
00000000
00000000
00000000
,
00000001
00000100
00000010
00000100
00001000
00000100
00000010
00000100
,
00000001
00000100
00000010
00000100
00001000
00010000
01000000
00000000
,
10000000
01000000
00100000
01000000
00010000
01000000
00100000
01000000
,
10000000
00000000
01000000
00000000
00100000
00000000
01000000
00000000
00010000
00000000
00001000
00010000
00001000
00000000
00000100
00000000
,
00000101
00000011
00000101
00000011
,
00001100
00001010
00001100
00001010
,
00000010
00001000
00000100
00010000
00000010
00001000
00000100
00010000
,
00001000
00000000
00000000
00000000
00002000
00003000
00000000
00000000
00001000
00000000
00010000
00000000
01000000
00000000
00010000
00000000
,
00001000
00010000
01000000
00010000
00001000
01000000
00001000
01000000
,
00010000
00010000
01000000
00100000
10000000
00100000
00010000
00100000
,
10000000
00100000
00010000
00100000
10000000
00010000
01000000
00010000
,
00100000
00010000
01000000
00001000
00010000
00001000
00000010
00001000
,
00010000
00001000
00000010
00001000
00010000
00000010
00010000
00000010
,
00001000
00000010
00000100
00000100
00000001
00000100
00001000
00000100
,
00000001
00000000
00000000
00001000
00000000
00000000
00000100
00000000
00000000
00000000
00000000
00000000
00000010
00000000
00000100
00000000
00000010
00000000
00000100
00000000
00000000
00000000
00000000
00000000
,
00001000
00000100
00001000
00000100
00000000
00000000
00020000
00000000
00000000
00031000
00010000
00001000
,
01000000
00000000
01000000
00000000
00010000
10000000
01000000
10000000
,
00010000
00010000
00100000
01000000
10000000
00100000
00010000
00100000
,
10000000
00100000
01000000
00010000
00100000
00001000
10000000
00001000
,
00100000
00001000
00100000
00001000
00010000
00000100
00001000
00000100
,
00000010
00000100
00001000
00000100
00010000
00000010
00010000
00000010
,
00001000
00000001
00000010
00000010
00000001
00000100
00000010
00000100
,
00001000
00010000
00000100
00010000
00001000
00010000
00100000
01000000
,
00001000
00010000
01000000
10000000
10010000
00000000
10000000
01000000
,
00100000
00000000
00000000
00010000
00000000
00100000
00010000
00000000
00000000
00100000
00000000
00000000
00001000
00000000
00000000
00010000
00000000
00000000
00001000
00000000
00000000
00000100
00000000
00000000
,
00000010
00000000
00000000
00001000
00000000
00000010
00001000
00000000
00000000
00000001
00000000
00000000
00001001
00000000
00000000
00000001
00000000
00000000
00000010
00000000
00000000
00000100
00000000
00000000
,
00001000
00000000
00000000
00000010
00000000
00001000
00000010
00000000
00000000
00000100
00000000
00000000
00001000
00000000
00000000
00010000
00000000
00000000
00000100
00000000
00000000
00010000
00000000
00000000
,
00001000
00000000
00000000
00100000
00000000
00010000
00100000
00000000
00000000
00010000
00000000
00000000
10010000
00000000
00000000
10000000
00000000
00000000
00100000
00000000
00000000
01000000
00000000
00000000
,
00010000
00000000
00000000
00100000
00000000
00010000
00100000
00000000
00000000
01000000
00000000
00000000
10000000
00000000
00000000
01000000
00000000
00000000
00100000
00000000
00000000
00010000
00000000
00000000
,
01000000
00000000
00000000
00100000
00000000
10000000
00100000
00000000
00000000
10000000
00000000
00000000
10010000
00000000
00000000
00010000
00000000
00000000
00100000
00000000
00000000
00010000
00000000
00000000
,
01000000
00000000
00000000
00001000
00000000
00010000
00001000
00000000
00000000
00100000
00000000
00000000
01000000
00000000
00000000
00010000
00000000
00000000
00001000
00000000
00000000
00000100
00000000
00000000
,
00000001
00000000
00000000
00001000
00000000
00000100
00001000
00000000
00000000
00000010
00000000
00000000
00000000
00000000
00000000
00000000
00000000
00000000
00000000
00000000
00000000
00000000
00000000
00000000
;

//--------------- dance-double - Haley Halcyon ----------------
#NOTEDATA:;
#STEPSTYPE:dance-double;
#DESCRIPTION:Haley Halcyon;
#DIFFICULTY:Challenge;
#METER:15;
#RADARVALUES:0.557329,0.632208,1.131467,0.036207,0.036207,431,306,125,4,0,0,0,0,0,0.557329,0.632208,1.131467,0.036207,0.036207,431,306,125,4,0,0,0,0,0;
#OFFSET:-0.003;
#BPMS:0.000=126.000
,96.000=378.000
,96.375=42.000
,96.500=126.000
,97.000=378.000
,97.375=42.000
,97.500=126.000
,98.000=378.000
,98.375=42.000
,98.500=126.000
,99.000=378.000
,99.375=42.000
,99.500=126.000
,100.000=378.000
,100.375=42.000
,100.500=126.000
,101.000=378.000
,101.375=42.000
,101.500=126.000
,102.000=378.000
,102.375=42.000
,102.500=378.000
,102.875=42.000
,103.000=378.000
,103.375=42.000
,103.500=126.000
,104.000=378.000
,104.375=42.000
,104.500=126.000
,105.000=378.000
,105.375=42.000
,105.500=126.000
,106.000=378.000
,106.375=42.000
,106.500=126.000
,107.000=378.000
,107.375=42.000
,107.500=126.000
,108.000=378.000
,108.375=42.000
,108.500=126.000
,109.000=378.000
,109.375=42.000
,109.500=126.000
,110.000=378.000
,110.375=42.000
,110.500=252.000
,110.625=84.000
,110.750=252.000
,110.875=84.000
,111.000=378.000
,111.375=42.000
,111.500=126.000
,112.000=409.500
,112.813=31.500
,113.000=409.500
,113.813=31.500
,114.000=409.500
,114.813=31.500
,115.000=409.500
,115.813=31.500
,116.000=409.500
,116.813=31.500
,117.000=409.500
,117.813=31.500
,118.000=409.500
,118.813=31.500
,119.000=409.500
,119.813=31.500
,120.000=126.000
;
#STOPS:125.000=0.952;
#SPEEDS:0.000=1.000=0.000=0,
126.000=0.700=0.200=0,
126.333=1.000=0.500=0,
127.000=0.700=0.200=0,
127.333=1.000=0.500=0,
128.000=0.700=0.200=0,
128.333=1.000=0.500=0,
129.000=0.700=0.200=0,
129.333=1.000=0.500=0,
130.000=0.700=0.200=0,
130.333=1.000=0.500=0,
131.000=0.700=0.200=0,
131.333=1.000=0.500=0,
132.000=0.700=0.200=0,
132.333=1.000=0.500=0,
133.000=0.700=0.200=0,
133.333=1.000=0.500=0,
134.000=0.700=0.200=0,
134.333=1.000=0.500=0,
135.000=0.700=0.200=0,
135.333=1.000=0.500=0,
136.000=0.700=0.200=0,
136.333=1.000=0.500=0,
137.000=0.700=0.200=0,
137.333=1.000=0.500=0,
138.000=0.700=0.200=0,
138.333=1.000=0.500=0,
139.000=0.700=0.200=0,
139.333=1.000=0.500=0,
140.000=0.700=0.200=0,
140.333=1.000=0.500=0,
141.000=0.700=0.200=0,
141.333=1.000=0.500=0,
142.000=0.700=0.200=0,
142.333=1.000=0.500=0,
143.000=0.700=0.200=0,
143.333=1.000=0.500=0,
144.000=0.700=0.200=0,
144.333=1.000=0.500=0,
145.000=0.700=0.200=0,
145.333=1.000=0.500=0,
146.000=0.700=0.200=0,
146.333=1.000=0.500=0,
147.000=0.700=0.200=0,
147.333=1.000=0.500=0,
148.000=0.700=0.200=0,
148.333=1.000=0.500=0,
150.000=0.700=0.200=0,
150.333=1.000=0.500=0,
151.000=0.700=0.200=0,
151.333=1.000=0.500=0,
152.000=0.700=0.200=0,
152.333=0.800=0.100=0,
152.500=0.700=0.200=0,
152.833=0.800=0.100=0,
153.000=0.700=0.200=0,
153.333=1.000=0.500=0,
158.000=0.700=0.500=0,
159.000=0.900=0.200=0,
159.333=0.700=0.200=0,
159.667=0.900=0.200=0,
160.000=2.000=0.500=0,
161.000=1.000=0.000=0,
162.000=0.700=0.200=0,
162.333=1.000=0.500=0,
163.000=0.700=0.200=0,
163.333=1.000=0.500=0,
164.000=0.700=0.200=0,
164.333=1.000=0.500=0,
166.000=0.700=0.200=0,
166.333=1.000=0.500=0,
167.000=0.700=0.200=0,
167.333=0.800=0.100=0,
167.500=0.700=0.200=0,
167.833=0.800=0.100=0,
168.000=0.700=0.200=0,
168.333=1.000=0.500=0,
169.000=0.700=0.200=0,
169.333=1.000=0.500=0,
170.000=0.700=0.200=0,
170.333=1.000=0.500=0,
171.000=1.600=0.200=0,
171.333=1.000=0.500=0,
172.000=0.700=0.200=0,
172.333=1.000=0.500=0,
173.000=0.700=0.200=0,
173.333=1.000=0.500=0,
174.000=0.700=0.200=0,
174.333=1.000=0.500=0,
175.000=0.700=0.200=0,
175.333=1.000=0.500=0,
176.000=0.700=0.200=0,
176.333=1.000=0.500=0,
177.000=0.700=0.200=0,
177.333=1.000=0.500=0,
178.000=0.700=0.200=0,
178.333=1.000=0.500=0,
179.000=0.700=0.200=0,
179.333=1.000=0.500=0,
180.000=0.700=0.200=0,
180.333=1.000=0.500=0,
182.000=0.700=0.200=0,
182.333=1.000=0.500=0,
183.000=0.700=0.200=0,
183.333=1.000=0.500=0,
184.000=0.700=0.200=0,
184.333=0.800=0.100=0,
184.500=0.700=0.200=0,
184.833=0.800=0.100=0,
185.000=0.700=0.200=0,
185.333=1.000=0.500=0,
186.000=0.700=0.200=0,
186.333=1.000=0.500=0,
187.000=0.700=0.200=0,
187.333=1.000=0.500=0,
188.000=0.700=0.200=0,
188.333=1.000=0.500=0,
189.000=0.700=0.200=0,
189.333=1.000=0.500=0
;
#SCROLLS:0.000=1.000;
#TICKCOUNTS:0.000=4;
#TIMESIGNATURES:0.000=4=4;
#LABELS:0.000=Song Start;
#COMBOS:0.000=1;
#DISPLAYBPM:126.000;
#CHARTNAME:;
#CHARTSTYLE:;
#CREDIT:;
#NOTES:
00000000
00000000
00000000
00000000
,
00000000
00000000
00000000
00000000
,
00000000
00000000
00000000
00000000
,
00000000
00000000
00000000
00000000
,
00011000
00000000
00001000
00000100
00000001
00000010
00001000
00010000
,
00011000
00000000
00010000
01000000
10000000
00100000
00010000
00000000
,
00011000
00000000
00001000
00000100
00000001
00000010
00001000
00010000
,
00010001
00100100
10001000
01000010
,
00010001
00000000
00000001
00000100
00010000
00000100
00000001
00010000
,
10001000
00000000
10000000
01000000
00001000
01000000
10000000
00001000
,
00010001
00000000
00000001
00000010
00010000
00000010
00000001
00010000
,
10001000
00000000
10000000
00100000
00001000
00100000
10000000
00001000
,
00010001
00000001
00000010
00001000
01000000
00100000
01000000
00001000
,
10001000
10000000
00100000
00010000
00000100
00000010
00000100
00010000
,
00010001
00100010
10001000
01000100
,
00000100
00001000
00000010
00001000
00010000
00001000
00000010
00000000
,
10000010
00010000
00000100
00100000
00001000
00100000
00000100
00010000
,
00100001
00100001
00010000
00001000
00000200
00000000
00001300
00010000
,
10000100
00010000
00000010
01000000
00001000
00100000
00000100
00010000
,
01000001
01000001
00010000
00001000
00000010
00001000
00010000
00000000
,
00100001
00001000
01000000
00000010
00010000
00000010
01000000
00001000
,
10000010
10000010
00001000
00010000
01000000
00010000
00001000
00001000
,
01000001
00001000
00100000
00000100
00010000
00000010
01000000
00001000
,
10000100
10000100
00001000
00010000
00100000
00010000
00001000
00000000
,
00011000
00010100
00010001
00010010
,
00011000
00000000
01001000
00000000
10001000
00101000
00011000
00000000
,
01000100
10001000
00100010
00010001
,
01000100
00000000
00010001
00000000
00100010
10001000
01000100
00000000
,
00100001
10000100
00100001
00011000
,
01000001
10000010
01000001
00011000
,
00100100
00011000
01000010
00011000
00100100
00011000
01000010
00011000
,
00100000
00000000
00000000
00000000
00200000
00300000
00000000
00000000
10010000
00000000
00000000
00000000
00101000
00000000
00000000
00000000
,
00010010
00001001
10000100
01000001
,
10000100
00011000
01000001
00000000
00001001
00000000
00010010
00000000
,
00101000
10010000
01000001
10000100
,
01000001
01001000
10010000
01001000
,
00010100
00001001
10000010
01000001
,
10000010
00000000
00010000
00001000
00100100
00000000
01000010
00000000
,
00100000
00000000
00000000
00000010
00000000
00000000
00010000
00000000
00000000
00000000
00000000
00000000
00001000
00000000
00000100
00000000
00000001
00000000
00001000
00000000
00000100
00000000
00000001
00000000
,
00001000
00000010
00000001
00000101
00000000
00000000
00000020
00000000
00000000
00001030
00000100
00000001
,
00002000
00013000
01000001
10000100
,
01000001
00011000
10000100
00000000
10010000
00000000
00102000
00013000
,
00010010
00001001
00011000
10000001
,
00011000
00011000
00010001
01000001
,
10000100
10001000
01000100
00100010
,
01000100
00000000
00100010
00011000
00010001
00000000
00100001
00000000
,
10000010
10001000
10010000
00000000
01000100
00000000
00100010
00000000
,
01000100
00000000
00100010
00000000
00011000
00000000
00010000
01000000
,
10000000
00100000
01000000
00000000
10000000
00000000
00010000
00001000
,
00000010
00000100
00010000
00000000
00011000
00000000
00001000
00000100
,
00000001
00000010
00000100
00000000
00000001
00000000
00001000
00010000
,
00100000
01000000
00001000
00000000
00011000
00000000
00001000
00010000
,
01000000
10000000
00100000
00000000
00010000
00001000
00000100
00001000
,
00100000
00000010
00010000
00000000
00011000
00000000
00010000
00000100
,
00000001
00001000
00000010
00000001
00000100
00010000
01000000
00001000
,
00000100
00010000
00100000
20000000
30000000
00000000
00000000
00000000
;
