#TITLE:Crab Rave;
#SUBTITLE:(No Split Timing);
#ARTIST:Noisestorm;
#TITLETRANSLIT:;
#SUBTITLETRANSLIT:;
#ARTISTTRANSLIT:;
#GENRE:Meme;
#CREDIT:Haley Halcyon;
#MUSIC:Crab Rave.ogg;
#BANNER:Crab Rave.png;
#BACKGROUND:Crab Rave-bg.png;
#CDTITLE:;
#SAMPLESTART:19.204;
#SAMPLELENGTH:15.000;
#SELECTABLE:YES;
#OFFSET:-0.004;
#BPMS:0.000=125.000;
#STOPS:;
#ORIGIN:;
#PREVIEWVID:;
#JACKET:;
#CDIMAGE:;
#DISCIMAGE:;
#BGCHANGES:0.000=Crab Rave.mp4=1.000=0=0=0=StretchNoLoop====,
99999.000=-nosongbg-=1.000=0=0=0=StretchNoLoop====
;
#FGCHANGES:;

//--------------- dance-double - Haley Halcyon ----------------
#NOTES:
     dance-double:
     Haley Halcyon:
     Medium:
     8:
     0.326754,0.345012,0.017069,0,0,268,266,2,0,0,0,0,0,0,0.326754,0.345012,0.017069,0,0,268,266,2,0,0,0,0,0,0:
00000000
00000000
00000000
00000000
,
00000000
00000000
00000000
00000000
,
00010000
00000000
00001000
00000000
00100000
00010000
10000000
00000000
,
00100000
00000000
10000000
00000000
00010000
00100000
00001000
00000000
,
00010000
00000000
00001000
00000000
00010000
00000010
00000100
00000000
,
00000001
00000000
00000010
00000000
00000001
00001000
00000010
00000000
,
00010000
00010000
00000010
00000010
,
00010000
00010000
00000100
00000100
,
00010000
00001000
00010000
00001000
00010000
00001000
00010000
00000000
,
00000010
00100000
00000010
00100010
,
00100000
00000100
00100000
00100000
,
00000100
00100000
00000100
00000100
,
01000000
00000010
01000000
01000000
,
00000010
01000000
00000010
00000010
,
00100000
00000010
01000000
00000100
,
00100000
00000010
01000000
00000100
,
00100000
00000100
01000000
00000010
,
00100000
00000100
01000000
00000010
,
00100000
00001000
00100000
00000000
00000010
00010000
00000010
00000000
,
00100000
00001000
00100000
00000000
00000010
00010000
00000010
00000000
,
01000000
00001000
01000000
00000000
00000100
00010000
00000100
00000000
,
01000000
00001000
01000000
00000000
00000100
00010000
00000100
00000000
,
00100000
00001000
00010000
00000000
00000010
00010000
00001000
00000000
,
01000000
00001000
00010000
00000000
00000100
00010000
00001000
00000000
,
00100000
00001000
01000000
00000000
01000000
00001000
00100000
00000000
,
00000010
00010000
00000100
00000000
00000100
00010000
00000010
00000000
,
00001000
00000000
00000100
00000000
00010000
00001000
00100000
00000000
,
01000000
00000000
10000000
00000000
00100000
01000000
00010000
00000000
,
10000000
00000000
00010000
00000000
00100000
00001000
00010000
00000000
,
00000100
00000000
00001000
00000000
00000010
00000100
00000001
00000000
,
00010000
00010000
00000001
00000001
,
00010000
00010000
00000001
00000001
,
00010000
00000100
00010000
00000100
00010000
00000100
00010000
00000000
,
00000010
00100000
00000010
00100010
,
00000000
00000000
00000000
00000000
,
00100000
00001000
01000000
00001000
,
00100000
00000010
00010000
00001000
,
00100000
00001000
01000000
00001000
,
00100000
00000010
00010000
00000100
,
00010000
00000001
00010000
00000100
,
00100000
00000010
00010000
00000100
,
00010000
00000001
00010000
00000100
,
00100000
00001000
00100000
00000000
00000100
00010000
00000100
00000000
,
01000000
00001000
01000000
00000000
00000010
00010000
00001000
00010000
,
00000010
00010000
00000010
00000000
01000000
00001000
01000000
00000000
,
00000100
00010000
00000100
00000000
00100000
00001000
00010000
00001000
,
00100000
00001000
10000000
00000000
00010000
10000000
00001000
00000000
,
01000000
00001000
00010000
00000000
00000100
00001000
00000001
00001000
,
00000010
00010000
00000001
00000000
00001000
00000001
00010000
00000000
,
00000100
00010000
00001000
00000000
01000000
00010000
10000000
00010000
,
10000000
00100000
01000000
00010000
,
00100000
00000000
00001000
00010000
,
00001000
00100000
00000100
00010000
,
00000010
00000000
00000100
00000001
,
00000001
00000010
00000100
00001000
,
00000010
00000000
00010000
00001000
,
00010000
00000010
01000000
00001000
,
00100000
00000000
01000000
10000000
;

//--------------- dance-double - Haley Halcyon ----------------
#NOTES:
     dance-double:
     Haley Halcyon:
     Hard:
     13:
     0.487692,0.495007,0.409661,0.298711,0.486473,400,352,48,35,0,0,0,0,0,0.487692,0.495007,0.409661,0.298711,0.486473,400,352,48,35,0,0,0,0,0:
00000000
00000000
00000000
00000000
,
00000000
00000000
00000000
00000000
,
00011000
00000000
00000000
00000000
01001000
00000000
00000000
01000000
00000000
01000000
00000000
00000000
01100000
00000000
00000000
00000000
,
10100000
00000000
00000000
00000000
10010000
00000000
00000000
00110000
00000000
00000000
00100000
00000000
00001000
00000000
00010000
00000000
,
00011000
00000000
00000000
00000000
00010100
00000000
00000000
00000100
00000000
00000100
00000000
00000000
00000110
00000000
00000000
00000000
,
00000011
00000000
00000000
00000000
00001001
00000000
00000000
00001010
00000000
00000000
00000010
00000000
00010000
00000000
00001000
00000000
,
00011000
00101000
00011000
00010010
,
00011000
01001000
00011000
00010100
,
00001000
00000001
00000010
00000100
00001000
00000001
00000010
00000100
,
00002200
00003300
00020200
00030300
00202000
00303000
00100010
00000000
,
00100000
00000000
00001000
00000000
00010000
00000000
00000000
00000010
00000000
00000000
00010000
00000000
00001000
00000000
00000000
01000000
,
00000000
00000000
00001000
00000000
00010000
00000000
00000000
00000100
00000000
00100000
00000000
00001000
00000000
00000000
00010000
00000000
,
00000010
00000000
00010000
00000000
00001000
00000000
00000000
00100000
00000000
00000000
00001000
00000000
00010000
00000000
00000000
00000100
,
00000000
00000000
00010000
00000000
00001000
00000000
00000000
01000000
00000000
00000010
00000000
00010000
00000000
00000000
00001000
00000000
,
00100000
00000000
00000010
00000000
00010000
00000000
00000000
00000010
00000000
00000000
00100000
00000000
00001000
00000000
00000000
00100000
,
00000000
00000000
00000010
00000000
00010000
00000000
00000000
00000100
00000000
00100000
00000000
00001000
00000000
00000000
00010000
00000000
,
00000010
00000000
00100000
00000000
00001000
00000000
00000000
00100000
00000000
00000000
00000010
00000000
00010000
00000000
00000000
00000010
,
00000000
00000000
00100000
00000000
00001000
00000000
00000000
01000000
00000000
00000010
00000000
00010000
00000000
00000000
00001000
00000000
,
00100000
00000000
00000010
00000000
00100000
00000000
00000000
00001000
00000000
00000000
10000000
00000000
00001000
00000000
00000000
01000000
,
00000000
00000000
00010000
00000000
00100000
00000000
00000000
01000000
00000000
10000000
00000000
00010000
00000000
00000000
01000000
00000000
,
00100000
00000000
01000000
00000000
00010000
00000000
00000000
00100000
00000000
00000000
00001000
00000000
01000000
00000000
00000000
00100000
,
00000000
00000000
10000000
00000000
00010000
00000000
00000000
00100000
00000000
00000010
00000000
00010000
00000000
00001000
00010000
00000000
,
00000010
00000000
00100000
00000000
00000010
00000000
00000000
00010000
00000000
00000000
00000001
00000000
00010000
00000000
00000000
00000100
,
00000000
00000000
00001000
00000000
00000010
00000000
00000000
00000100
00000000
00000001
00000000
00001000
00000000
00000000
00000100
00000000
,
00000010
00000000
00000100
00000000
00001000
00000000
00000000
00000010
00000000
00000000
00010000
00000000
00000100
00000000
00000000
00000010
,
00000000
00000000
00000001
00000000
00001000
00000000
00000000
00000010
00000000
00100000
00000000
00001000
00000000
00010000
00001000
00000000
,
00011000
00000000
00000000
00000000
00010100
00000000
00000000
00000100
00000000
00000100
00000000
00000000
00000110
00000000
00000000
00000000
,
00000011
00000000
00000000
00000000
00000101
00000000
00000000
00000110
00000000
00000000
00000010
00000000
00010000
00000000
00001000
00000000
,
00011000
00000000
00000000
00000000
01001000
00000000
00000000
01000000
00000000
01000000
00000000
00000000
01100000
00000000
00000000
00000000
,
10100000
00000000
00000000
00000000
11000000
00000000
00000000
01100000
00000000
00000000
00100000
00000000
00001000
00000000
00010000
00000000
,
00011000
00010100
00011000
01001000
,
00011000
00010010
00011000
00101000
,
00100000
00010000
10000000
01000000
00100000
00010000
10000000
01000000
,
02200000
03300000
00202000
00303000
00020200
00030300
02000200
00000000
,
00000000
00000000
00000000
03000300
,
01000000
00000000
00000100
00000000
00010000
00000000
00000000
00000100
00000000
00001000
00000000
00000001
00000000
00000001
00000100
00000000
,
00000001
00000000
00001000
00000000
00000100
00000000
00000000
00010000
00000000
00010000
00001000
00000000
01000000
00000000
00000000
00010000
,
00000000
00010000
01000000
00000000
00001000
00000000
00000000
01000000
00000000
01000000
00000000
00010000
00000000
00010000
10000000
00000000
,
00010000
00000000
00100000
00000000
01000000
00000000
00000000
10000000
00000000
10000000
00100000
00000000
01000000
00000000
00000000
00010000
,
00000000
00010000
00100000
00000000
00001000
00000000
00000000
00010000
00000000
00010000
00000000
00000010
00000000
00000010
00001000
00000000
,
00000001
00000000
00000010
00000000
00000100
00000000
00000000
00010000
00000000
00010000
00000010
00000000
00001000
00000000
00000000
00000100
,
00000000
00000100
00010000
00000000
00001000
00000000
00000000
01000000
00000000
01000000
00000000
00010000
00000000
00010000
10000000
00000000
,
10000000
00000000
00100000
00000000
10000000
00000000
00000000
00010000
00000000
00010000
00100000
00000000
00001000
00000000
00000000
00010000
,
00000000
00010000
00000010
00000000
00001000
00000000
00000000
00000100
00000000
00000100
00000000
00000010
00000000
00000010
00000001
00000000
,
00000001
00000000
00000010
00000000
00000001
00000000
00000000
00001000
00000000
00001000
00000010
00000000
00010000
00000000
00000000
00001000
,
00000000
00001000
00100000
00000000
00010000
00000000
00000000
01000000
00000000
01000000
00000000
00100000
00000000
00100000
10000000
00000000
,
00010000
00000000
00100000
00000000
01000000
00000000
10000000
00100000
00000000
00100000
01000000
00000000
00001000
00000000
00010000
00000100
,
00000000
00000100
00001000
00000000
00000010
00000000
00000100
00001000
00000000
00001000
00000000
00000100
00000000
00000100
00000001
00000000
,
00001000
00000000
00000010
00000000
00000100
00000000
00000001
00000010
00000000
00000010
00000100
00000000
00010000
00000000
00001000
01000000
,
00000000
01000000
00010000
00000000
00100000
00000000
01000000
00010000
00000000
00010000
00000000
01000000
00000000
01000000
10000000
00000000
,
00020000
00230000
00300020
00002030
,
00003200
00000000
00000000
00000310
00000100
00001000
00000010
00000000
,
00002000
00003020
00200030
00320000
,
02030000
00000000
00000000
03100000
01000000
00010000
00100000
00000000
,
02000000
03200000
00302000
00023000
,
00030020
00000000
00000000
00001030
00000100
00001000
00000010
00000000
,
00000200
00000320
00020030
00032000
,
00203000
00000000
00000000
00310000
01000000
00010000
00200000
00000000
,
00300000
00000000
00000000
00000000
;

//--------------- dance-double - Haley Halcyon ----------------
#NOTES:
     dance-double:
     Haley Halcyon:
     Challenge:
     17:
     0.652288,0.657165,0.503542,0.11095,0.832124,535,476,59,13,244,0,0,0,0,0.652288,0.657165,0.503542,0.11095,0.832124,535,476,59,13,244,0,0,0,0:
00000000
00000000
00000000
00000000
,
00000000
00000000
00000000
00000000
,
00100010
00000000
00000000
00000000
00101000
00000000
00000000
01001000
00000000
01010000
00000000
00000000
10100000
00000000
00000000
00000000
,
11000000
00000000
00000000
00000000
01100000
00000000
00000000
00101000
00000000
00000000
00110000
00000000
00101000
00000000
00011000
00000000
,
00100010
00000000
00000000
00000000
00010010
00000000
00000000
00010100
00000000
00001100
00000000
00000000
00000011
00000000
00000000
00000000
,
00000101
00000000
00000000
00000000
00000110
00000000
00000000
00010010
00000000
00000000
00001010
00000000
00010010
00000000
00011000
00000000
,
00100010
00010001
00100010
10001000
,
00100010
01000001
00100010
10000100
,
00000010
00100000
00000010
00100000
00001000
00010000
00001000
00010000
00000100
01000000
00000100
01000000
00001000
00010000
00001000
00010000
,
00000020
00000000
00010030
00001000
00200000
00000000
00301000
00010000
00000020
00000000
00010030
00001000
00200000
00000000
00000000
00000000
,
003MM010
00000000
10000000
00000000
000MM100
00000000
00000100
01000000
000MM000
01000000
00000001
00000000
001MM000
00000000
00100000
00000010
,
000MM000
00000010
10000000
00000000
000MM100
00000000
00000100
00100000
000MM000
00100000
00000000
00000001
000MM000
00000001
00100000
00000010
,
001MM000
00000000
00000001
00000000
010MM000
00000000
01000000
00000100
000MM000
00000100
10000000
00000000
000MM010
00000000
00000010
00100000
,
000MM000
00100000
00000001
00000000
010MM000
00000000
01000000
00000010
000MM000
00000010
00000000
10000000
000MM000
10000000
00000010
00100000
,
000MM010
00000000
10000000
00000000
000MM010
00000000
00000010
00100000
000MM000
00100000
00000001
00000000
001MM000
00000000
00100000
00000010
,
000MM000
00000010
10000000
00000000
000MM010
00000000
00000010
01000000
000MM000
01000000
00000000
00000010
000MM000
00000010
01000000
00000010
,
001MM000
00000000
00000001
00000000
001MM000
00000000
00100000
00000010
000MM000
00000010
10000000
00000000
000MM010
00000000
00000010
00100000
,
000MM000
00100000
00000001
00000000
001MM000
00000000
00100000
00000100
000MM000
00000100
00000000
00100000
000MM000
00100000
00000100
00100000
,
000MM010
00000000
00100000
00000000
000MM100
00000000
00000100
10000000
000MM000
10000000
00000010
00000000
010MM000
00000000
01000000
00000001
,
000MM000
00000001
00100000
00000000
000MM100
00000000
00000100
01000000
000MM000
01000000
00000000
00000010
000MM000
00000010
00100000
00000010
,
001MM000
00000000
00000010
00000000
010MM000
00000000
01000000
00000001
000MM000
00000001
00100000
00000000
000MM100
00000000
00000100
10000000
,
000MM000
10000000
00000010
00000000
010MM000
00000000
01000000
00000100
000MM000
00000100
00000000
00100000
000MM000
00100000
00000010
00100000
,
000MM010
00000000
10000000
00000000
000MM010
00000000
00000010
01000000
000MM000
01000000
00000010
00000000
001MM000
00000000
00100000
00000100
,
000MM000
00000100
00100000
00000000
000MM010
00000000
00000010
10000000
000MM000
10000000
00000000
00000001
000MM000
00000001
00100000
00000010
,
001MM000
00000000
00000001
00000000
001MM000
00000000
00100000
00000100
000MM000
00000100
00100000
00000000
000MM010
00000000
00000010
01000000
,
000MM000
01000000
00000010
00000000
001MM000
00000000
00100000
00000001
000MM000
00000001
00000000
10000000
000MM000
10000000
00000010
00100000
,
00000010
00000000
00000000
00000000
00010010
00000000
00000000
00010001
00000000
00001001
00000000
00000000
00001010
00000000
00000000
00000000
,
00000101
00000000
00000000
00000000
00001010
00000000
00000000
00000110
00000000
00000000
00001010
00000000
00010010
00000000
00011000
00000000
,
00100010
00000000
00000000
00000000
00101000
00000000
00000000
10001000
00000000
10010000
00000000
00000000
00110000
00000000
00000000
00000000
,
11000000
00000000
00000000
00000000
00110000
00000000
00000000
01100000
00000000
00000000
00110000
00000000
00101000
00000000
00011000
00000000
,
01000100
10000100
01000100
01000001
,
01000100
10000010
01000100
00100001
,
00100000
00000010
00100000
00000010
00010000
00001000
00010000
00001000
01000000
00000100
01000000
00000100
00010000
00001000
00010000
00001000
,
00200000
00000000
00301000
00010000
00000020
00000000
00010030
00001000
00200000
00000000
00301000
00010000
00000020
00000000
00000000
00000000
,
00000000
00000000
00000000
00000000
00000000
00000000
00000000
00000030
,
010MM000
00000100
00100000
00000000
000MM001
00000000
00000001
10000000
000MM000
10000000
00000000
00000100
000MM000
00000100
00100000
00000100
,
010MM000
00000000
00000010
00000000
100MM000
00000000
10000000
00000100
000MM000
00000100
00100000
00000000
000MM001
00000000
00000001
01000000
,
000MM000
01000000
00000010
00000000
100MM000
00000000
10000000
00000001
000MM000
00000001
00000000
01000000
000MM000
01000000
00000010
01000000
,
000MM100
00000000
00100000
00000000
000MM001
00000000
00000001
01000000
000MM000
01000000
00000010
00000000
100MM000
00000000
10000000
00000100
,
000MM000
00000100
00100000
00000000
000MM001
00000000
00000001
10000000
000MM000
10000000
00000000
00000100
000MM000
00000100
00100000
00000100
,
010MM000
00000000
00000010
00000000
100MM000
00000000
10000000
00000100
000MM000
00000100
00100000
00000000
000MM001
00000000
00000001
01000000
,
000MM000
01000000
00000010
00000000
100MM000
00000000
10000000
00000001
000MM000
00000001
00000000
01000000
000MM000
01000000
00000010
01000000
,
000MM100
01000000
00000001
00000000
001MM000
00000100
00100000
00000001
000MM000
00000001
10000000
00000000
000MM010
01000000
00000010
10000000
,
000MM000
10000000
00000001
00000000
001MM000
00000100
00100000
00000001
000MM000
00000001
00000000
10000000
000MM000
10000000
00000010
00000000
,
010MM000
00000100
10000000
00000000
000MM010
01000000
00000010
10000000
000MM000
10000000
00000001
00000000
001MM000
00000100
00100000
00000001
,
000MM000
00000001
10000000
00000000
000MM010
01000000
00000010
10000000
000MM000
10000000
00000000
00000001
000MM000
00000001
00100000
00000000
,
000MM100
10000000
00000010
00000000
010MM000
00000010
00100000
00000100
001MM000
00000010
01000000
00000000
000MM100
00100000
00000010
01000000
,
000MM010
00100000
00000100
00000000
010MM000
00000010
00100000
00000001
001MM000
00000001
00000000
10000000
000MM000
10000000
00000010
00000000
,
010MM000
00000001
00100000
00000000
000MM100
00100000
00000010
01000000
000MM010
00100000
00000100
00000000
010MM000
00000010
00100000
00000100
,
001MM000
00000010
01000000
00000000
000MM100
00100000
00000010
10000000
00000000
10000000
00000000
00000001
00000000
00000001
01000000
00000000
,
00001000
00100000
00000100
00010000
,
00000020
00000000
00000000
00000130
00000010
00010000
00001000
00000000
,
00010000
00000010
01000000
00001000
,
00200000
00000000
00000000
01300000
00100000
00001000
00010000
00000000
,
00000100
00001000
00000010
00010000
,
00002000
00000000
00000000
01003000
00100000
00010000
00001000
00000000
,
01000000
00010000
00100000
00001000
,
00020000
00000000
00000000
00030100
00000010
00001000
00020000
00000000
,
00030000
00000000
00000000
00000000
;
