#VERSION:0.83;
#TITLE:Clotho and the Stargazer;
#SUBTITLE:;
#ARTIST:CK;
#TITLETRANSLIT:;
#SUBTITLETRANSLIT:;
#ARTISTTRANSLIT:;
#GENRE:;
#CREDIT:;
#MUSIC:Clotho and the Stargazer.mp3;
#BANNER:;
#BACKGROUND:;
#CDTITLE:;
#SAMPLESTART:106.472;
#SAMPLELENGTH:15.652;
#SELECTABLE:YES;
#OFFSET:0.223;
#BPMS:0.000=230.000
,351.000=115.000
,375.500=230.000
;
#STOPS:381.000=0.130;
#TIMESIGNATURES:0.000=3=4;
#BGCHANGES:;
#FGCHANGES:;

//--------------- dance-double - ----------------
#NOTEDATA:;
#STEPSTYPE:dance-double;
#DESCRIPTION:;
#DIFFICULTY:Easy;
#METER:10;
#RADARVALUES:0,0,0,0,0;
#NOTES:
00000000
00000000
00000000
10000000
,
00000000
00000000
01000000
00000000
,
00000000
00100000
00000000
00000000
,
00010000
00000000
00000000
00001000
,
00000000
00000000
00000100
00000000
,
00000000
00000010
00000000
00000000
,
00000001
00000000
00000000
00000001
,
00000000
00000000
00000010
00000000
,
00000000
00000100
00000000
00000000
,
00001000
00000000
00000000
00010000
,
00000000
00000000
00100000
00000000
,
00000000
01000000
00000000
00000000
,
10010000
00000000
00000000
10000000
,
00000000
00100000
01000000
00000000
,
00010000
00100000
00000000
00100000
,
00001000
00010000
00000000
00020000
,
00000000
00000000
00031000
00010000
,
00000010
00000100
00000001
00000000
,
00001000
00000100
00000010
00000100
,
00000000
00000100
00001000
00000000
,
00001000
00010000
00000000
00010000
,
00100000
00100000
00000000
02000000
,
00000000
00000000
13000000
00010000
,
10000000
00000000
00100000
00000000
00000000
01000000
00000000
00000000
,
00010000
00000000
00000000
10000000
00000000
00000000
00020000
00000000
,
00000000
00000000
00100000
00000000
,
00000000
00130000
00000000
00100000
,
00001000
00010000
00000100
00002000
,
00000000
00003010
00000200
00000000
,
00000301
00000020
00000000
00000000
,
00000001
00000000
00000030
00000001
,
00000000
00000100
00000000
00000000
00001000
00000000
00000000
00000000
,
00001000
00000000
00010000
00000000
00000000
01000000
00000000
00000000
,
10000000
00000000
00100000
01000000
,
00000000
00010000
00000000
00000000
10000000
00000000
01000000
00000000
,
00100000
00000000
00110000
00000000
00000000
00010000
00000000
00000000
,
11000000
00000000
00000000
10000000
00000000
00000000
00000000
00000000
,
00000000
00000000
00200000
00000000
,
00000000
01300000
00000000
00000000
,
00010000
00000000
10000000
01000000
,
00000000
00100000
00020000
00000000
,
00130000
00000000
00001000
00000000
00000000
00010000
00000000
00000000
,
00000010
00000000
00000100
00000001
,
00001000
00001000
00000010
00000000
,
00010000
00001000
00010000
00000000
,
00001000
00000000
00100000
00010000
,
00000000
10000000
00100000
00000000
,
01000000
00000000
00010000
00000000
00000000
10000000
00000000
00000000
,
00200000
00000000
01300000
10010000
,
00000000
00010000
00000000
00000000
10000000
00000000
01000000
00000000
,
10000000
01000000
00000000
00000000
,
00100000
00010000
00100000
00010000
,
00000000
00000000
00001000
00000100
,
00001000
00000100
00000000
00000000
,
00000010
00000001
00000010
00000001
,
00000000
00000000
00000001
00000100
,
00000001
00000100
00000000
00000000
,
00000010
00001000
00000010
00001000
,
00000000
00000000
00010000
01000000
,
00010000
01000000
00000000
00000000
,
10100000
00000000
00000000
00000000
00000000
20020000
00000000
00000000
,
00000000
30030000
10000000
01000000
,
00010000
00001000
00000000
00000000
,
00001000
00000100
00000001
00001000
,
00000000
00000000
00000110
00000000
,
00000000
00011000
00000000
00000000
,
00001000
00000000
00010000
00000000
01000000
20000000
00000000
00000000
,
00000000
00000000
30100000
00000000
,
00000000
00000000
01010000
00000000
00000000
00010000
00000000
00000000
,
10000000
00000000
00000000
01000000
00000000
00000000
00100000
00000000
,
00000000
00010000
00000000
00000000
10000000
00000000
00000000
00100000
,
00000000
00000000
01000000
00000000
00000000
00010000
00000000
00000000
,
00100000
00001000
00100000
00001000
,
00000000
00000000
00020000
00000000
,
00000000
00030200
00000000
00000000
,
00002300
00000000
00000000
00003020
,
00000000
00000000
00000230
00000000
,
00000000
00000302
00000000
00000000
,
00000013
00000000
00000000
00000100
00000000
00000000
00001000
00000000
,
00000000
00000001
00000000
00000000
00000011
00000000
00000000
00000001
,
00000000
00000000
00000100
00000000
00000000
00001000
00000000
00000000
,
00001100
00000000
00000000
00001000
00000000
00000000
00000100
00000000
,
00000000
00000001
00000000
00000000
00002002
00000000
00000000
00000000
,
00000000
00000000
00000000
00000000
,
00003003
00000000
00000000
00000000
,
00000000
00000000
00000000
00000000
,
00000000
00000000
00001000
00001000
,
00001000
00000000
00001000
00000000
00001000
00000000
00000000
00000010
,
00000000
00000000
00000100
00000000
00000000
00001000
00000000
00000000
,
00010000
00000000
00000000
00100000
00000000
00000000
10000000
00000000
,
00000000
01000000
00000000
00000000
00010000
00000000
00000000
00001000
,
00000000
00000000
00010000
00000000
00000000
01000000
00000000
00000000
,
00100000
00000000
00000000
00010000
00000000
00000000
00001000
00000000
,
00000000
00000100
00000000
00000000
00000010
00000000
00000000
00001000
,
00000000
00000000
00000000
00000000
00000000
00001000
00000000
00000000
,
00000000
00000000
00000000
00000000
,
00001001
00000000
00000000
00000110
,
00000000
00000000
00000001
00000010
,
00000001
00000000
00000010
00000000
00000000
00000010
00000000
00000000
,
00000100
00001000
00000100
00001000
,
00000000
00001000
00000000
00000000
00010000
00000000
00100000
00000000
,
00010000
00000000
00100000
00000000
00000000
00100000
00000000
00000000
,
01000000
10000000
01000000
10000000
,
00000000
10000000
00000000
00000000
10000000
00000000
00100000
00000000
,
10000000
00000000
00100000
00000000
00000000
00100000
00000000
00000000
,
01000000
00010000
01000000
00010000
,
00000000
00010000
00000000
00000000
00100000
00000000
00001000
00000000
,
00100000
00001000
00010000
00001000
,
00020000
00000000
00000000
00032000
,
00000000
00000000
00000000
00000000
00013000
00000000
00000000
00000100
,
00000000
00000000
00001000
00000000
00000000
00000001
00000000
00000000
,
00000001
00000100
00000001
00000100
,
00000001
00000100
00000010
00001000
,
00000010
00001000
00000010
00001000
,
00010000
01000000
00010000
01000000
,
00010000
01000000
00100000
10000000
,
00100000
10000000
00100000
10000000
,
10000000
01000000
10000000
01000000
,
10000000
01000000
00100000
00010000
,
00100000
00010000
00100000
00010000
,
00001000
00000100
00001000
00000100
,
00001000
00000000
00000100
00000000
00000010
00000000
00000000
00000001
,
00000000
00000000
00001000
00000000
00000000
00000010
00000000
00000000
,
00000220
00000000
00000000
00000000
,
00000000
00000000
00000000
00000000
,
00000000
00000330
00000000
00000000
;

//--------------- dance-double - ----------------
#NOTEDATA:;
#STEPSTYPE:dance-double;
#DESCRIPTION:;
#DIFFICULTY:Medium;
#METER:14;
#RADARVALUES:0,0,0,0,0;
#NOTES:
00000000
00000000
00000000
10000000
,
01000000
00010000
00001000
00000100
,
00000001
00000001
00000010
00001000
,
00010000
00100000
10000000
10000000
,
01000000
00010000
00001000
00000100
,
00000001
00000001
00000010
00001000
,
00010000
00100000
10000000
00010000
,
00100000
01000000
00100000
00001000
,
00010000
00000010
00001000
00000010
,
00000100
00000001
00001000
00000001
,
00000010
00000100
00000001
00000100
,
00001000
00000010
00000100
00000001
,
00001000
00000100
00001000
00000100
00001000
00000000
00001020
00000000
,
00000000
00010030
00002000
00000000
,
00103000
00020000
00000000
10030000
,
00100000
01000000
00000000
01020000
,
00000000
00000000
10030000
01000000
,
00100000
00010000
10000000
00000000
,
00100000
00000000
01000000
00010000
01000000
00000000
00020000
00000000
,
00130000
00001000
00200000
00301000
,
00010000
00000020
00001030
00000010
,
00000100
00000101
00000000
00001002
,
00000103
00000010
00001000
00000010
,
00000100
00000000
00000101
00000000
00000000
00001100
00000000
00000000
,
01010000
00000000
00000000
11000000
00000000
00000000
00020000
00000000
,
00000000
00000000
00000000
00000000
,
00000000
00000000
00000000
00000000
00000000
00000000
10030000
01000000
,
00100000
00010000
10000000
00000000
00100000
00000000
02000000
00000000
,
03010000
00100000
00002000
00013000
,
00000010
00000200
00000301
00001000
,
00000001
00000000
00000010
00000100
00000010
00000000
00000001
00000000
,
00000001
00000100
00000000
00000000
00000010
00000000
00000010
00001000
,
00000000
00000000
00000100
00000000
00000100
00010000
00000000
00000000
,
00001000
00001000
00100000
00010000
,
01000000
00010000
00000000
10000000
00100000
01000000
00100000
00000000
,
10000000
00000000
00010000
00100000
00000000
00010000
00000000
00100000
,
01000000
10000000
00000000
01000000
00000000
10000000
00000000
00000000
,
00000000
00000000
10010000
01000000
,
00100000
10100000
01000000
00100000
,
00110000
00100000
00001000
00011000
,
00010000
00000010
00001010
00001000
,
00000010
00000110
00000100
00000001
,
00000011
00000010
00000100
00001010
,
00000010
00000100
00000010
00000000
00001001
00000000
00000001
00000000
,
00000100
00000110
00001000
00000100
,
00010100
00000100
00010000
00011000
,
00001000
01000000
01010000
00010000
,
10000000
00000000
11000000
00000000
01000000
00100000
01000000
00000000
,
10000000
00100000
00000000
01000000
00010000
00000000
10010000
00000000
,
00000000
00011000
00000000
00000000
10010000
00000000
10000000
00000000
,
01000000
00010000
00000100
00000010
,
00001001
00000001
00000100
00001000
,
01000000
00100000
10010000
10000000
,
00100000
00010000
00001000
00000010
,
00001001
00000001
00000010
00001000
,
00100000
01000000
10010000
10000000
,
00100000
00000000
00001000
00000000
00000010
00000100
00000010
00000000
,
00001001
00000001
00000010
00010000
,
00100000
01000000
00100000
00000000
10010000
00000000
10000000
00000000
,
01000000
00000000
00010000
00000000
00000100
00000010
00000100
00000000
,
00002002
00000000
00003003
00000000
00000000
00000001
00000000
00000010
,
00000000
00000100
00000000
00001000
00000001
00000000
00001000
00000100
,
00010000
00000000
00022000
00000000
00033000
00001000
00100000
00000000
,
00010000
00000000
01000000
00010000
10000000
00000000
02020000
00000000
,
03030000
00110000
00022000
00033000
,
00001010
00022000
00033000
00011000
,
00010000
00000000
00001000
00100000
00010000
01000000
00000000
00100000
,
00000000
10000000
00010000
00200000
00000000
00000000
01300000
10000000
,
01000000
10000000
00010000
00000000
00010000
01000000
00000000
01000000
,
00100000
00000000
00100000
10000000
00000000
10000000
00010000
00000000
,
00100000
00000000
01000000
00000000
10000000
00000000
10000000
01000000
,
00000000
01000000
00100000
00000000
00100000
00010000
00000000
00010000
,
01000000
00000000
00100000
10000000
00010000
00100000
00000000
00001000
,
00000000
00010000
00000000
00000010
00002000
00000000
00000000
00000000
,
00000000
00003020
00000000
00000000
,
00000230
00000000
00000000
00000302
,
00000000
00000000
00000023
00000000
,
00000000
00000230
00000000
00000300
,
00000011
00000000
00000000
00001010
00000000
00000000
00110000
00000000
,
00000000
10100000
00000000
00000000
11000000
00000000
00000000
01010000
,
00000000
00000000
00001100
00000000
00000000
00000101
00000000
00000000
,
00000011
00000000
00000000
00001010
00000000
00000000
00110000
00000000
,
00000000
10100000
00000000
00000000
20020000
00000000
00000000
00000000
,
00000000
00000000
00000000
30030000
,
10000000
01000000
00000000
10000000
00000000
01000000
00000000
00100000
,
00000000
00000000
00000000
00010000
00000000
00000000
00000000
00000000
00000000
00100000
00000000
00000000
00010000
00000000
00000000
00000000
00001000
00000000
00000000
00000000
00000100
00000000
00000000
00000000
,
00000010
00000000
00000000
00000000
00000001
00000000
00000000
00000000
00000000
00000000
00000000
00000000
00001000
00000000
00000000
00000001
00000000
00000000
00001000
00000000
00000000
00000001
00000000
00000000
,
00001000
00000001
00001000
00000001
00001000
00000001
00000000
00001001
,
00000000
00000000
00001100
00000000
00000000
00011000
00000000
00000000
,
01010000
00000000
00000000
10010000
00000000
00000000
00110000
00000000
,
00000000
00011000
00000000
00000000
00001010
00000000
00000000
00000010
,
00000000
00000100
00000001
00000000
00001000
00000100
00000010
00000001
,
00001000
00000000
00000010
00000100
00000000
00000010
00001000
00000000
,
00000001
00000000
00000011
00000000
00000000
00000011
00000000
00000000
00001100
00000000
00000000
00001100
00000000
00000000
00110000
00000000
,
00000000
00000000
00110000
00000000
00000000
11000000
00000000
00000000
,
11000000
00000000
00000000
00000000
,
20020000
00000000
30030000
01100000
,
00100000
01000000
00100000
01000000
00010000
00000000
10000000
00000000
,
01000000
00010000
00001000
00000100
,
00001001
00000001
00000010
00001000
,
00010000
00100000
10010000
00010000
,
00100000
00010000
00001000
00000100
,
00000011
00000001
00001000
00000100
,
00010000
01000000
10010000
10000000
,
00010000
01000000
00001000
00000100
,
00000011
00000100
00001000
00010000
,
00100000
00000000
01000000
00000000
10100000
00000000
00010000
10000000
,
00010000
10000000
00010000
00000000
10000000
00100000
10000000
00100000
,
02000000
00020000
00000000
00000000
03030000
00000000
00002000
00000020
,
00000000
00000000
00003030
00000000
00001010
00000000
00000000
00011000
,
00000000
00000000
00110000
00000000
00000000
00011000
00000000
00000000
,
00001000
00000100
00000001
00000010
,
00001000
00010000
01000000
00010000
,
00001000
00000010
00001000
00010000
,
00100000
10000000
01000000
00010000
,
01000000
10000000
00010000
00001000
,
00000010
00000001
00000010
00001000
,
00010000
00100000
10000000
01000000
,
00010000
01000000
10000000
00100000
,
00010000
00001000
00000100
00000001
,
00001000
00000100
00000010
00001000
,
00100000
00000000
10000000
00000000
00010000
00100000
00000000
00010000
,
00000000
00100000
01000000
10000000
00000000
01000000
00000000
10000000
,
00020000
00000000
00000000
00000000
,
00000000
00000000
00000000
00000000
,
00000000
00030000
00000000
00000000
;

//--------------- dance-double - ----------------
#NOTEDATA:;
#STEPSTYPE:dance-double;
#DESCRIPTION:;
#DIFFICULTY:Hard;
#METER:17;
#RADARVALUES:0,0,0,0,0;
#NOTES:
00000000
00000000
00000000
20000000
,
01000000
31000000
00200000
00010000
,
00310000
00002000
00000100
00003100
,
00000020
00000001
00000031
00000002
,
00000100
00000103
00000020
00001000
,
00001030
00020000
01000000
01030000
,
00200000
10000000
10300000
00020000
,
01000000
01030000
00002000
00103000
,
00101000
00020000
00000010
00030010
,
00002000
00003100
00001100
00020000
,
00001000
00030100
00002000
00010000
,
01003000
00000000
00011000
00000000
00010000
00001000
00100000
00000000
,
01000000
10000000
01000000
10000000
01000000
10000000
00020000
00000000
,
00000000
00130000
00002000
00000000
,
00013000
00000010
00002000
00000000
00000000
00000000
00003010
00000000
,
00000100
00000000
00000101
00000000
00000000
00000001
00002000
00000000
,
00000000
00003000
00001100
00010000
,
00001000
00200000
01300000
00000000
,
11000000
00000000
10000000
00010000
10000000
00000000
00200000
00000000
,
01300000
00000000
10000000
01000000
00020000
00000000
10030000
00000000
,
01000000
00100000
00020000
00000000
00130000
00000000
00001000
00010000
,
00000020
00000000
00000130
00000001
00000000
00000100
00000002
00000000
,
00000013
00000000
00000100
00001000
00000020
00000000
00000130
00000000
,
00000001
00000000
00001001
00000000
00000000
00010010
00000000
00000000
,
00100010
00000000
00000000
00101000
00000000
00000000
20020000
00000000
,
00000000
00000000
30030000
00000000
10000000
00100000
00000000
00100000
,
00000000
01000000
00010000
10000000
00000000
10000000
01000000
00010000
,
00001000
00000100
00000001
00000100
00001000
00000100
00000020
00000000
,
00001000
00001030
00000002
00000010
,
00000013
00000200
00001000
00001300
,
00001001
00000000
00000001
00000100
00001000
00000000
00011000
00000000
,
00001000
01000000
00000000
00010000
00100000
00000000
01000000
10000000
,
00010000
01000000
00100000
00000000
10000000
00100000
10000000
00000000
,
00210000
00000000
00301000
00010000
00001000
00000000
00011000
00000000
,
00010000
01000000
00000000
01000000
10000000
00100000
00000000
00100000
,
00010000
00000000
00002000
00003100
00000000
00000010
00000000
00001000
,
00020000
01030000
00000000
00100000
00000000
00010000
00000000
00000000
,
00001000
00010000
00001000
00010000
00000020
00000000
00000100
00000000
,
00000130
00000000
00000002
00000000
00001003
00000010
00000000
00001000
,
00000200
00010000
00010300
00002000
,
00103000
00010000
00000000
00100000
02000000
00000000
10000000
00000000
,
13000000
00000000
00020000
00000000
00130000
10000000
00000000
00100000
,
02000000
10000000
13000000
10100000
,
00010000
01000000
00010000
00000000
00210000
00000000
01000000
00000000
,
01300000
00000000
20000000
00000000
30100000
01000000
00000000
00010000
,
00200000
00001000
00301000
00020000
,
00031000
00000100
00000000
00000100
00000020
00000000
00001000
00000000
,
00001030
00000000
00000012
00000000
00000013
00000100
00000000
00000010
,
00000002
00000000
00000013
00000100
00000010
00000100
00001000
00000010
,
00001000
00000100
00010000
00001000
00200000
00000000
01300000
10000000
,
00010000
01000000
00100000
10000000
01000000
00010000
01000000
00100000
,
00020000
00000000
00031000
00000100
00000010
00000100
00001000
00000010
,
00000100
00000001
00001000
00000100
00020000
00000000
00031000
00100000
,
00010000
01000000
00100000
10000000
00010000
00100000
10000000
00100000
,
02000000
00000000
13000000
00010000
00100000
01000000
00100000
00010000
,
01000000
00001000
00010000
01000000
00200000
00000000
00310000
01000000
,
00100000
10000000
00010000
01000000
00010000
00100000
00001000
00010000
,
00000200
00000000
00000310
00000001
00000100
00000010
00001000
00000100
,
00010000
00001000
00100000
00010000
02000000
00000000
03010000
10000000
,
01000000
10000000
00100000
01000000
10000000
01000000
00010000
00100000
,
00002000
00020000
00000000
00033000
00000000
00011000
00000000
00101000
,
00000000
00010010
00000000
00001000
00000001
00000010
00000100
00000010
,
00000001
00000100
00000020
00000000
00000000
00001030
00000001
00000010
,
00000100
00000000
00001000
00000010
00000000
00010000
00002000
00000000
,
00003000
00011000
00200020
00300030
,
00011000
02000200
03000300
00011000
,
00010000
00000000
00001000
00100000
00010000
01000000
00000000
01010000
,
00000000
11000000
00000000
00010000
10000000
00000000
00010000
00100000
,
01000000
10000000
00200000
00000000
01300000
00010000
00000000
10000000
,
01000000
00000000
00100000
00010000
00000000
00001000
00000100
00000000
,
00000010
00000001
00001000
00000000
00010010
00000000
00000010
00010000
,
00001000
00000000
00101000
00000000
00100000
00001000
00010000
00000000
,
00100010
00000000
00100010
00000000
00100000
00001000
00000000
00011000
,
00000000
00001100
00000000
00000010
00000002
00000000
00000100
00000000
,
00000103
00000020
00001000
00001030
,
00000200
00010000
00010300
00002000
,
00100000
00103000
00020000
01000000
,
01030000
00002000
00010000
01003000
,
01001000
00000000
00000000
00010010
00000000
00000000
00101000
00000000
,
00000000
00010100
00000000
00000000
01000100
00000000
00000000
00011000
,
00000000
00000000
00100010
00000000
00000000
00011000
00000000
00000000
,
01000100
00000000
00000000
00011000
00000000
00000000
00100010
00000000
,
00000000
00011000
00000000
00000000
00200020
00000000
00000000
00000000
,
00000000
00000000
00000000
00300030
,
00100000
00000010
00000000
00100000
00000000
00000010
00000000
00100000
,
00000000
00000000
00000000
00000010
00000000
00000000
00000000
00000000
00000000
00100000
00000000
00000000
00000010
00000000
00000000
00000000
00100000
00000000
00000000
00000000
00000010
00000000
00000000
00000000
,
00100000
00000000
00000000
00000000
00000010
00000000
00000000
00000000
00000000
00000000
00000000
00000000
01000000
00000000
00000000
00000010
00000000
00000000
01000000
00000000
00000000
00000010
00000000
00000000
,
01000000
00000010
01000000
00000010
01000000
00000010
00000000
00011000
,
00000000
00000000
10100000
00000000
00000000
00011000
00000000
00000000
,
00000101
00000000
00000000
00000011
00000000
00000000
00001010
00000000
,
00000000
01010000
00000000
00000000
11000000
00000000
00000000
10000000
,
00000000
00000000
01000000
00000000
00120000
00000000
10030000
00000000
00000000
00100000
01000000
00000000
00001000
00000000
00010000
00000000
,
00010200
00000000
00000000
00000000
00000310
00000100
00001000
00000000
00000010
00000000
00000100
00000000
00000201
00000000
00000000
00001300
,
00000000
00000000
00000001
00000010
00000000
00000100
00000000
00001000
00010000
00100000
00000000
01000000
00000000
10000000
00000000
00000000
,
01000000
00000000
00100000
00000000
00010000
00001000
00000100
00000000
,
00000010
00000000
00000001
00000000
00000100
00000010
00000100
00000010
,
00020000
00000000
00000000
00031000
,
00010000
00001000
00010000
00001000
00200000
00000000
01300000
00000000
,
10000000
01000000
00100000
01000000
00010000
01000000
00100000
00001000
,
00020000
00000000
00030010
00001000
00000010
00000100
00000001
00000100
,
00001000
00000100
00000010
00001000
00000200
00000000
00010300
00001000
,
00010000
01000000
00100000
00010000
10000000
00100000
01000000
00010000
,
00200000
00000000
00301000
00010000
00000010
00001000
00000010
00000001
,
00000010
00001000
00000001
00000010
00000200
00000000
00000310
00000001
,
00001000
00000010
00001000
00000100
00010000
00000010
00001000
00000010
,
00000200
00000000
00001300
00010000
01000000
00100000
00010000
00100000
,
00001000
01000000
00010000
10000000
00200000
00000000
01000000
00000000
,
01300000
00110000
11000000
00110000
,
00100000
00100000
00000000
00000000
00000000
00000000
00000100
00000100
,
00000000
00000000
00000000
00000000
00000011
00000000
00000000
00001100
,
00000000
00000000
00110000
00000000
00000000
11000000
00000000
00000000
,
00010000
00100000
10000000
00100000
01000000
10000000
01000000
00010000
,
01000000
00100000
00001000
00010000
00000010
00001000
00000010
00000100
,
00000001
00001000
00000100
00000001
00000100
00001000
00000010
00000100
,
00001000
00010000
00100000
10000000
01000000
00100000
00010000
00100000
,
00001000
00010000
00100000
10000000
01000000
00010000
00001000
00000100
,
00000010
00000100
00000001
00000010
00001000
00000010
00000100
00001000
,
00000020
00000000
00000130
00000001
00000010
00001000
00000010
00000100
,
00001000
00010000
00100000
01000000
00200000
00000000
01300000
10000000
,
00100000
00010000
01000000
00100000
00010000
00001000
00000100
00000010
,
00002000
00000000
00003001
00000010
00000100
00000010
00000001
00000100
,
00000010
00001000
00000100
00010000
00001000
00000100
00000000
00000010
,
00000000
00001000
00010000
01000000
00000000
00100000
00000000
00020000
,
00002000
00000000
00000000
00000000
,
00000000
00000000
00000000
00000000
,
00000000
00033000
00000000
00000000
;
