#TITLE:BLO§OM;
#SUBTITLE:;
#ARTIST:TAG;
#TITLETRANSLIT:BLOSSOM;
#SUBTITLETRANSLIT:;
#ARTISTTRANSLIT:;
#GENRE:;
#CREDIT:;
#BANNER:banner.png;
#BACKGROUND:background.png;
#LYRICSPATH:;
#CDTITLE:;
#MUSIC:BLOSSOM.ogg;
#OFFSET:0.000000;
#SAMPLESTART:51.645569;
#SAMPLELENGTH:12.151897;
#SELECTABLE:YES;
#BPMS:0.000000=158.000000
;
#STOPS:
;
#BGCHANGES:;
#KEYSOUNDS:;
#ATTACKS:;

//---------------dance-double - ----------------
#NOTES:
     dance-double:
     :
     Challenge:
     13:
     0.563380,0.843846,0.481731,0.285773,0.428659,483.000000,424.000000,59.000000,35.000000,0.000000,0.000000,0.563380,0.843846,0.481731,0.285773,0.428659,483.000000,424.000000,59.000000,35.000000,0.000000,0.000000:
// measure 0
00000000
00000000
00000000
00000000
,  // measure 1
00000000
00000000
00000000
00000000
,  // measure 2
00000000
00000000
00000000
00000000
,  // measure 3
00000000
00000000
00000000
00000000
,  // measure 4
01000000
00000000
00000000
00010000
00010000
00000000
00100000
00001000
,  // measure 5
00010000
00000100
00010000
00000010
,  // measure 6
00000100
00000000
00000000
00000010
00000010
00001000
00000010
00001000
,  // measure 7
00000100
00010000
00001000
01000000
,  // measure 8
00100000
00000000
01000000
00000000
00000000
00010000
00000000
00000000
00100000
00000000
00000000
00001000
00000000
00000000
00011000
00000000
,  // measure 9
00000000
00000000
00010000
00000000
00000000
00000100
00000000
00000000
00001000
00000000
00000000
00000010
00000000
00000000
00000110
00000000
,  // measure 10
00000000
00000000
00000010
00000000
00000000
00001000
00000000
00000000
00000100
00000000
00000000
00010000
00000000
00000000
00011000
00000000
,  // measure 11
00000000
00000000
00001000
00000000
00000000
01000000
00000000
00000000
00010000
00000000
00000000
00100000
00000000
00000000
01100000
00000000
,  // measure 12
01000000
00100000
00001000
00100000
00001000
00010000
00000010
00000100
,  // measure 13
00010010
00000000
00000000
00001100
00000000
00000000
00101000
00000000
00000000
00110000
00000000
00000000
00010000
00000000
01000000
00000000
,  // measure 14
01010000
00000000
00010000
00000000
00100000
00000000
00001000
00010000
,  // measure 15
00000100
00001000
00000010
00001000
,  // measure 16
00000100
00010000
00001000
00100000
00001000
00010000
00000010
00000100
,  // measure 17
00000010
00010000
00000010
00010000
00000010
00010000
00000010
00010000
00000010
00010000
00000010
00010000
00000010
00010000
00000010
00010000
,  // measure 18
00000010
00000000
00000000
00001000
00000000
00000000
00000010
00000000
00000000
00001000
00000000
00000000
00000100
00000000
00010000
00000000
,  // measure 19
00001000
00000000
00000000
01000000
00000000
00000000
00001000
00000000
00000000
01000000
00000000
00000000
00001000
00000000
00010000
00000000
,  // measure 20
00000100
00000000
00000000
00100000
01000000
00000000
00000000
00000000
,  // measure 21
00100000
00000000
00000000
00001000
00000000
00000000
00010000
00000000
,  // measure 22
00000010
00000000
00000000
00000100
00000000
00000000
00000010
00000000
00000000
00000100
00000000
00000000
00000010
00000000
00001000
00000000
,  // measure 23
00000100
00000000
00000000
00010000
00000000
00000000
00000100
00000000
00000000
00010000
00000000
00000000
00000100
00000000
00010000
00000000
,  // measure 24
00001000
00000000
00000000
00100000
00000000
01000000
00100000
00010000
,  // measure 25
00100000
00001000
00010000
00000100
,  // measure 26
00000100
00000000
00001000
00000000
00000010
00000000
00000000
00000100
00000000
00000010
00000000
00000000
00001000
00000000
00000100
00000000
,  // measure 27
00010000
00000000
00001000
00000000
01000000
00000000
00000000
00100000
00000000
01000000
00000000
00000000
00100000
00000000
01000000
00000000
,  // measure 28
00010000
00000000
00100000
00000000
00001000
00000000
00000000
00010000
00000000
00010000
00000000
00000000
00000100
00000000
00001000
00000000
,  // measure 29
00000010
00000000
00001000
00000000
00000100
00000000
00000000
00010000
00000000
00010000
00000000
00000000
00001000
00000000
00010000
00000000
,  // measure 30
00001000
00000000
01000000
00000000
00100000
00000000
00000000
01000000
00000000
00010000
00000000
00000000
00100000
00000000
00010000
00000000
,  // measure 31
01000000
00000000
00001000
00000000
00010000
00000000
00000000
00000100
00000000
00001000
00000000
00000000
00000010
00000000
00000100
00000000
,  // measure 32
00000010
00000000
00001000
00000000
00000100
00000000
00000000
00001000
00000000
00001000
00000000
00000000
00000100
00000000
00010000
00000000
,  // measure 33
00011000
00000000
00000000
00110000
00000000
00000000
00001010
00000000
,  // measure 34
00000100
00000000
00000000
00000010
00000000
00000000
00010000
00000000
00000000
00001000
00000000
00000000
00100000
00000000
01000000
00000000
,  // measure 35
00100000
00000000
00000000
00001000
00000000
00000000
00010000
00000000
00000000
00000010
00000000
00000000
00000100
00000000
00000010
00000000
,  // measure 36
00000100
00000000
00000000
00000010
00000000
00000000
00010000
00000000
00000000
00001000
00000000
00000000
00100000
00000000
00001000
00000000
,  // measure 37
00101000
00010010
00010100
00001010
,  // measure 38
00001000
00000000
00000000
00000010
00000000
00000000
00010000
00000000
00000000
00001000
00000000
00000000
00100000
00000000
00001000
00000000
,  // measure 39
00010000
00000000
00000000
00000100
00000000
00000000
00010000
00000000
00000000
00001000
00000000
00000000
01000000
00000000
00100000
00000000
,  // measure 40
01000000
00000000
00000000
00001000
00000000
00000000
00010000
00000000
00000000
00000100
00000000
00000000
00010000
00000000
00000100
00000000
,  // measure 41
00001100
00001100
00110000
01010000
,  // measure 42
02000000
03000000
00020000
00030000
,  // measure 43
00200000
00300000
00002000
00003000
,  // measure 44
00020000
00030000
00000020
00000030
,  // measure 45
00000200
00000000
00000300
00000000
00000010
00000100
00000010
00001000
,  // measure 46
00000020
00000030
00002000
00003000
,  // measure 47
00000200
00000300
00020000
00030000
,  // measure 48
00002000
00003000
02000000
03000000
,  // measure 49
00002000
00003000
00020000
00030000
,  // measure 50
00002000
00003000
00020000
00030000
,  // measure 51
00002000
00003000
00020000
00030000
,  // measure 52
00001000
00100000
00001000
00010000
00000010
00001000
00000100
00010000
,  // measure 53
00001000
01000000
00001000
01000000
00001000
01000000
00001000
01000000
00001000
00000000
00000000
00000000
00000000
00000000
00000000
00000000
,  // measure 54
00201000
00000000
00000000
00010000
00000000
00000000
00301000
00000000
00000000
00000000
00010000
00000000
00000100
00000000
00001000
00000000
,  // measure 55
00001020
00000000
00000000
00000100
00000000
00000000
00001030
00000000
00000000
00000000
00000010
00000000
00001000
00000000
00000100
00000000
,  // measure 56
00010200
00000000
00000000
00001000
00000000
00000000
00010300
00000000
00002000
00000000
00000000
00100000
00000000
00000000
00013000
00000000
,  // measure 57
00000200
00000000
00000000
00010000
00000000
00000000
00001300
00000000
00000020
00000000
00000000
00001000
00000000
00000000
00000130
00000000
,  // measure 58
00001020
00000000
00000000
00001000
00000000
00000000
00010030
00000000
00000000
00000000
00000100
00000000
00010000
00000000
00001000
00000000
,  // measure 59
02001000
00000000
00000000
00010000
00000000
00000000
03001000
00000000
00020000
00000000
00000000
01000000
00000000
00000000
00031000
00000000
,  // measure 60
02000000
00000000
00000000
00100000
00000000
00000000
03010000
00000000
00200000
00000000
00000000
01000000
00000000
00000000
00301000
00000000
,  // measure 61
00020000
00000000
00000000
00030010
00000000
00000000
00000200
00000000
00000020
00000000
00000000
00000000
00000330
00000000
00000000
00000000
,  // measure 62
00001010
00000000
00000000
00001100
00000000
00000000
00010100
00000000
00000000
00000000
00000100
00000000
00010000
00000000
00001000
00000000
,  // measure 63
00011000
00000000
00000000
00101000
00000000
00000000
00110000
00000000
00000000
00000000
00100000
00000000
00010000
00000000
01000000
00000000
,  // measure 64
01100000
00000000
00000000
01010000
00000000
00000000
00100000
00000000
00101000
00000000
00000000
00011000
00000000
00000000
00000100
00000000
,  // measure 65
00001100
00000000
00000000
00000110
00000000
00000000
00001000
00000000
00000010
00000000
00010000
00000000
00001000
00000000
01000000
00000000
,  // measure 66
01100000
00000000
00000000
01010000
00000000
00000000
00110000
00000000
00000000
00000000
00100000
00000000
00001000
00000000
00010000
00000000
,  // measure 67
00010100
00000000
00000000
00001100
00000000
00000000
00010000
00000000
00010010
00000000
00000000
00001010
00000000
00000000
00000110
00000000
,  // measure 68
00001010
00000000
00000000
00001100
00000000
00000000
00010100
00000000
00011000
00000000
00000000
00101000
00000000
00000000
00110000
00000000
,  // measure 69
01100000
00000000
00000000
00110000
00000000
00000000
01100000
00000000
00220000
00000000
00000000
00000000
00330000
00000000
00000000
00000000
,  // measure 70
00000000
00000000
01000000
00000000
00000000
00100000
00000000
00000000
00001000
00000000
00000000
00010000
00000000
00000000
00010000
00001000
,  // measure 71
00000000
00000000
00010000
00000000
00000000
00000100
00000000
00000000
00001000
00000000
00000000
00000010
00000000
00000000
00000010
00000100
,  // measure 72
00000000
00000000
00000010
00000000
00000000
00010000
00000000
00000000
00001000
00000000
00000000
00100000
00000000
00000000
00100000
01000000
,  // measure 73
00000000
00000000
00100000
00000000
00000000
00001000
00000000
00000000
00010000
00000000
00000000
00000010
00000000
00000000
00000010
00000000
,  // measure 74
00000100
00000000
00000010
00000000
00010000
00000000
00001000
00000000
01000000
00001000
01000000
00001000
00010000
00001000
00010000
00001000
,  // measure 75
00100000
00000000
00000000
00110000
00000000
00000000
00001010
00000000
00000000
00110000
00000000
00000000
00001010
00000000
00000000
00000000
,  // measure 76
00000100
00000000
00000010
00000000
00000000
00001000
00000000
00000000
00000100
00000000
00000000
00010000
00000000
00000000
00010000
00001000
,  // measure 77
00000000
00000000
00001000
00000000
00000000
00100000
00000000
00000000
01000000
00000000
00000000
00100000
00000000
00000000
00001000
00000000
,  // measure 78
00010000
00000100
00001000
00000010
00001000
00000100
00010000
00000100
,  // measure 79
00010000
00001000
00010000
00001000
00010000
00001000
00010000
00001000
00010000
00000000
00000000
00000000
00000000
00000000
00000000
00000000
;
