#VERSION:0.83;
#TITLE:Ascent;
#SUBTITLE:;
#ARTIST:Teminite;
#TITLETRANSLIT:;
#SUBTITLETRANSLIT:;
#ARTISTTRANSLIT:;
#GENRE:;
#CREDIT:;
#MUSIC:Ascent.ogg;
#BANNER:Tower of Eight Panels.png;
#BACKGROUND:Tower of Eight Panels-bg.png;
#CDTITLE:;
#SAMPLESTART:38.770;
#SAMPLELENGTH:17.432;
#SELECTABLE:YES;
#OFFSET:0.488;
#BPMS:0.000=110.000;
#STOPS:;
#BGCHANGES:;
#FGCHANGES:;

//--------------- dance-double - Brother Mojo ----------------
#CHARTNAME:;
#NOTEDATA:;
#STEPSTYPE:dance-double;
#DESCRIPTION:;
#CREDIT:Brother Mojo;
#DIFFICULTY:Hard;
#METER:15;
#RADARVALUES:0,0,0,0,0;
#NOTES:
00000000
00000000
00000000
00000000
,
00000000
00000000
00000000
00000000
,
00000000
00000000
00000000
00000000
,
00000000
00000000
00000000
00000000
,
00000000
00000000
00000000
00000000
,
00000000
00000000
00000000
00000000
,
00010000
00000000
00001000
01000000
00010000
00000000
10000000
01000000
00100000
00000000
00010000
00000000
01000000
00001000
00010000
00000000
,
00000100
00000000
00001000
00000001
00000100
00000000
00000010
00001000
00000001
00000000
00000010
00000000
00000100
00001000
00000001
00000000
,
00000201
00000000
00000000
00000000
00000320
00000000
00000000
00001030
00000100
00000000
00010000
00000000
00002000
00000000
00000000
00000000
,
00003000
00000000
00000000
00000000
00200000
00000000
00000000
00310000
01000000
00000000
00100000
00000000
10000000
01000000
00100000
00010000
,
20000000
00000000
00000000
00000000
30100000
01000000
00010000
10000000
00000000
01000000
00100000
00010000
02000000
00000000
03001000
00010000
,
00000200
00000000
00000000
00000000
00001300
00000010
00000100
00000001
00000000
00000010
00000100
00001000
00000020
00000000
00010030
00001000
,
02000000
00000000
00000000
00000000
03010000
00100000
01000000
10000000
00000000
00010000
01000000
00001000
00020000
00000000
00030010
00001000
,
00000002
00000000
00000000
00000000
00000103
00000001
00000100
00000010
00001000
00000010
00010000
00001000
01000000
00010000
01000000
00100000
,
20000000
00000000
00000000
00000000
31000000
00100000
00010000
01000000
00000000
00001000
00010000
00000010
00001000
00000000
00000100
00000010
,
00000002
00000000
00000000
00000000
00000103
00000010
00001000
00000001
00000000
00000010
00000100
00001000
00000010
00000000
00010000
00001000
,
02000000
00000000
00000000
00000000
03010000
00100000
01000000
10000000
00000000
00010000
01000000
00001000
00010000
00000000
00000010
00001000
,
00000002
00000000
00000000
00000000
00000013
00000100
00001000
00000010
00010000
00000000
00001000
00100000
00010000
01000000
00100000
10000000
,
00010000
00000000
00200000
00000000
01300000
10000000
00010000
01000000
00001000
00010000
00000010
00001000
00000002
00000000
00000013
00000100
,
00002000
00000000
00003001
00000000
00000100
00000001
00001000
00000100
00010000
00001000
00100000
00010000
20000000
00000000
30100000
01000000
,
00010000
00000000
10000000
00000000
01000000
00100000
00010000
01000000
00001000
00010000
00000010
00001000
00000200
00000000
00000310
00000001
,
00001000
00000000
00000010
00000000
00000100
00000010
00001000
00000100
00010000
00001000
00100000
00010000
01000000
00100000
00010000
00001000
,
01000000
00000000
00020000
00000000
10030000
01000000
00100000
00010000
01000000
00001000
00010000
00000010
00002000
00000000
00003100
00000010
,
00000001
00000000
00000100
00000000
00000010
00001000
00000100
00010000
00001000
01000000
00010000
00100000
02000000
00000000
13000000
00010000
,
01000000
00000000
00100000
00000000
10000000
00010000
00100000
00001000
00010000
00000010
00001000
00000001
00000020
00000000
00000130
00001000
,
00000001
00000000
00000010
00000000
00000100
00001000
00000001
00000100
00000010
00000100
00001000
00010000
00100000
01000000
00100000
10000000
,
00020000
00000000
00000000
00000000
10030000
00100000
01000000
00010000
00100000
01000000
00100000
00001000
00020000
00000000
00030100
00000000
,
00000010
00000001
00000100
00000010
00001000
00000100
00020000
00000000
00030200
00000000
00002300
00000000
00003200
00000000
00010300
00001000
,
02000000
00100000
03020000
10000000
02030000
00001000
03000200
00010000
,
00001300
00000010
00001000
00000100
00001000
00000010
00010000
00001000
01000000
00010000
00100000
00010000
01000000
00010000
00100000
00001000
,
00020000
00000000
00000000
00000000
00030010
00001000
00000100
00010000
00001000
00100000
00010000
01000000
00002000
00000000
00013000
00000000
,
01000000
10000000
01000000
00100000
00010000
01000000
00002000
00000000
00023000
00000000
00230000
00000000
00320000
00000000
00031000
00010000
,
00000200
00001000
00000320
00000001
00000230
00001000
00020300
00000010
,
00031000
00100000
00010000
01000000
00001000
00100000
00001000
00010000
00000010
00001000
00000100
00010000
00000100
00001000
00000010
00010000
,
00001000
00100000
00010000
10000000
01000000
00010000
01000000
00100000
00010000
01000000
00100000
00010000
00001000
00010000
00000100
00001000
,
00000002
00000000
00000103
00000010
00001000
00000100
00000010
00001000
00010000
00000100
00001000
00000010
00000200
00000000
00001300
00010000
,
02000000
00000000
13000000
00010000
01000000
00100000
00010000
00001000
00010000
00000010
00001000
00000100
00000020
00000000
00000031
00001000
,
00000010
00000100
00001000
00010000
00100000
01000000
00010000
00200000
00000000
01300000
10000000
01000000
00010000
00001000
00010000
00000100
,
00002000
00000000
00003001
00000100
00000010
00001000
00000010
00000100
00001000
00010000
00001000
00100000
00020000
00000000
10030000
00100000
,
00000000
01000000
00010000
00100000
00001000
00010000
00001000
00000020
00000000
00000130
00001000
00000010
00010000
00001000
00010000
00100000
,
20000000
00000000
00000000
31000000
00100000
00010000
01000000
00010000
00100000
01000000
00010000
00001000
00000100
00000010
00001000
00000200
,
00000000
00000310
00000001
00000100
00000010
00001000
00000100
00020000
00000000
00031000
00100000
01000000
00010000
00001000
00100000
00010000
,
02000000
00000000
00000000
00000000
03100000
10000000
00010000
00100000
00000000
00010000
01000000
00001000
00020000
00000000
00030100
00001000
,
00000020
00000000
00000000
00000000
00000130
00000001
00001000
00000100
00000000
00001000
00000010
00010000
00002000
00000000
01003000
00002000
,
00010000
00000000
00010000
00000000
00010000
00000000
00010000
00003000
,
00012000
00013000
00000000
00000200
,
00001300
00000000
00000020
00000000
00000130
00000001
00001000
00000100
00010000
00001000
00100000
00010000
20000000
00000000
30100000
01000000
,
00020000
00000000
10030000
00000000
01000000
10000000
00010000
01000000
00001000
00010000
00000010
00001000
00000002
00000000
00000013
00000100
,
00001000
00000000
00000001
00000000
00000100
00000010
00001000
00000100
00010000
00001000
00100000
00010000
02000000
00000000
03100000
10000000
,
00010000
00000000
00100000
00000000
01000000
00100000
00010000
01000000
00001000
00010000
00000010
00001000
00000100
00000010
00001000
00010000
,
00000100
00000000
00002000
00000000
00003001
00000100
00000010
00001000
00000100
00010000
00001000
00100000
00020000
00000000
01030000
00100000
,
10000000
00000000
01000000
00000000
00100000
00010000
01000000
00001000
00010000
00000100
00001000
00000010
00000200
00000000
00000301
00001000
,
00000100
00000000
00000010
00000000
00000001
00001000
00000010
00010000
00001000
00100000
00010000
10000000
00200000
00000000
01300000
00010000
,
10000000
00000000
00100000
00000000
01000000
00010000
10000000
01000000
00100000
01000000
00010000
00001000
00000010
00000100
00000010
00000001
,
00002000
00000000
00000000
00000000
00003001
00000010
00000001
00000010
00000100
00001000
00000100
00001000
00000010
00010000
00000010
00010000
,
00001000
00000000
00000000
00000000
00100000
00010000
00100000
00010000
10000000
00100000
10000000
00100000
01000000
00010000
01000000
00010000
,
00100000
00000000
00000000
00000000
00001000
00010000
00001000
00010000
00000010
00001000
00000010
00001000
00000001
00000010
00000001
00000010
,
00000100
00000000
00000000
00000000
00001000
00000010
00001000
00000010
00010000
00001000
00010000
00000000
00001000
00100000
00010000
01000000
,
00100000
00000000
00000000
00000000
;

//--------------- dance-double - Brother Mojo ----------------
#CHARTNAME:Running Low;
#NOTEDATA:;
#STEPSTYPE:dance-double;
#DESCRIPTION:;
#DIFFICULTY:Challenge;
#CREDIT:Brother Mojo;
#METER:18;
#RADARVALUES:0,0,0,0,0;
#NOTES:
00000000
00000000
00000000
00000000
,
00000000
00000000
00000000
00000000
,
00000000
00000000
00000000
00000000
,
00000000
00000000
00000000
00000000
,
00000000
00000000
00000000
00000000
,
00000000
00000000
00000000
00000000
,
00010000
00000000
00001000
00000000
01000000
00000000
00100000
00010000
00000020
00000000
00001000
00000000
02000000
00000000
00000000
00000000
,
03000030
00000000
00000000
00000000
00200000
00000000
00000000
00301000
02000000
00000000
00010000
00000000
00000200
00000000
00000000
00000000
,
03000300
00000000
00000000
00000000
00000020
00000000
00000000
00001030
00000002
00000000
00000100
00000000
00020000
00000000
00000000
00000000
,
00030003
00000000
00000000
00000000
00200000
00000000
00000000
00301000
00020000
00000000
00000010
00000000
00030002
00000000
00000013
00001000
,
00200000
00000000
00000000
00000000
00300100
00010000
00010M00
10000000
00000000
00010000
M0010000
00000010
00200000
00000000
00301000
00M01000
,
00000020
00000000
00000000
00000000
01000030
00001000
0M001000
00000001
00000000
00001000
0000100M
00100000
00000020
00000000
00010030
000100M0
,
02000000
00000000
00000000
00000000
03000100
00010000
00010M00
00100000
00000000
00001000
00M01000
00000010
02000000
00000000
03100000
0M100000
,
00002000
00000000
00000000
00000000
10003000
00010000
M0010000
00001000
01000000
00001000
0M001000
00000100
00010000
00000010
000M0010
00000001
,
00000200
00000000
00000000
00000000
00000310
00010000
000100M0
10000000
00000000
00010000
M0010000
00000100
02000000
00000000
03001000
0M001000
,
00000200
00000000
00000000
00000000
00100300
00001000
00M01000
00000001
00000000
00001000
0000100M
01000000
00000200
00000000
00010300
00010M00
,
00200000
00000000
00000000
00000000
00300010
00010000
000100M0
00100000
00000000
00001000
00M01000
00000100
02000000
00000000
03010000
0M010000
,
00000020
00000000
00000000
00000000
00100030
00001000
00M01000
00000100
00010000
00000000
00000000
00000000
00000010
00010000
000100M0
01000000
,
00002000
00000000
00100000
00000000
00023000
00000000
00000010
00030100
00200000
00000000
00000001
00000000
00002000
00000000
00000000
00000000
,
00303000
00000000
00000000
00000000
20000000
00000000
00000000
00001000
30020000
00000000
01000000
00000000
00200000
00000000
00000000
00000000
,
00330000
00000000
00000000
00000000
00000020
00000000
00000000
00001000
02000030
00000000
00010000
00000000
00000200
00000000
00000000
00000000
,
03000300
00000000
00000000
00000000
00200000
00000000
00000000
00000010
00300200
00000000
01000000
00000000
00020300
00000000
00000001
00031000
,
00000000
00000000
02000000
00000000
00000100
00000000
03000020
00001000
00200030
00000000
00010000
00000000
00000200
00000000
00000000
00000000
,
00300300
00000000
00000000
00000000
20000000
00000000
00000000
00010000
30000200
00000000
01000000
00000000
00200000
00000000
00000000
00000000
,
00300300
00000000
00000000
00000000
00000002
00000000
00000000
00001000
02000003
00000000
00000100
00000000
00000020
00000000
00000000
00000000
,
03000030
00000000
00000000
00000000
00200000
00000000
00000000
00001000
00300002
00000000
00000010
00000000
00020003
00000000
00000010
00030100
,
00000000
00000000
00000000
00000000
10000000
00010000
00001000
00000001
00000000
00000010
00000100
00100000
02000000
00000000
00000000
00000000
,
13000000
00100000
00001000
00010000
00000100
00000001
00001000
00000000
00000001
00000000
00001000
00000000
00000001
00000000
00000010
00001000
,
00020000
00000000
00000000
00000020
00000000
00000000
02000000
00000000
00000000
00000002
03030000
00000000
,
00000133
00001000
01000000
00000100
00010000
01000000
00010000
00000100
00000010
00001000
00100000
00000010
00010000
00100000
00010000
00000010
,
00000200
00000000
00000000
00000000
00000301
00001000
00010000
10000000
00000000
00100000
01000000
00000010
00000200
00000000
00000000
00000000
,
00000301
00000010
00010000
00001000
01000000
10000000
00010000
00000000
10000000
00000000
00200000
00000000
00320000
00000000
00130000
01000000
,
00002000
00000000
00000000
00200000
00000000
00000000
00000200
00000000
00000000
20000000
00003300
00000000
,
31300000
00010000
00000100
01000000
00001000
00000100
00001000
01000000
00100000
00010000
00000010
00100000
00001000
00000010
00001000
00100000
,
00000100
00010000
00000010
00000010
00000000
01000000
00100000
00010000
00000010
00001000
00000100
00200000
00000000
00301000
00010000
02000000
,
00000000
00000000
00000000
00000000
13000000
00100000
00010000
00001000
01000000
00000000
00010000
00000000
00100000
00000000
01000000
00000000
00010000
00000000
00001000
00000000
00000100
00000000
00000020
00000000
00000000
00000000
00000000
00000000
10000030
00000000
00010000
00000000
,
00000200
00000000
00000301
00001000
02000000
00000000
03100000
00001000
00000100
00000010
00010000
00000000
02000000
00000000
03001000
00000100
,
00010000
00100000
01000000
10000000
00000000
01000000
00000100
00000002
00000000
00001003
00100000
00000010
00010000
10000000
01000000
00002000
,
00000000
00000000
00000000
00000000
00000000
00000000
00003000
00000000
00000000
00000000
00000000
00000000
00100000
00000000
00000000
01000000
00000000
00000000
00010000
00000000
00000000
00001000
00000000
00000000
00000010
00000000
00000000
00000000
00000100
00000000
00000000
00000000
00010000
00000000
00000000
00000000
00100000
00000000
00000000
00000000
00000000
00000000
01000000
00000000
00000000
00000000
00000000
00000000
00001000
00000000
00000000
00000000
00000000
00000000
00000100
00000000
00000000
00000000
00000000
00000000
00000010
00000000
00000000
00000000
00000000
00000000
00020000
00000000
00000000
00000000
00000000
00000000
00000000
00000000
00000000
00000000
00000000
00000000
00000000
00000000
00000000
00000000
00000000
00000000
01030000
00000000
00000000
00000000
00000000
00000000
10000000
00000000
00000000
00000000
00000000
00000000
,
00000000
00000000
00010000
01000000
00100000
00010000
00001000
00000100
00000010
00000000
00001000
00000000
00000001
00000000
00000020
00000000
00000000
00000000
00010030
00000000
10000000
00000000
00200000
00000000
00000000
00000000
00301000
00000000
00000001
00000000
00020000
00000000
,
00000000
00000000
00030000
00000100
00000010
00001000
01000000
00100000
00001000
00000010
00010000
00000100
00000001
00001000
00010000
00100000
,
00000000
01000000
00000010
00000100
00000000
00000001
00001000
01000000
00000000
10000000
00100000
00010000
00000100
01000000
00001000
00000010
,
00000200
00000000
00000000
00000000
01000300
00001000
0M001000
00000001
00000000
00001000
0000100M
00100000
00000020
00000000
00010030
000100M0
,
02000000
00000000
00000000
00000000
03000100
00010000
00010M00
10000000
00000000
00010000
M0010000
00000010
00200000
00000000
00301000
00M01000
,
00000202
00000000
00000000
00000000
,
20200000
00000000
30300303
MMMMMMMM
,
00020000
00000000
00000010
00000000
00032000
00000000
00100000
01003000
00000020
00000000
10000000
00000000
00020000
00000000
00000000
00000000
,
00030030
00000000
00000000
00000000
00000002
00000000
00000000
00010000
00002003
00000000
00000100
00000000
00000020
00000000
00000000
00000000
,
00003030
00000000
00000000
00000000
00200000
00000000
00000000
00010000
00300200
00000000
00001000
00000000
02000000
00000000
00000000
00000000
,
03000300
00000000
00000000
00000000
00000020
00000000
00000000
00100000
02000030
00000000
00000100
00000000
03002000
00000000
10000000
00013000
,
00000000
00000000
00000200
00000000
01000000
00000000
00200300
00010000
00300020
00000000
00001000
00000000
02000000
00000000
00000000
00000000
,
03000030
00000000
00000000
00000000
00000002
00000000
00000000
00001000
02000003
00000000
00000100
00000000
00000020
00000000
00000000
00000000
,
03000030
00000000
00000000
00000000
20000000
00000000
00000000
00010000
30000200
00000000
01000000
00000000
00200000
00000000
00000000
00000000
,
00300300
00000000
00000000
00000000
00000020
00000000
00000000
00010000
20000030
00000000
00100000
00000000
30002000
00000000
00100000
01003000
,
00000000
00000000
00000000
00000000
00100000
00010000
00001000
00000010
00000000
00010000
00001000
00000100
00000000
00010000
00001000
00000010
,
00000000
00000000
00000000
00000000
00000010
00001000
00010000
00100000
00000000
00001000
00010000
01000000
00000000
00001000
00010000
00100000
,
00000000
00000000
00000000
00000000
01000000
00001000
00010000
01000000
00000000
00001000
00010000
00100000
00000000
00001000
00010000
01000000
,
00000000
00000000
00000000
00000000
01000000
00010000
00001000
00000100
00000001
00000000
00000010
00000000
00001000
02000000
00000000
20000000
,
33000000
00000000
00000000
00000000
;
