#VERSION:0.83;
#TITLE:Artillery;
#SUBTITLE:;
#ARTIST:Infected Mushroom;
#TITLETRANSLIT:;
#SUBTITLETRANSLIT:;
#ARTISTTRANSLIT:;
#GENRE:;
#ORIGIN:;
#CREDIT:;
#BANNER:artillery.png;
#BACKGROUND:artillery-bg.png;
#PREVIEWVID:;
#JACKET:Artillery-jacket.png;
#CDIMAGE:;
#DISCIMAGE:;
#LYRICSPATH:;
#CDTITLE:;
#MUSIC:artillery.ogg;
#OFFSET:0.000000;
#SAMPLESTART:61.759998;
#SAMPLELENGTH:15.000000;
#SELECTABLE:YES;
#BPMS:0.000=100.000;
#STOPS:;
#DELAYS:;
#WARPS:;
#TIMESIGNATURES:0.000=4=4;
#TICKCOUNTS:0.000=4;
#COMBOS:0.000=1;
#SPEEDS:0.000=0.200=0.000=0,
0.250=0.350=7.750=0,
7.000=1.500=0.250=0,
7.250=1.000=0.750=0,
11.000=1.500=0.250=0,
11.250=1.000=0.750=0,
15.000=0.250=5.000=0,
20.000=0.400=3.000=0,
23.000=1.250=0.500=0,
23.500=1.000=0.500=0,
28.500=0.750=0.250=0,
28.750=1.000=0.500=0,
31.500=0.750=0.250=0,
31.750=1.000=0.500=0,
35.000=0.800=1.000=0,
36.000=1.000=0.250=0,
40.000=1.500=0.250=0,
40.250=1.000=0.250=0,
54.000=0.250=0.500=0,
54.500=1.000=1.000=0,
58.750=0.750=0.250=0,
59.000=1.000=0.500=0,
63.000=0.750=0.250=0,
63.250=1.000=0.500=0,
70.750=0.400=0.500=0,
71.250=1.000=0.750=0,
84.000=0.600=4.000=0,
88.000=0.400=12.000=0,
100.000=0.050=0.500=0,
100.500=1.000=3.000=0,
104.500=0.600=0.500=0,
105.000=1.000=0.500=0,
106.500=0.600=0.500=0,
107.000=1.000=0.500=0,
108.500=0.600=0.500=0,
109.000=1.000=0.500=0,
110.500=0.600=0.500=0,
111.000=1.000=0.500=0,
112.500=0.600=0.500=0,
113.000=1.000=0.500=0,
114.500=0.600=0.500=0,
115.000=1.000=0.500=0,
116.500=0.600=0.500=0,
117.000=1.000=0.500=0,
117.500=0.400=1.500=0,
119.000=1.000=1.000=0,
121.000=1.300=0.250=0,
121.250=1.000=0.250=0,
123.000=1.300=0.250=0,
123.250=1.000=0.250=0,
125.000=1.300=0.250=0,
125.250=1.000=0.250=0,
127.000=1.300=0.250=0,
127.250=1.000=0.250=0,
129.000=1.300=0.250=0,
129.250=1.000=0.250=0,
131.000=1.300=0.250=0,
131.250=1.000=0.250=0,
133.000=0.400=2.000=0,
135.000=0.600=1.000=0,
148.000=1.000=3.000=0,
151.000=0.600=1.000=0,
164.000=1.000=4.000=0,
168.000=0.200=3.000=0;
#SCROLLS:0.000=0.000,
1.000=1.000,
2.000=0.000,
3.000=1.000,
4.000=0.000,
5.000=1.000,
6.000=0.000,
7.000=1.000,
15.000=2.000,
15.125=0.000,
15.250=2.000,
15.375=0.000,
15.500=2.000,
15.625=0.000,
15.750=2.000,
15.875=0.000,
16.000=1.000;
#FAKES:;
#LABELS:0.000=Song Start;
#BGCHANGES:;
#KEYSOUNDS:;
#ATTACKS:
;

//---------------dance-double - ----------------
#NOTEDATA:;
#CHARTNAME:;
#STEPSTYPE:dance-double;
#DESCRIPTION:;
#CHARTSTYLE:;
#DIFFICULTY:Challenge;
#METER:14;
#RADARVALUES:0.594915,0.660105,0.364970,0.336896,0.697187,445.000000,406.000000,39.000000,36.000000,0.000000,0.000000,0.000000,0.000000,0.000000,0.594915,0.660105,0.364970,0.336896,0.697187,445.000000,406.000000,39.000000,36.000000,0.000000,0.000000,0.000000,0.000000,0.000000;
#CREDIT:NewbStepper;
#NOTES:
// measure 0
00000000
00000000
00000000
00000000
,  // measure 1
00000000
00000000
00000000
00000000
,  // measure 2
10100000
00000000
10100000
00000000
10010000
00000000
00010000
01000000
00000000
00000100
00001000
00000000
00001001
00000000
00000000
00000000
,  // measure 3
00000011
00000000
00000011
00000000
00001001
00000000
00001000
00000100
00000000
01000000
00010000
00000000
10000000
01000000
00010000
00000100
,  // measure 4
00000020
00000000
00000000
00000000
,  // measure 5
00000200
00000000
00000000
00000330
,  // measure 6
00001001
00000000
00000001
00000100
00001000
00010000
00000100
00001000
00000010
00010000
00100000
10000000
01000000
00100000
00001000
00010000
,  // measure 7
00000000
00000010
00100010
00000000
00000000
00100000
00001000
00010000
00100000
10000000
01000000
00010000
00000100
00000000
01000100
00000000
,  // measure 8
00000000
00000000
01000000
00000000
00010000
00000000
00100000
00000000
01000000
00000000
10000000
00000000
00100000
00000000
00010000
00000000
00001000
00000000
00000010
00000000
00000001
00000000
00000100
00000010
00002000
00000000
00003002
00000000
00000203
00000000
00002300
00000000
,  // measure 9
00003000
00000000
00010000
00000000
00001000
00000000
00100000
00000000
00010000
00000000
10000000
00000000
00100000
00000000
00010000
00000000
00001000
00000000
01000000
00000000
00010000
00000000
00100000
00000000
00002000
00000000
20003000
00000000
32000000
00000000
03020000
00030000
,  // measure 10
00011000
00000000
00001000
00010000
00100000
00010000
00001000
00000010
00000001
00010000
00001000
00000100
00000001
00010000
00001000
00000010
,  // measure 11
00000001
00000001
00001000
00000100
00000010
00001000
00010000
00100000
10000000
00001000
00010000
01000000
10000000
00001000
00010000
00000000
,  // measure 12
00100010
00000000
00000010
00001000
00000100
00000000
00100000
00010000
01000000
00000000
00100000
00010000
00001000
00000010
00001000
00010000
,  // measure 13
00100000
10000000
01000000
00010000
00001000
00000100
00000001
00000000
00001001
00000000
00000000
00000000
00000000
00000000
00000000
00000000
,  // measure 14
00010001
00000000
00010000
00001000
00000100
00000000
00000010
00000000
00001000
00000000
00000001
00000010
00000000
00000000
00001000
00010000
,  // measure 15
00100000
10000000
00010000
00100000
00001000
00010000
00100000
10000000
00001000
00010000
01000000
10000000
00010000
00000000
00000000
10000000
,  // measure 16
01000000
00010000
00000100
00000010
00000001
00000000
00001000
00000001
00000000
00010000
00001000
00000000
10000000
00010000
10000000
01000000
,  // measure 17
00010000
00001000
01000000
00100000
00010000
00001000
00100000
01000000
00010000
00001000
01000000
00100000
00000000
00000000
00000000
00000000
,  // measure 18
10001000
00000000
00001000
00010000
00100000
00000000
10000000
01000000
00010000
00000000
00001000
00100000
00010000
00100000
00001000
00000000
,  // measure 19
00010000
00001000
00000010
00000001
00010000
00001000
00000100
00000001
00010000
00001000
00000010
00000001
00000100
00000000
00000110
00000000
,  // measure 20
00000001
00000100
00001000
00010000
01000000
00000000
01100000
00000000
10000000
01000000
00010000
00001000
00000100
00000000
00000110
00000000
,  // measure 21
00000001
00000100
00000101
00000000
00001000
00000100
00001100
00000000
00010000
01000000
01010000
00000000
10000000
01000000
11000000
00000000
,  // measure 22
10002000
00000000
00000000
00000000
00100000
00000000
00000000
00000010
00000000
00000000
00100000
00000000
00013000
00000000
00000000
00000000
,  // measure 23
00020001
00000000
00000000
00000000
00000010
00000000
00000000
00100000
00000000
00000000
00000010
00000000
00031000
00000000
00000000
00000000
,  // measure 24
10002000
00000000
00000000
00000000
01000000
00000000
00000000
00000100
00000000
00000000
01000000
00000000
00013000
00000000
00000000
00000000
,  // measure 25
01000100
00000000
00000000
00000000
00000000
00000000
00000000
00000000
00000000
00000000
00000000
00000000
00000000
00000000
00000100
01000000
,  // measure 26
00100000
01000000
00000020
00000000
00000030
00000000
01000000
00000100
00000010
00000100
00200000
00000000
00300000
00000000
00000100
00000010
,  // measure 27
00000100
01000000
00200000
00000000
00300000
00000000
01000000
00100000
01000000
00000100
00000020
00000000
00000030
00000000
00000100
00100000
,  // measure 28
00000100
01000000
00200000
00000000
00300000
00000000
01000000
00000010
01000000
00000100
00000020
00000000
00000030
00000000
00000100
01000000
,  // measure 29
00100000
01000000
00000200
00000000
00000300
00000000
00100000
00000100
00000010
00000200
00002300
00003200
02000300
03000000
00000000
00000000
,  // measure 30
00100000
10000000
00001000
00000000
10001000
00000000
10000000
00001000
00010000
01000000
00100000
00000000
00100010
00000000
00000010
00010000
,  // measure 31
00001000
00000010
00000100
00000000
01000100
00000000
01000000
00010000
00100000
00000010
00010000
00000000
00010001
00000000
00000001
00000100
,  // measure 32
00000010
00100000
00001000
00000000
10001000
00000000
10000000
01000000
00100000
00000010
00010000
00000000
00010001
00000000
00000001
00000100
,  // measure 33
00001000
00010000
00001000
00000000
00011000
00000000
00000000
00000000
02000200
00000000
00000000
00000000
03000300
00000000
00000000
00000000
,  // measure 34
00020001
00000000
00000010
00000000
00100000
00000000
00001000
00001000
00000000
01000000
01000000
00000000
00031000
00000000
00010000
00001000
,  // measure 35
10002000
00000000
00100000
00000000
00000010
00000000
00010000
00010000
00000000
00000100
00000100
00000000
00013000
00000000
00001000
01000000
,  // measure 36
00000200
00010000
00100000
00001000
02000300
00001000
00000010
00010000
,  // measure 37
03100000
00000000
10000000
00000000
00010000
00000000
10000000
01000000
00010000
00001000
00000100
00000001
00001000
00000000
00000000
00000000
,  // measure 38
00020001
00000000
00000100
00000000
01000000
00000000
00001000
00001000
00000000
00100000
00100000
00000000
00031000
00000000
00010000
00001000
,  // measure 39
10002000
00000000
01000000
00000000
00000100
00000000
00010000
00010000
00000000
00000010
00000010
00000000
00013000
00000000
00001000
00100000
,  // measure 40
00000020
00010000
01000000
00001000
00200030
00001000
00000100
00010000
,  // measure 41
01300000
00000000
10000000
00000000
00010000
00000000
10000000
00100000
00010000
00001000
00000010
00000001
00000100
00001000
01000000
00000000
,  // measure 42
02000200
00000000
00000000
03000300
;
