#TITLE:255 (st2020 Mix);
#SUBTITLE:;
#ARTIST:255;
#TITLETRANSLIT:;
#SUBTITLETRANSLIT:;
#ARTISTTRANSLIT:;
#GENRE:HYPER SPEED RAVE;
#CREDIT:;
#MUSIC:255 (st2020 Mix).ogg;
#BANNER:255 (st2020 Mix).png;
#BACKGROUND:255 (st2020 Mix)-bg.png;
#JACKET:255 (st2020 Mix)-jacket.png;
#CDTITLE:;
#SAMPLESTART:55.111;
#SAMPLELENGTH:15.000;
#SELECTABLE:YES;
#OFFSET:1.602;
#BPMS:0.000=150.000
,3.917=148.000
,4.000=150.000
,80.000=162.000
,88.000=175.000
,96.000=187.000
,104.000=200.000
,112.000=212.000
,120.000=225.000
,128.000=240.000
,136.000=247.000
,152.000=255.000
,164.000=260.000
,165.000=255.000
;
#STOPS:;
#DISPLAYBPM:150.000:255.000;
#BGCHANGES:;
#FGCHANGES:;

//--------------- dance-single - forcednature ----------------
#NOTES:
     dance-single:
     forcednature:
     Beginner:
     3:
     0,0,0,0,0:
0000
0000
0000
0000
,
0000
0000
0000
0000
,
0000
0000
0000
0000
,
0000
0000
0000
0000
,
0000
0000
0000
0000
,
0000
0000
0000
0000
,
0001
0000
0000
0000
,
0000
0000
0000
0000
,
1000
0000
0000
0000
,
0000
0000
0000
0000
,
0010
0000
0000
0000
,
0100
0000
0000
0000
,
0001
0000
0000
0000
,
1000
0000
0000
0000
,
0100
0000
0000
0000
,
0010
0000
0000
0000
,
0001
0000
0000
0000
,
1000
0000
0000
0000
,
0010
0000
0000
0000
,
0100
0000
0000
0000
,
0001
0000
0000
0000
,
1000
0000
0000
0000
,
0010
0000
0000
0000
,
0100
0000
0000
0000
,
0001
0000
0000
0000
,
1000
0000
0000
0000
,
0010
0000
0000
0000
,
0100
0000
0000
0000
,
0001
0000
0000
0000
,
1000
0000
0000
0000
,
0010
0000
0000
0000
,
0100
0000
0000
0000
,
0010
0000
0000
0000
,
0100
0000
0000
0000
,
0000
0000
0000
0000
,
0000
0000
0000
0000
,
0000
0000
0000
0000
,
0000
0000
0000
0000
,
0001
0000
0000
0000
,
0000
1000
0000
0000
,
0000
0000
0001
0000
,
0000
0000
0000
0000
,
1000
0000
0000
0000
,
0001
0000
0000
0000
,
0001
0000
0000
0000
,
1000
0000
0000
0000
,
0100
0000
0000
0000
,
0010
0000
0000
0000
,
0001
0000
0000
0000
,
0010
0000
0000
0000
,
0100
0000
0000
0000
,
1000
0000
0000
0000
,
0010
0000
0000
0000
,
0100
0000
0000
0000
,
0001
0000
0000
0000
,
1000
0000
0000
0000
,
0001
0000
0000
0000
,
0100
0000
0000
0000
,
0020
0000
0000
0000
,
0000
0030
0000
0000
,
2000
0000
0000
0000
,
0000
3000
0000
0000
,
0200
0000
0000
0000
,
0000
0300
0000
0000
,
0020
0000
0000
0000
,
0000
0030
0000
0000
,
0001
0000
0000
0000
,
1000
0000
0000
0000
,
0001
0000
0000
0000
,
0100
0000
0000
0000
,
0010
0000
0000
0000
,
1000
0000
0000
0000
,
0001
0000
0000
0000
,
0000
0000
0000
0000
,
0100
0000
0000
0000
,
0010
0000
0000
0000
,
0100
0000
0000
0000
,
0001
0000
0000
0000
,
0100
0000
0000
0000
,
1000
0000
0000
0000
,
0100
0000
0000
0000
,
0100
0000
0000
0000
,
0010
0000
0000
0000
,
0001
0000
0000
0000
,
0010
0000
0000
0000
,
1000
0000
0000
0000
,
0010
0000
0000
0000
,
0010
0000
0000
0000
,
0010
0000
0000
0000
,
0000
0000
0000
0000
,
0100
0000
0000
0000
,
0001
0000
0000
0000
,
1000
0000
0000
0000
,
0010
0000
0000
0000
,
1000
0000
0000
0000
,
0100
0000
0000
0000
,
0010
0000
0000
0000
,
0001
0000
0000
0000
,
0100
0000
0000
0000
,
0010
0000
0000
0000
,
1000
0000
0000
0000
,
0001
0000
0000
0000
,
0010
0000
0000
0000
,
0100
0000
0000
0000
,
1000
0000
0000
0000
,
0001
0000
0000
0000
,
1001
0000
0000
0000
;

//--------------- dance-single - forcednature ----------------
#NOTES:
     dance-single:
     forcednature:
     Easy:
     6:
     0,0,0,0,0:
0000
0000
0000
0000
,
0000
0000
0000
0000
,
0000
0000
0000
0000
,
0000
0000
0000
0000
,
0000
0000
0000
0000
,
0000
0000
0000
0000
,
0001
0100
0001
1000
,
0010
1000
0001
0000
,
1000
0100
0100
0000
,
0001
0100
0100
0000
,
0010
0001
0010
0100
,
1000
0010
0100
0000
,
0001
1000
0001
0100
,
0010
1000
0100
0000
,
0010
0001
1000
0001
,
0100
0001
1000
0000
,
0010
1000
0001
1000
,
0100
0010
0001
0000
,
0100
0001
0100
0000
,
1000
0000
0000
0000
,
0001
0010
0100
0000
,
0001
0000
0000
0000
,
1000
0010
1000
0000
,
0001
0000
0000
0000
,
0010
0100
0010
0000
,
0001
0000
0000
0000
,
1000
0010
1000
0000
,
0001
0000
0000
0000
,
0100
0010
0100
0000
,
1000
0000
0000
0000
,
0010
0000
0010
0000
,
0100
0000
0100
0000
,
0001
0000
1000
0000
,
0001
1000
0001
0000
,
0000
0000
0000
0000
,
0000
0000
0000
0000
,
0000
0000
0000
0000
,
0000
0000
0000
0000
,
1000
0000
0001
0000
,
0000
0100
0000
0000
,
0010
0000
1000
0000
,
0000
0001
0000
0000
,
0010
0000
0001
0000
,
0010
0000
0100
0000
,
1000
0000
0001
0000
,
1000
0000
0010
0000
,
1000
0000
0001
0000
,
0100
0000
0001
0000
,
1000
0000
0010
0000
,
1000
0000
0000
0000
,
1001
0000
0001
0000
,
0010
0000
0000
0000
,
1001
0000
1000
0000
,
0010
0000
0000
0000
,
0110
0000
0001
0000
,
1000
0000
0000
0000
,
0100
0000
0010
0000
,
0100
0000
0000
0000
,
2000
0000
0000
0000
,
0000
0000
3000
0000
,
0001
0000
0100
0000
,
0001
0000
0000
0000
,
0020
0000
0000
0000
,
0000
0000
0030
0000
,
0100
0000
1000
0000
,
0100
0000
0000
0000
,
0010
0000
0001
0000
,
0010
0000
0100
0000
,
1000
0000
0001
0000
,
1000
0000
0010
0000
,
0100
0000
0001
0000
,
0100
0000
0010
0000
,
2000
0000
0000
0000
,
3001
0000
0000
0000
,
1001
0000
0001
0000
,
0100
0000
0000
0000
,
1001
0000
1000
0000
,
0100
0000
0000
0000
,
0110
0000
0010
0000
,
0001
0000
0000
0000
,
1000
0001
1000
0001
,
1000
0000
0000
0000
,
0001
0000
0100
0000
,
0001
0000
0100
0000
,
0010
0000
1000
0000
,
0010
0000
1000
0000
,
0001
0000
0010
0000
,
0100
0000
1000
0000
,
0100
0000
0010
0000
,
0001
0000
0000
0000
,
1001
0000
0000
0000
,
1000
0000
0000
0000
,
0001
0000
0100
0000
,
0001
0000
1000
0000
,
0010
0000
1000
0000
,
0001
0000
0010
0000
,
0100
0000
1000
0000
,
0100
0000
0000
0000
,
0010
0000
0001
0000
,
0100
0000
0000
0000
,
0010
0000
1000
0000
,
0100
0000
0000
0000
,
0010
0000
0001
0000
,
0010
0000
0000
0000
,
1000
0000
0001
0000
,
1000
0000
0000
0000
,
1001
0000
0000
0000
;

//--------------- dance-single - forcednature ----------------
#NOTES:
     dance-single:
     forcednature:
     Medium:
     9:
     0,0,0,0,0:
0000
0000
0000
0000
,
0000
0000
0000
0000
,
0000
0000
0000
0000
,
0000
0000
0000
0000
,
0000
0000
0000
0000
,
0000
0000
0000
0000
,
0001
1000
0010
1000
,
0001
0100
0001
1000
,
1000
0001
1000
0010
,
0100
0001
0010
0110
,
1100
0001
0010
0001
,
0100
0001
1010
1001
,
0001
1000
0100
0010
,
0100
1000
1010
0110
,
0001
1000
0100
0010
,
0001
0100
0010
1000
,
1000
0001
0010
0001
,
0100
0010
0000
0000
,
0101
0101
0101
0001
,
1000
0100
0010
0000
,
1100
1100
1100
1000
,
0001
0010
0100
0000
,
1010
1010
1010
1000
,
0001
0010
0100
0000
,
0011
0011
0011
0001
,
1000
0010
0100
0000
,
1001
1001
1001
1000
,
0100
0010
0001
0000
,
0110
0110
0110
0001
,
0100
0010
1000
0000
,
1001
1001
1001
0000
,
0110
0110
0110
0000
,
1000
0001
0100
0010
,
1000
0001
0000
1001
,
0000
0000
0000
0000
,
0000
0000
0000
0000
,
0000
0000
0000
0000
,
0000
0000
0000
0000
,
0001
0000
1000
0100
,
0000
0010
0010
0010
,
0010
0000
0001
1000
,
0000
0010
0010
0010
,
2000
3000
0001
0100
,
0001
1000
0010
1000
,
0002
0003
0010
0100
,
1000
0010
0100
0001
,
2000
3000
0100
1000
,
0001
1000
0010
0100
,
0002
0003
0010
0001
,
1000
0010
0010
0000
,
1000
0001
1000
0100
,
0010
0001
0100
0000
,
0010
1000
0001
0010
,
0100
0010
0001
0000
,
1000
0010
0100
0001
,
1000
0100
0010
0000
,
0100
0100
1000
1000
,
0001
0001
0001
0001
,
0100
0000
0000
0010
0000
0000
2000
0000
,
0000
0000
3000
0000
,
0100
0000
0000
0010
0000
0000
0001
0000
,
0000
0010
0000
0000
0001
0000
0000
0000
,
1000
0000
0000
0001
0000
0000
0200
0000
,
0000
0000
0300
0000
,
0010
0000
0000
1000
0000
0000
0001
0000
,
0000
1000
0000
0000
0001
0000
0000
0000
,
1000
0100
1000
0001
,
0100
0010
1000
0000
,
0001
0010
0100
1000
,
0001
0100
0001
0000
,
0010
0001
1000
0010
,
1000
0001
0100
0000
,
0010
1000
0001
1000
,
0100
0010
0010
0010
,
0001
1000
0001
0100
,
0001
1000
0001
0000
,
1000
0100
1000
0001
,
1000
0010
0100
0000
,
0001
0010
1000
0010
,
0001
0010
0100
0000
,
1001
1001
1001
0000
,
0100
0000
0010
0000
,
1000
0001
1000
0010
,
1000
0001
0100
0100
,
0001
0010
0100
1000
,
0010
1000
0100
0100
,
0010
0001
0010
0100
,
1000
0010
0100
0010
,
0100
0001
0100
0010
,
1000
0000
0000
0000
,
0001
0000
0000
0010
0000
0000
0001
0000
,
0000
0000
0100
0010
,
1000
0001
1000
0010
,
0100
0001
0010
0000
,
0100
1000
0001
1000
,
0010
0100
0001
0000
,
1000
0001
0010
0100
,
1000
0001
0100
0000
,
0110
0110
0110
0000
,
0001
1000
0100
0000
,
1001
1001
1001
0000
,
1000
0010
0100
0000
,
0110
0110
0110
0000
,
1001
1001
1001
0000
,
0001
0010
0100
1000
,
0100
0010
0001
0000
,
1001
0000
0000
0000
;

//--------------- dance-single - forcednature ----------------
#NOTES:
     dance-single:
     forcednature:
     Hard:
     12:
     0,0,0,0,0:
0000
0000
0000
0000
,
0000
0000
0000
0000
,
0000
0000
0000
0000
,
0000
0000
0000
0000
,
0000
0000
0000
0000
,
0000
0000
0000
0000
,
1000
0001
0100
0001
,
1000
0000
0010
0000
1000
0000
0001
0100
,
0001
0010
0100
1000
,
0010
0100
0001
0110
,
1001
1000
0010
1000
,
0001
0100
0110
1001
,
1000
0100
0010
0001
,
0100
0000
0010
0000
1000
0001
1000
0000
,
0100
0010
0001
0100
,
0010
0000
1000
0000
0001
0000
0100
0010
,
0100
0001
0010
0100
,
1000
0001
0100
0110
,
0001
0000
0100
0000
0001
0000
1000
0100
,
1000
0010
1010
0101
,
0001
0000
0010
0000
0100
0000
1000
0001
,
1000
0000
0010
0000
0100
0010
0100
0000
,
0001
0000
0010
0000
0100
0000
1000
0001
,
1000
0010
1100
0011
,
0001
0000
1000
0000
0100
0000
0010
0001
,
0010
0000
0100
0000
1000
0001
1000
0000
,
0010
0000
0100
0000
0001
0000
1000
0100
,
1000
0010
0101
0110
,
1000
0000
0001
0000
0010
0000
0100
1000
,
0100
0000
0010
0000
0001
0100
0001
0000
,
1000
1000
1000
0010
,
0100
0000
0100
0000
0100
0000
0001
1000
,
0001
0100
0010
1000
,
0001
0000
0010
0100
0010
0000
0001
0000
,
0000
0000
0000
0000
,
0000
0000
0000
0000
,
0000
0000
0000
0000
,
0000
0000
0000
0000
,
0100
0000
0010
1000
,
0000
0001
0010
0100
,
1000
0000
0001
0100
,
0000
0001
1000
0100
,
0010
0000
0001
0100
0001
0000
1000
0000
,
0010
0000
0100
0000
0001
0000
1000
0100
,
1000
0000
0001
0010
0001
0000
1000
0010
,
0000
0100
0000
0001
0000
1000
0000
0000
,
0100
0000
1000
0100
1000
0000
0001
0000
,
0010
0000
0001
0000
1000
0000
0010
0100
,
0010
0000
1000
0001
1000
0000
0100
0010
,
0002
0023
0230
0300
,
1000
0000
0010
1000
0010
0000
0100
0000
,
0001
0000
0010
0000
0100
0000
1000
0001
,
1000
0000
0001
0100
0001
0000
0100
0010
,
0000
1000
0000
0001
0000
0010
0000
0000
,
0001
0000
0100
0010
0100
0000
0001
0000
,
1000
0100
0000
0010
0000
0001
0000
0000
,
0100
0001
0100
0000
0010
1000
0010
0000
,
1000
0001
0001
0001
,
2001
0000
0000
3002
0000
0000
0203
0000
,
0000
0320
0000
0000
2030
0000
0000
3000
,
0200
0000
0000
2300
0000
0000
3002
0000
,
0000
0023
0000
0000
0032
0000
0000
0003
,
2000
0000
0000
3020
0000
0000
0230
0000
,
0000
0302
0000
0000
2003
0000
0000
3000
,
0200
0000
0000
0320
0000
0000
0032
0000
,
0000
0203
0000
0000
0320
0000
0000
0030
,
1000
0000
0001
0100
0001
0000
0010
0000
,
0100
0110
1001
0000
,
0001
0000
1000
0100
1000
0000
0010
0000
,
0100
0101
1010
0000
,
0001
0000
0100
0010
0100
0000
0001
0000
,
0010
0000
0011
0000
1100
0000
1000
0001
,
1000
0010
0100
0001
,
1000
0001
0001
0001
,
1001
0001
0100
0010
,
1000
0000
0001
0000
1000
0010
1000
0000
,
0001
0010
0100
1000
,
0001
0000
0100
0000
0010
1000
0010
0000
,
1000
0100
0010
0001
,
0100
0000
0010
0000
1000
0001
1000
0000
,
0100
0000
0100
0000
0100
0000
0010
0001
,
0010
0000
0100
0000
1000
0010
1000
0000
,
1001
0000
0001
0100
0001
0000
1000
0010
,
1000
0000
0001
0000
0010
0100
0010
0100
,
0010
0000
0001
1000
0001
0000
1000
0100
,
1000
0000
0010
0000
1000
0001
1000
0001
,
1000
0000
0010
0100
0010
0000
1000
0000
,
0001
0010
0001
0000
1000
0100
1000
0000
,
0001
0100
0001
0100
0010
1000
0010
1000
,
0020
0000
0000
0030
,
2000
0000
0000
3002
0000
0000
0203
0000
,
0301
0010
0100
1000
,
0100
0000
0010
0001
0010
0000
0001
1000
,
0000
0010
0000
0100
0000
0001
0000
0000
,
1000
0000
0010
0100
0010
0000
1000
0000
,
0100
0000
0010
0000
0001
0000
1000
0010
,
1000
0000
0001
0100
0001
0000
0010
0001
,
2000
3020
0230
0300
,
0001
0000
1000
0100
1000
0000
0010
0100
,
0010
0000
1000
0000
0001
0010
0001
0000
,
1000
0000
0001
0100
0001
0000
1000
0100
,
1000
0000
0010
0000
1000
0001
1000
0000
,
0100
1000
0100
1000
0100
0000
0010
0000
,
0001
1000
0001
1000
0001
0000
0100
0000
,
0010
1000
0010
0000
0100
0001
0100
0000
,
0010
0000
1000
0001
1000
0000
0100
0000
,
1001
0000
0000
0000
;

//--------------- dance-single - forcednature ----------------
#NOTES:
     dance-single:
     forcednature:
     Challenge:
     14:
     0,0,0,0,0:
0000
0000
0000
0000
,
0000
0000
0000
0000
,
0000
0000
0000
0000
,
0000
0000
0000
0000
,
0000
0000
0000
0000
,
0000
0000
0000
0000
,
1000
0100
0010
0001
1000
0010
0100
0001
,
0010
0100
1000
0001
0100
0001
0010
0000
,
0100
1000
0010
0100
0001
0010
0100
1000
,
0100
0010
0001
1000
0010
0100
0001
0000
,
0010
0001
1000
0010
0001
0010
0100
0010
,
1000
0001
1000
0100
0010
0001
0100
0000
,
0001
0010
0100
0010
0001
1000
0010
0100
,
1000
0100
0001
1000
0100
0010
0001
0000
,
0100
0010
1000
0001
0010
0100
1000
0010
,
0100
1000
0100
0001
0010
0100
1000
0000
,
0001
0100
1000
0100
0001
0010
1000
0010
,
0001
0100
0010
1000
0100
0010
0001
0000
,
0101
0000
1001
0000
1010
0000
1000
0100
,
0010
0000
0001
0000
0100
0010
1010
0000
,
0011
0000
0101
0000
0110
0000
1000
0001
,
0010
0000
0100
0000
1000
0001
0101
0000
,
0011
0000
0110
0000
1100
0000
1000
0001
,
0010
0000
0100
0000
1000
0100
0110
0000
,
0011
0000
0101
0000
1010
0000
0001
0010
,
0001
0000
0100
0000
0010
1000
1010
0000
,
0101
0000
0110
0000
1001
0000
1000
0001
,
0010
0000
0001
0000
0100
0010
1010
0000
,
0101
0000
0011
0000
1100
0000
0001
0010
,
0100
0000
1000
0000
0010
0100
0110
0000
,
0101
1001
1010
1001
,
1100
0000
1001
0000
0011
0000
0001
1000
,
0001
0101
0110
1010
,
1001
0000
1000
0100
0010
0000
0011
0000
,
0000
0000
0000
0000
,
0000
0000
0000
0000
,
0000
0000
0000
0000
,
0000
0000
0000
0000
,
1001
0000
1010
0101
,
0000
0001
0010
0100
,
1000
0000
0011
1100
,
0000
1000
0001
0100
,
0010
1000
0010
0100
0001
0000
0010
0000
,
1000
0000
0010
0000
0100
0000
1000
0001
,
0100
1000
0100
0010
1000
0000
0001
0100
,
0001
1000
0010
1000
0001
0010
0001
0000
,
0100
0010
1000
0001
0010
0000
0100
0000
,
1000
0000
0001
0000
1000
0000
0010
1000
,
0001
0100
1000
0100
0010
0000
1000
0001
,
0010
0100
1000
0000
,
0001
0010
0001
1000
0100
0000
1000
0000
,
0010
0000
0100
0000
0001
0000
1000
0001
,
1000
0100
0001
0100
0010
0000
0100
1000
,
0010
0100
0001
0010
0001
0100
1000
0000
,
0100
0010
1000
0001
0010
0000
0100
0000
,
1000
0001
1000
0100
0000
0010
0001
0100
,
0010
1000
0100
0001
0100
1000
0010
1000
,
0002
1000
1000
1003
,
2001
0000
0000
3200
0000
0000
0320
0000
,
0000
0000
0000
0000
0031
0000
0100
0001
,
2000
0000
0000
3020
0000
0000
0230
0000
,
0000
0302
0000
0000
2003
0000
0000
3000
,
0002
0000
0000
0023
0000
0000
0230
0000
,
0000
0000
0000
0000
1300
0000
0001
1000
,
0020
0000
0000
0230
0000
0000
0302
0000
,
0000
2003
0000
0000
3200
0000
0000
0300
,
0110
0010
0001
1000
,
0010
0000
1000
0000
0001
0100
0001
0000
,
0010
1000
0010
0001
,
0100
0000
0010
0000
1000
0100
1000
0000
,
0001
0100
1000
0100
,
0001
0000
0010
0000
0100
1000
0100
0010
,
0001
1000
0001
0100
1000
0100
0010
1000
,
0001
0101
1010
0101
,
1001
0000
0001
0010
0100
0000
1000
0000
,
0010
1000
0001
0010
0100
0001
0100
0000
,
1000
0000
0001
1000
0010
0000
0100
0000
,
1000
0100
0001
0100
0010
1000
0010
0000
,
1000
0000
0100
0010
0100
0000
0001
0000
,
0100
1000
0010
0100
0010
0001
0010
0000
,
0110
0000
1001
0000
0101
0000
0001
0010
,
0001
0000
0100
0000
0010
1000
0010
0000
,
1000
0100
1000
0100
0001
0100
0001
0100
,
1000
0001
0100
0010
1000
0010
0100
0001
,
0010
0001
0010
0001
0010
1000
0010
1000
,
0010
0100
1000
0001
0100
0001
1000
0010
,
0100
1000
0100
0001
0010
0100
1000
0000
,
0100
0001
0100
1000
0010
0100
0001
0000
,
0100
0010
1000
0001
0010
0100
1000
0001
,
0200
0000
0000
0300
,
0020
0000
0000
2030
0000
0000
3200
0000
,
0310
0001
0100
0001
,
1000
0100
0001
0100
0010
0000
0001
1000
,
0010
1000
0010
0100
1000
0100
0001
0000
,
1000
0001
1000
0010
0100
0000
0001
0000
,
0010
0000
0100
0000
1000
0000
0001
0100
,
0010
0001
0010
1000
0001
0000
1000
0100
,
0010
0001
1000
0000
,
1100
0000
1001
0000
0011
0000
0010
0100
,
1000
0000
0010
0000
0100
0001
1000
0000
,
1001
0000
0101
0000
1010
0000
0010
1000
,
0100
0000
0001
0000
0100
1000
0001
0000
,
0100
1000
0100
0001
1000
0100
0010
0000
,
0001
1000
0010
0001
0010
1000
0100
0000
,
0010
0001
0100
1000
0100
0010
1000
0001
,
0010
0000
0100
0001
0100
0000
0010
0000
,
1001
0000
0000
0000
;

//--------------- dance-double - forcednature ----------------
#NOTES:
     dance-double:
     forcednature:
     Easy:
     8:
     0,0,0,0,0:
00000000
00000000
00000000
00000000
,
00000000
00000000
00000000
00000000
,
00000000
00000000
00000000
00000000
,
00000000
00000000
00000000
00000000
,
00000000
00000000
00000000
00000000
,
00000000
00000000
00000000
00000000
,
00001000
00010000
00001000
01000000
,
00010000
10000000
00100000
00000000
,
10000000
01000000
00100000
00010000
,
01000000
00001000
00010000
00000000
,
00000100
00001000
00000001
00000100
,
00000010
00001000
00000000
00001001
,
00000001
00000010
00000100
00010000
,
00001000
00100000
00000000
10010000
,
10000000
00100000
01000000
00001000
,
00010000
00000100
00001000
00000001
,
00000100
00000010
00001000
00000001
,
00000010
00000100
00000000
00001001
,
00000001
00000100
00000001
00000100
,
00000001
00000000
00001000
00000100
,
00010000
00001000
00010000
00001000
,
00010000
00000000
00100000
10000000
,
01000000
00100000
01000000
00100000
,
01000000
00000000
00010000
00001000
,
00000100
00000010
00000100
00000010
,
00000100
00000000
00000001
00001000
,
00000100
00010000
00000100
00010000
,
00000100
00000000
00010000
00001000
,
01000000
00010000
01000000
00010000
,
01000000
00000000
00100000
10000000
,
00010000
01000000
00010000
00000000
,
00100000
00001000
00100000
00000000
,
00001000
00010000
00001000
00010000
,
00001000
00010000
00001000
00000000
,
00000000
00000000
00000000
00000000
,
00000000
00000000
00000000
00000000
,
00000000
00000000
00000000
00000000
,
00000000
00000000
00000000
00000000
,
00010000
00000000
00000100
00001000
,
00000000
00000001
00000100
00000001
,
00000100
00000000
00000010
00001000
,
00000000
00000001
00001000
00000001
,
00001000
00000000
00000001
00000000
,
00000010
00000000
00000100
00010000
,
00000100
00000000
00010000
00000000
,
00001000
00100000
00001000
00100000
,
00001000
00000000
01000000
00000000
,
00010000
00000000
10000000
00100000
,
10000000
00000000
00010000
00000000
,
00100000
01000000
00100000
00000000
,
01000000
10000000
01000000
00000000
,
00100000
00000000
00001000
00000000
,
00010000
00000100
00010000
00000000
,
00000010
00000000
00001000
00000000
,
00000001
00000100
00000001
00000000
,
00000010
00000000
00000100
00000000
,
00010000
00000000
00001000
00000000
,
00010000
00001000
00001000
00001000
,
00002000
00000000
00000000
00000000
,
00000000
00000000
00003000
00000000
,
02000000
00000000
00000000
03020000
00000000
00000000
02030000
00000000
,
00000000
03020000
00000000
00000000
02030000
00000000
00000000
03000000
,
00200000
00000000
00000000
00000000
,
00000000
00000000
00300000
00000000
,
20000000
00000000
00000000
30020000
00000000
00000000
20030000
00000000
,
00000000
30020000
00000000
00000000
20030000
00000000
00000000
30000000
,
01000000
10000000
01000000
00000000
,
00100000
00000000
00001000
00000000
,
00010000
00000100
00010000
00000000
,
00000010
00000000
00001000
00000000
,
00000001
00000100
00000001
00000000
,
00001000
00000000
00000010
00000000
,
00010000
00001000
00010000
00001000
,
00010000
00000000
00000000
00000000
,
00011000
00000000
00010000
00000000
,
00100000
00000000
10000000
01000000
,
10000000
00000000
00010000
00000000
,
01000000
00000000
00001000
00010000
,
00001000
00000000
00000010
00000000
,
00000001
00000000
00000100
00000000
,
00000001
00001000
00000001
00001000
,
00000001
00000000
00000100
00000000
,
00001001
00000000
00000001
00000000
,
00000100
00000000
00000010
00001000
,
00000010
00000000
00010000
00000000
,
00001000
00000000
00100000
00010000
,
00100000
00000000
01000000
00000000
,
10000000
00000000
00010000
00000000
,
01000000
00010000
01000000
00010000
,
01000000
00000000
00000000
00000000
,
00011000
00000000
00000000
00000000
,
00010000
00010000
00010000
00010000
,
00000100
00000000
00001000
00000000
,
00000001
00000100
00000001
00000100
,
00000001
00000000
00000010
00000000
,
00000100
00000000
00010000
00001000
,
00010000
00000000
00100000
00000000
,
10000000
00010000
10000000
00000000
,
01000000
10000000
01000000
10000000
,
01000000
00000000
00100000
00000000
,
00001000
00010000
00001000
00010000
,
00001000
00000000
00000100
00000000
,
00000001
00000010
00000001
00000000
,
00001000
00000100
00001000
00000000
,
00000010
00010000
00000010
00010000
,
00000010
00010000
00001000
00000000
,
00011000
00000000
00000000
00000000
;

//--------------- dance-double - forcednature ----------------
#NOTES:
     dance-double:
     forcednature:
     Medium:
     10:
     0,0,0,0,0:
00000000
00000000
00000000
00000000
,
00000000
00000000
00000000
00000000
,
00000000
00000000
00000000
00000000
,
00000000
00000000
00000000
00000000
,
00000000
00000000
00000000
00000000
,
00000000
00000000
00000000
00000000
,
00001000
00010000
01000000
10000000
,
00100000
00000000
01000000
00000000
00010000
00000000
00100000
00001000
,
00100000
00001000
00010000
00000100
,
00001000
00000001
00000100
00001001
,
00000001
00000010
00000100
00010000
,
00001000
00010000
00000100
00001001
,
00000001
00000100
00001000
00010000
,
01000000
10000000
00010000
01100000
,
10000000
00100000
01000000
00001000
,
00010000
00000000
00000100
00000000
00001000
00000000
00000001
00000010
,
00000001
00000100
00000010
00010000
,
00001000
00100000
00010000
01100000
,
10010000
00000000
10010000
00000000
10010000
00000000
00010000
01000000
,
00010000
00100000
00001000
00000000
,
00011000
00000000
00011000
00000000
00011000
00000000
00010000
00000100
,
00001000
00000001
00000100
00000000
,
00000101
00000000
00000101
00000000
00000101
00000000
00000001
00001000
,
00000100
00010000
00001000
00000000
,
00101000
00000000
00101000
00000000
00101000
00000000
00100000
00010000
,
10000000
00100000
01000000
00000000
,
00011000
00000000
00011000
00000000
00011000
00000000
00000100
00010000
,
00001000
00000010
00000001
00000000
,
00000110
00000000
00000110
00000000
00000110
00000000
00000001
00001000
,
00000100
00010000
00001000
00000000
,
01010000
01010000
01010000
00000000
,
10100000
10100000
10100000
00000000
,
10000000
01000000
00100000
00010000
,
00100000
00000000
00001000
00010000
00001000
00000000
00000100
00000000
,
00000000
00000000
00000000
00000000
,
00000000
00000000
00000000
00000000
,
00000000
00000000
00000000
00000000
,
00000000
00000000
00000000
00000000
,
00000001
00000000
00000100
00000010
,
00000000
00001000
00000100
00010000
,
00001000
00000000
01000000
00010000
,
00000000
10000000
00100000
10000000
,
00010000
00100000
01000000
10000000
,
01000000
00000000
00100000
00000000
00010000
00000000
01000000
00010000
,
01000000
00000000
00001000
00000000
00010000
00000000
00000100
00001000
,
00000000
00000001
00000000
00000100
00000000
00000010
00000000
00000000
,
00000100
00000010
00001000
00000001
,
00000010
00000100
00010000
00001000
,
00100000
00010000
00100000
01000000
,
10000000
00010000
10000000
00000000
00100000
00000000
00000000
00000000
,
01000000
00001000
00010000
00000100
,
00001000
00000000
00000001
00000000
00000100
00000000
00000010
00001000
,
00000010
00000000
00000100
00000000
00000001
00000000
00000010
00000100
,
00000000
00010000
00000000
00001000
00000000
01000000
00000000
00000000
,
00100000
10000000
00010000
00000000
,
00100000
00001000
00000000
00010000
00000000
00000100
00000000
00001000
,
00000001
00000100
00000001
00000000
00001000
00000100
00001000
00000000
,
00000010
00000000
00020000
00030000
00020000
00030000
00020000
00030000
,
00002000
00000000
00000000
00203000
00000000
00000000
02300000
00000000
,
00000000
00000000
00000000
03000000
,
20000000
00000000
00000000
30020000
00000000
00000000
02030000
00000000
,
00000000
03002000
00000000
00000000
00023000
00000000
00000000
00030000
,
00000200
00000000
00000000
00002300
00000000
00000000
00003002
00000000
,
00000000
00000000
00000000
00000003
,
00000200
00000000
00000000
00002300
00000000
00000000
00023000
00000000
,
00000000
00230000
00000000
00000000
00320000
00000000
00000000
00030000
,
00001000
00010000
01000000
10000000
,
00100000
00000000
01000000
00000000
00001000
00100000
00001000
00000000
,
00010000
00000100
00001000
00000001
,
00000100
00000000
00000010
00000000
00001000
00000001
00001000
00000000
,
00000100
00000010
00000100
00010000
,
00001000
00000000
01000000
00000000
00100000
10000000
00100000
00000000
,
01000000
00010000
01000000
00000000
00001000
00010000
00001000
00000000
,
00010000
00000100
00000100
00000100
,
00001001
00000001
00000010
00000100
,
00010000
00000000
00001000
00000000
00100000
00010000
00100000
00000000
,
01000000
10000000
00100000
01000000
,
00001000
00000000
00010000
00000000
00000100
00001000
00000100
00000000
,
00000010
00000001
00000100
00000010
,
00010000
00000100
00010000
00001000
,
01000000
00000000
00010000
00000000
01000000
00000000
00100000
10000000
,
00100000
00000000
01000000
00000000
00001000
00010000
00001000
00000000
,
00010000
00000100
00001000
00000001
,
00000100
00000000
00000010
00000000
00001000
00000100
00001000
00000100
,
00001000
00000001
00000100
00001000
,
00010000
00000000
00100000
00000000
10000000
00010000
10000000
00010000
,
10000000
01000000
00100000
00010000
,
01000000
00001000
01000000
00000000
00001000
00000000
00010000
00000000
,
00000100
00001000
00000100
00000000
00000010
00000001
00000010
00000000
,
00000100
00000000
00000000
00000000
,
00010000
00000000
00000000
00001000
00000000
00000000
01000000
00000000
,
00010000
10000000
00100000
10000000
,
00010000
00000000
00100000
00000000
01000000
00000000
10000000
00010000
,
00000000
01000000
00000000
00001000
00000000
00010000
00000000
00000000
,
00000100
00001000
00000001
00000100
,
00000010
00000000
00001000
00000000
00000001
00000000
00000010
00000001
,
00000010
00000100
00010000
00001000
,
01000000
00010000
01000000
00000000
00100000
00000000
00000000
00000000
,
10000000
00000000
00010000
00000000
10000000
00000000
01000000
10000000
,
01000000
00100000
00001000
00010000
,
00000100
00000000
00001000
00000000
00000001
00000000
00000100
00000001
,
00000100
00000010
00001000
00000100
,
00010000
00000000
00001000
00000000
00100000
00000000
00010000
10000000
,
00010000
00000000
01000000
00000000
00100000
00000000
10000000
01000000
,
10000000
00010000
00100000
00001000
,
00010000
00000000
00000100
00001000
00000100
00000000
00000010
00000000
,
00000110
00000000
00000000
00000000
;

//--------------- dance-double - forcednature ----------------
#NOTES:
     dance-double:
     forcednature:
     Hard:
     12:
     0,0,0,0,0:
00000000
00000000
00000000
00000000
,
00000000
00000000
00000000
00000000
,
00000000
00000000
00000000
00000000
,
00000000
00000000
00000000
00000000
,
00000000
00000000
00000000
00000000
,
00000000
00000000
00000000
00000000
,
00010000
00001000
01000000
00010000
,
10000000
00000000
01000000
00000000
00100000
00000000
00001000
00010000
,
00001000
00000100
00000010
00001000
,
00000100
00000010
00000110
00001001
,
00000001
00000100
00001000
00010000
,
01000000
00000000
10000000
00000000
00100000
01000000
00100000
00000000
,
10000000
01000000
00010000
00001000
,
00000100
00000000
00000001
00000000
00000010
00000100
00000010
00000000
,
00000001
00000100
00000010
00010000
,
00001000
00000000
00100000
00000000
00001000
00010000
00001000
00000000
,
00000100
00000010
00001000
00000100
,
00000010
00000001
00000100
00000110
,
00001001
00000000
00000101
00000000
00001001
00000000
00001000
00000100
,
00001000
00000000
00000010
00000000
00010000
00001000
00010000
00000000
,
00011000
00000000
00101000
00000000
00110000
00000000
00010000
01000000
,
00010000
00000000
10000000
00000000
00100000
01000000
00100000
00000000
,
10100000
00000000
01010000
00000000
10010000
00000000
10000000
01000000
,
10000000
00000000
00010000
00000000
00100000
00001000
00100000
00000000
,
00011000
00000000
00010100
00000000
00001010
00000000
00000001
00000010
,
00000001
00000000
00000100
00000000
00000010
00001000
00000010
00000000
,
00000110
00000000
00001001
00000000
00000101
00000000
00001000
00000100
,
00001000
00000000
00000010
00000000
00010000
00001000
00010000
00000000
,
00011000
00000000
01001000
00000000
01010000
00000000
00100000
10000000
,
00100000
00000000
01000000
00000000
00001000
00010000
00001000
00000000
,
00011000
00010100
00011000
00001000
,
00011000
00000000
01001000
00000000
00011000
00000000
00010000
00001000
,
00010000
00000100
00001000
00000010
,
00010000
00000000
00000100
00001000
00000100
00000000
00000010
00000000
,
00000000
00000000
00000000
00000000
,
00000000
00000000
00000000
00000000
,
00000000
00000000
00000000
00000000
,
00000000
00000000
00000000
00000000
,
00000001
00000000
00000100
00001000
,
00000000
00010000
00010000
00010000
,
00010000
00000000
00001000
00001000
,
00000000
00100000
00100000
00100000
,
01000000
00000000
10000000
00010000
10000000
00000000
00100000
00000000
,
00010000
00000000
00001000
00000000
00000100
00000000
00000001
00000010
,
00000001
00000000
00001000
00000100
00001000
00000000
00000010
00000100
,
00000000
00000001
00000000
00001000
00000000
00000010
00000000
00000000
,
00000100
00000000
00000001
00000100
00000001
00000000
00001000
00000000
,
00000010
00000000
00010000
00000000
00001000
00000000
00100000
00010000
,
00100000
00000000
01000000
10000000
01000000
00000000
00100000
00010000
,
00200000
00320000
00230000
00300000
,
00001000
00000000
00010000
00000100
00010000
00000000
00000010
00000000
,
00001000
00000000
00000001
00000000
00000010
00000000
00000100
00010000
,
00000100
00000000
00010000
00001000
00010000
00000000
00100000
10000000
,
00000000
00010000
00000000
00100000
00000000
01000000
00000000
00000000
,
10000000
00000000
00010000
01000000
00010000
00000000
00100000
00000000
,
00001000
00010000
00000000
00000100
00000000
00001000
00000000
00000000
,
00000010
00001000
00000010
00001000
00000001
00000100
00000001
00000100
,
00000001
00001000
00001000
00001000
,
00002001
00000000
00000000
00003002
00000000
00000000
00000023
00000000
,
00000000
00000230
00000000
00000000
00020300
00000000
00000000
00030000
,
00002000
00000000
00000000
00203000
00000000
00000000
02300000
00000000
,
00000000
23000000
00000000
00000000
30020000
00000000
00000000
00030000
,
20000000
00000000
00000000
32000000
00000000
00000000
03020000
00000000
,
00000000
00032000
00000000
00000000
00003020
00000000
00000000
00000030
,
00000002
00000000
00000000
00000203
00000000
00000000
00002300
00000000
,
00000000
00023000
00000000
00000000
00230000
00000000
00000000
00300000
,
01100000
00010000
10000000
00100000
,
00010000
00000000
00001000
00000000
00000100
00000010
00000100
00000000
,
00000001
00000010
00001000
00010000
,
01000000
00000000
10000000
00000000
00100000
01000000
00100000
00000000
,
10000000
01000000
00100000
00001000
,
00010000
00000000
00000100
00000000
00001000
00000001
00001000
00000000
,
00000010
00010000
00000010
00010000
00001000
01000000
00001000
01000000
,
00001000
00010000
00010000
00010000
,
00011000
00100000
00010000
10000000
,
00100000
00000000
01000000
00000000
00010000
00100000
00010000
00000000
,
00001000
00000100
00001000
00000001
,
00000100
00000000
00000010
00000000
00001000
00000001
00001000
00000000
,
00000100
00010000
00001000
00100000
,
00001000
00000000
00010000
00000000
00000010
00001000
00000010
00000100
,
00000001
00000000
00000001
00000000
00000001
00000000
00000010
00000100
,
00000010
00000000
00000100
00000000
00010000
00001000
00010000
00000000
,
00011000
00001000
00100000
00010000
,
10000000
00000000
00100000
00000000
01000000
00010000
01000000
00010000
,
01000000
00100000
10000000
01000000
,
00100000
00000000
00001000
00000000
00010000
00000100
00010000
00000100
,
00010000
00000010
00001000
00000001
,
00000010
00000100
00001000
00000001
,
00000100
00000001
00000100
00000001
00000100
00000010
00000100
00000010
,
00001000
00000000
00000000
00000000
,
00000200
00000000
00000000
00020300
00000000
00000000
00032000
00000000
,
00000000
00203000
00000000
00000000
00302000
00000000
00000000
00003000
,
00011000
00000000
00010000
00001000
00010000
00000000
00100000
10000000
,
00000000
00010000
00000000
01000000
00000000
00100000
00000000
00000000
,
10000000
00000000
00010000
01000000
00010000
00000000
00100000
00000000
,
00001000
00000000
00010000
00000000
00000100
00000000
00001000
00000001
,
00001000
00000000
00000010
00000100
00000010
00000000
00001000
00000000
,
00000200
00000320
00000032
00000003
,
00000100
00000000
00000001
00000000
00000100
00000000
00000010
00001000
,
00000010
00010000
00001000
00100000
,
00010000
00000000
10000000
00000000
00100000
00000000
10000000
01000000
,
10000000
00010000
00100000
00101000
,
00001000
00001000
00001000
00010000
,
00000010
00000000
00000010
00000000
00000010
00000000
00001000
00000001
,
00001000
00000100
00001000
00000100
00010000
00001000
00010000
00001000
,
01000000
00000000
00010000
10000000
00010000
00000000
00100000
00000000
,
00011000
00000000
00000000
00000000
;

//--------------- dance-double - forcednature ----------------
#NOTES:
     dance-double:
     forcednature:
     Challenge:
     14:
     0,0,0,0,0:
00000000
00000000
00000000
00000000
,
00000000
00000000
00000000
00000000
,
00000000
00000000
00000000
00000000
,
00000000
00000000
00000000
00000000
,
00000000
00000000
00000000
00000000
,
00000000
00000000
00000000
00000000
,
00010000
00001000
01000000
00001000
00010000
00000100
00010000
00001000
,
00100000
00001000
00010000
00000010
00001000
00000001
00000010
00000000
,
00000100
00010000
00001000
01000000
00010000
00100000
01000000
10000000
,
01000000
00010000
00001000
00000010
00000001
00001000
00000001
00000000
,
00000100
00000010
00001000
00000001
00000010
00001000
00010000
00100000
,
10000000
00010000
01000000
00100000
00010000
00001000
00100000
00000000
,
00001000
00010000
00000100
00001000
00000001
00000100
00001000
00010000
,
00000100
00010000
01000000
10000000
00100000
01000000
00010000
00000000
,
00100000
00001000
00010000
00000010
00000100
00000001
00000010
00001000
,
00010000
00000010
00000100
00000001
00001000
00000100
00000010
00000000
,
00000001
00000100
00001000
00010000
00100000
10000000
00010000
10000000
,
01000000
00100000
00010000
00001000
00000100
00000010
00000001
00000000
,
00000011
00000000
00001001
00000000
00010001
00000000
00000001
00000010
,
00000100
00000000
00001000
00000000
00000010
00010000
00001000
00000000
,
00011000
00000000
01001000
00000000
10001000
00000000
10000000
00100000
,
00010000
00000000
00001000
00000000
00100000
01000000
10000000
00000000
,
10100000
00000000
10010000
00000000
10001000
00000000
10000000
00100000
,
01000000
00000000
00010000
00000000
00100000
00001000
00010000
00000000
,
00011000
00000000
00010100
00000000
00010001
00000000
00000001
00000100
,
00000001
00000000
00001000
00000000
00000010
00010000
00000100
00000000
,
00001100
00000000
00010100
00000000
01000100
00000000
01000000
00010000
,
00100000
00000000
01000000
00000000
10000000
00100000
01000000
00000000
,
01010000
00000000
01001000
00000000
01000100
00000000
00000100
00001000
,
00000001
00000000
00000010
00000000
00000001
00001000
00000100
00000000
,
00001100
00010100
01000100
01001000
,
01010000
00000000
01001000
00000000
01000100
00000000
00000100
00001000
,
00000100
00000110
00000011
00000110
,
00001100
00000000
00000010
00010000
00001000
00000000
00022000
00000000
,
00000000
00000000
00000000
00000000
,
00000000
00000000
00000000
00000000
,
00000000
00000000
00000000
00000000
,
00000000
00000000
00000000
00033000
,
00101000
00000000
00110000
11000000
,
00000000
00010000
00100000
00001000
,
00010000
00000000
00001010
00000101
,
00000000
00001000
00000100
00000010
,
00000001
00001000
00000001
00000010
00000001
00000000
00000100
00000000
,
00000010
00000000
00010000
00000000
00001000
00000000
00100000
00010000
,
00100000
01000000
10000000
01000000
00100000
00000000
00001000
00010000
,
00000100
00010000
00001000
00100000
00001000
00010000
00000010
00000000
,
00001000
00000001
00001000
00000010
00000100
00000000
00000001
00000000
,
00001000
00000000
00000100
00000000
00010000
00000000
00001000
01000000
,
00010000
01000000
00100000
10000000
00010000
00000000
01000000
00010000
,
01000000
00001000
00010000
00000000
,
00000100
00001000
00000001
00000100
00000010
00000000
00001000
00000000
,
00000001
00000000
00000010
00000000
00000100
00000000
00010000
00001000
,
00100000
00010000
10000000
00100000
01000000
00000000
00010000
01000000
,
00100000
10000000
00010000
00100000
00001000
00010000
00001000
00000000
,
00010000
00000100
00001000
00000001
00000100
00000000
00000010
00000000
,
00001000
00000001
00001000
00000100
00000000
00000010
00000001
00000100
,
00000001
00000010
00000100
00001000
00000100
00010000
00001000
00010000
,
00000010
00001010
00001001
00001100
,
00000012
00000000
00000000
00000203
00000000
00000000
00002300
00000000
,
00000000
00000000
00000000
00000000
00013000
00000000
00001000
00100000
,
00020000
00000000
00000000
20030000
00000000
00000000
30200000
00000000
,
00000000
02300000
00000000
00000000
03020000
00000000
00000000
00030000
,
00200000
00000000
00000000
00302000
00000000
00000000
00023000
00000000
,
00000000
00000000
00000000
00000000
00030100
00000000
00001000
00000001
,
00000200
00000000
00000000
00000320
00000000
00000000
00002030
00000000
,
00000000
00003200
00000000
00000000
00020300
00000000
00000000
00030000
,
00011000
00001000
00100000
00010000
,
10000000
00000000
00100000
00000000
00010000
00001000
00010000
00000000
,
00000100
00000010
00000001
00000100
,
00001000
00000000
00010000
00000000
00000100
00001000
00000100
00000000
,
00010000
00001000
00100000
00010000
,
10000000
00000000
01000000
00000000
00010000
00001000
00010000
00000100
,
00001000
00000001
00000100
00000010
00001000
00000001
00000010
00000100
,
00001000
00001100
00010100
00011000
,
00101000
00000000
00100000
00010000
10000000
00000000
00100000
00000000
,
01000000
00010000
01000000
00001000
00010000
00000100
00001000
00000000
,
00000010
00000000
00000100
00000001
00000010
00000000
00000100
00000000
,
00010000
00001000
00100000
00010000
00100000
01000000
10000000
00000000
,
00010000
00000000
00100000
00001000
00010000
00000000
00000100
00000000
,
00001000
00000001
00000100
00000010
00001000
00000001
00000010
00000000
,
00000110
00000000
00001001
00000000
00000110
00000000
00001000
00000001
,
00000100
00000000
00000010
00000000
00010000
00001000
00010000
00000000
,
00001000
00010000
00001000
00100000
00010000
10000000
00100000
01000000
,
00010000
00100000
01000000
10000000
00010000
01000000
00010000
01000000
,
00001000
00010000
00000100
00001000
00000001
00000100
00000010
00000100
,
00000001
00001000
00000001
00000010
00000100
00001000
00000100
00001000
,
00000010
00001000
00000001
00000010
00000001
00001000
00000010
00000000
,
00010000
00001000
00010000
00000010
00010000
00001000
01000000
00000000
,
00010000
10000000
00100000
01000000
00010000
00100000
01000000
10000000
,
00020000
00000000
00000000
00030000
,
02000000
00000000
00000000
03002000
00000000
00000000
00023000
00000000
,
00030010
00001000
00000100
00000010
,
00000001
00000010
00000100
00000010
00000001
00000000
00000100
00000010
,
00001000
00000100
00001000
00000010
00010000
00001000
00100000
00000000
,
00010000
10000000
00010000
01000000
00100000
00000000
10000000
00000000
,
01000000
00000000
00100000
00000000
00001000
00000000
00010000
00000100
,
00001000
00000001
00000100
00000010
00001000
00000000
00000100
00010000
,
00001000
01000000
00010000
00000000
,
10000000
00100000
10000000
01000000
00100000
00000000
00001000
00010000
,
00000100
00001000
00000001
00000100
00000010
00001000
00000001
00000000
,
00000010
00000100
00001000
00000001
00000100
00000000
00000010
00010000
,
00001000
01000000
00001000
00010000
00000100
00001000
00000100
00000000
,
00010000
00001000
00100000
00010000
01000000
00001000
00010000
00000000
,
00000100
00001000
00000010
00000100
00000001
00000010
00000100
00000000
,
00000010
00000001
00001000
00000100
00010000
00001000
01000000
00010000
,
00100000
00000000
01000000
10000000
01000000
00000000
00100000
00000000
,
10010000
00000000
00000000
00000000
;
