#TITLE:[Team 6] CHOCOLATE PHILOSOPHY;
#SUBTITLE:;
#ARTIST:常盤ゆう;
#TITLETRANSLIT:;
#SUBTITLETRANSLIT:;
#ARTISTTRANSLIT:;
#GENRE:;
#CREDIT:;
#MUSIC:CHOCOLATE PHILOSOPHY.ogg;
#BANNER:Tower of Eight Panels.png;
#BACKGROUND:Tower of Eight Panels-bg.png;
#CDTITLE:;
#SAMPLESTART:40.913;
#SAMPLELENGTH:13.080;
#SELECTABLE:YES;
#OFFSET:-0.001;
#BPMS:0.000=220.000;
#STOPS:;
#BGCHANGES:;
#FGCHANGES:;

//--------------- dance-double - Brother Mojo ----------------
#NOTES:
     dance-double:
     Brother Mojo:
     Easy:
     7:
     0,0,0,0,0:
00000000
00000000
00000000
00000000
,
00000000
00000000
00100000
00000000
,
00000000
00001000
00010000
00002000
,
02000000
00000000
00000000
03000000
00000000
00000000
00013000
00000000
,
00001000
00000000
00020000
00000000
00000200
00000000
00000000
00000300
,
00000000
00030010
00010000
00001000
,
00100000
00000000
00010000
10000000
,
00000000
00010000
01000000
00000000
,
00000000
00001000
00010000
00002000
,
00200000
00000000
00000000
00300000
00000000
00000000
00013000
00000000
,
00001000
00000000
00020000
00000000
00000020
00000000
00000000
00000030
,
00000000
00030100
00010000
00001000
,
02000000
00000000
00000000
03000000
,
00010000
00000000
00100000
00000000
,
01000000
10000000
00000000
00010000
,
01000000
00000000
00100000
00010000
,
00000000
00001000
00010000
00000000
,
00000100
00001000
00000000
00000010
,
00000100
00000000
00000001
00000000
,
00000010
00000000
00000100
00000000
,
00001000
00000010
00000000
00000100
,
00001000
00000000
00010000
00001000
,
00000000
01000000
00010000
00000000
,
00100000
01000000
00000000
10000000
,
00100000
00000000
01000000
00000000
,
00010000
00100000
01000000
00000000
,
00010000
00000000
00001000
00000000
,
00010000
00000000
00000100
00000000
,
00001000
00000000
00000010
00000100
,
00000000
00000000
00000001
00000000
,
00000100
00000000
00001000
00000000
,
00010000
00000000
00100000
00000000
,
01000000
00000000
00010000
00000000
,
10000000
00000000
01000000
00000000
,
00100000
00000000
00010000
00000000
,
01000000
00001000
00000000
00010000
,
00000100
00000000
00000000
00000000
,
00000000
00000000
00000010
00000000
,
00001000
00010000
00000000
00100000
,
00010000
00000000
00001000
01000000
,
00000000
00001000
00010000
00000000
,
00000100
00001000
00000000
00000001
,
00000010
00000000
00000100
00010000
,
00000000
00001000
00010000
00000000
,
00100000
00010000
00000000
00001000
,
00000100
00000000
00001000
00010000
,
00000000
00000010
00000100
00000000
,
00000000
00000000
00000000
00000001
,
00000010
00000000
00000100
00010000
,
00000000
00001000
00100000
00010000
,
00100000
00000000
01000000
10000000
,
00020000
00000000
00000000
00030000
,
01000000
00001000
00020000
00000000
,
00000000
00030100
00001000
00000001
,
00000200
00000000
00000000
00000300
,
00000000
00000000
00000010
00001000
,
00000010
00000000
00010000
00001000
,
00200000
00000000
00000000
00300000
,
00001000
00010000
00000200
00000000
,
00001300
00000010
00000100
00000001
,
00002000
00000010
00000010
00003010
,
00000000
00000000
00001001
00000000
,
00000000
00000000
00001000
00000000
,
00010100
00000000
00000000
01001000
,
00000000
00000000
10000000
00000000
,
00010000
00100000
00000000
00000000
,
00011000
00000000
00000000
00000000
,
00000100
00000000
00001001
00000000
,
00000000
00001010
00000000
00010010
,
00000000
00000000
00011000
00000000
,
01001000
00000000
01000000
00010000
,
00000000
00100000
01000000
00000000
,
00000000
10000000
10000000
10000000
,
00010000
00000000
00000000
00100000
,
00000000
00000000
01000000
00000000
,
00010000
00001000
00000000
00010000
,
00000010
00001000
00000010
00010000
,
00001000
00010000
00000100
00001000
,
00000100
00010000
00001000
01000000
,
00010000
00000000
00100000
00001000
,
00000000
00010000
00001000
00000000
,
00000100
00001000
00010000
00100000
,
00010000
00000000
00001000
00000000
,
00010000
00000000
00000100
00000000
,
00000000
00001000
00000000
00000000
,
00000001
00000000
00000010
00000100
,
00000000
00001000
00000010
00000000
,
00000000
00010000
00001000
00020000
,
00000200
00000000
00000000
00000300
00000000
00000000
00031000
00000000
,
00010000
00000000
00002000
00000000
02000000
00000000
00000000
03000000
,
00000000
00103000
00001000
00010000
,
00000010
00000000
00001000
00000001
,
00000000
00001000
00000100
00000000
,
00000000
00010000
00001000
00020000
,
00000020
00000000
00000000
00000030
00000000
00000000
00031000
00000000
,
00010000
00000000
00002000
00000000
00200000
00300000
00000000
00000000
,
01003000
00010000
00100000
00001000
,
00010000
00011000
00011000
00022000
,
00000000
00000000
00000000
00033000
00000000
00000000
00000000
00000000
;

//--------------- dance-double - Brother Mojo ----------------
#NOTES:
     dance-double:
     Brother Mojo:
     Medium:
     10:
     0,0,0,0,0:
00000000
00000000
00000000
00000000
,
00000000
00000000
10000000
00100000
,
01000000
00010000
00100000
00001000
,
00010000
00000000
00000000
00010000
,
00000010
00001000
00000001
00000000
,
00000001
00000010
00000100
00001000
,
00000010
00010000
00001000
00000100
,
00000010
00001000
00000001
00000010
,
00000100
00001000
00000010
00010000
,
00001000
00000000
00000000
00001000
,
00100000
00010000
10000000
00000000
,
10000000
00100000
01000000
00010000
,
00200000
00000000
00000000
00300000
,
00001000
00010000
00000010
00000000
,
00000100
00000001
00001000
00000100
,
00010000
00000000
00001000
00100000
,
00010000
01000000
00100000
00000000
,
01000000
00010000
10000000
01000000
,
00100000
00000000
00001000
00000000
,
00010000
00000100
00001000
00000000
,
00000010
00000100
00000001
00001000
,
00000100
00000000
00010000
00001000
,
00100000
00010000
01000000
00000000
,
00100000
10000000
00010000
00100000
,
00001000
00000000
00010000
00000000
,
00000010
00001000
00000100
00000000
,
00000010
00000000
00000100
00010000
,
00001000
00000000
00100000
00000000
,
00010000
01000000
00001000
00010000
,
00000000
00000000
00000010
00010000
,
00002000
00000000
00103000
00000000
,
00010000
01000000
00100000
01000000
,
00001000
00000000
00010000
00000010
,
00000100
00000000
00000010
00000000
,
00001000
00000100
00000010
00000000
,
00000001
00000100
00001000
00010000
,
00002000
00000000
00003000
00100000
,
00010000
10000000
00100000
10000000
,
01000000
00100000
00010000
01000000
,
00001000
00010000
00000010
00001000
,
00000010
00010000
00002000
00000000
,
00103000
00001000
00010000
00001000
,
00000010
00000000
00000001
00000020
,
00000000
00000130
00001000
00000010
,
00000100
00000001
00000010
00000100
,
00001000
00000100
00010000
00001000
,
01000000
00100000
20000000
00000000
,
00000000
30000000
00000000
01000000
,
00100000
00000000
00010000
02000000
,
00000000
03001000
00010000
00000010
,
00000010
00000000
00001000
00001000
,
00000000
00000001
00000001
00000000
,
00000010
00000010
00000000
00000100
,
00000100
00000000
00010000
00010000
,
00000000
00001000
00001000
00000000
,
01000000
01000000
00000000
00100000
,
00100000
00000000
10000000
10000000
,
00000000
00010000
00010000
00000000
,
00100000
00110000
00000000
00001000
,
00011000
00000000
00010010
00101000
,
00000000
00010100
00011000
02002000
,
00000000
03003000
01000000
00010000
,
01000000
00100000
10000000
00010000
,
10000000
01000000
00100000
00010000
,
00100000
00001000
00010000
00000000
,
00010000
00000100
00000000
00000100
,
00001000
00000001
00000100
00000001
,
00000000
00001000
00000001
00000100
,
00001000
00010000
01000000
10000000
,
01000000
00010000
00001000
00000100
,
00000001
00000010
00000100
00001000
,
00000010
00020000
00002000
00000000
,
00003000
00001000
00001000
00031000
,
00010000
00000010
00000010
00001000
,
00000100
00000100
00000010
00000001
,
00000100
00000010
00001000
00000100
,
00010000
00001000
00100000
00010000
,
00100000
00001000
00020000
00000000
,
00030010
00010000
00001000
00010000
,
00100000
00000000
10000000
00200000
,
00000000
01300000
00010000
00100000
,
01000000
10000000
00100000
01000000
,
00010000
01000000
00001000
00010000
,
00000100
00000010
00000002
00000000
,
00000000
00000203
00000000
00000000
,
00000320
00000000
00001030
00000200
,
00000000
00000310
00000001
00000010
,
00000100
00001000
00000010
00010000
,
00001000
00000000
00000000
00001000
,
00100000
00010000
10000000
00000000
,
10000000
00100000
01000000
00010000
,
00100000
00001000
00010000
01000000
,
00100000
00010000
10000000
00100000
,
01000000
00010000
00100000
00001000
,
00010000
00000000
00000000
00010000
,
00000010
00001000
00000001
00000000
,
00000001
00000010
00000100
00001000
,
00000010
00010010
00011000
00202000
,
00000000
00000000
00000000
00303000
00000000
00000000
00000000
00000000
;

//--------------- dance-double - Brother Mojo ----------------
#NOTES:
     dance-double:
     Brother Mojo:
     Hard:
     14:
     0,0,0,0,0:
00000000
00000000
00000000
00000000
,
00000000
00000000
00000000
00000000
00000000
00000000
00001000
00000000
00000000
00100000
00000000
00010000
,
10000000
01000000
00010000
00001000
,
00000020
00000000
00000000
00000031
,
00000100
00001000
00020000
00000000
,
00130000
00000000
10000000
01000000
00100000
00000000
00010000
00000000
,
01000000
00001000
00010000
00000010
,
00000100
00000000
00000000
00000001
00000000
00000000
00000010
00000000
00000000
00000100
00000000
00001000
,
00000001
00000100
00001000
00010000
,
00200000
00000000
00000000
10300000
,
01000000
00010000
00002000
00000000
,
00003010
00000000
00000001
00000010
00000100
00000000
00001000
00000000
,
00000020
00000000
00000000
00000030
,
00010000
00001000
00100000
00000000
,
00010000
01000000
00100000
10000000
,
00010000
00000000
00100000
00010000
,
01000000
00001000
00010000
00000000
,
00000100
00001000
00000010
00000100
,
00000001
00000000
00001000
00000000
,
00000100
00000010
00000001
00000000
,
00000100
00000010
00001000
00000100
,
00010000
00000000
00001000
00100000
,
00010000
01000000
00100000
00000000
,
10000000
00100000
01000000
00010000
,
00100000
00000000
01000000
00000000
,
10000000
00010000
01000000
00000000
,
00010000
00000000
00100000
00001000
,
00020000
00000000
00030010
00000000
,
00001000
00000100
00000010
00000001
,
00000000
00000000
00000100
00000010
,
00020000
00000000
00031000
00000000
,
00100000
00010000
01000000
00100000
,
10000000
00000000
00010000
00100000
,
01000000
00000000
10000000
00000000
,
00100000
01000000
00010000
00000000
,
00100000
00001000
00010000
00000100
,
00001000
00000000
00000000
00000001
,
00000100
00001000
00010000
00001000
,
00000010
00001000
00010000
00100000
,
01000000
00001000
00010000
00000100
,
00010000
00001000
00200000
00000000
,
00310000
01000000
00100000
10000000
,
01000000
00000000
00100000
00010000
00000000
01000000
00001000
00000000
00000000
00010000
00000000
00000100
,
00001000
00000000
00000010
00000100
00000000
00000000
00000001
00000000
00000000
00000100
00000000
00000000
,
00001000
00010000
01000000
10000000
,
00100000
01000000
00001000
00010000
,
00000100
00000010
00000002
00000000
,
00000000
00000000
00000000
00000000
00000000
00000000
00000000
00000000
00000103
00000010
00000000
00001000
,
00000010
00000000
00000000
00010000
00000000
00000000
00001000
00000000
00100000
00010000
00000000
00000000
,
01000000
00001000
00020000
00001000
,
00000010
00032000
00100000
00010000
,
02003000
00010000
00100000
03020000
,
00100000
10000000
02030000
00100000
,
00010000
03002000
00010000
00100000
,
00013000
00000000
00000000
00000100
00000000
00001000
00000010
00000000
00000100
00000001
00000000
00000000
,
00000010
00000000
00000100
00001000
00000000
00000000
00000002
00000000
00000000
00000010
00000000
00000000
,
00001000
00000203
00000010
00000001
,
00000320
00001000
00010000
00002030
,
00003100
00001001
00000100
00010000
,
01001000
10000000
10100000
01010000
,
00001000
00011000
00100010
00022000
,
00000000
00000000
00000000
00033000
00000000
00000000
00100000
00000000
00010000
00100000
00000000
01000000
,
10000000
00000000
00000000
00010000
00000000
01000000
00100000
00000000
01000000
00010000
00000000
00000000
,
00100000
00000000
00001000
00010000
00000000
00000010
00001000
00000000
00000001
00000100
00000000
00000000
,
00000010
00000000
00010000
00001000
00000000
00000000
00100000
00000000
00000000
00000000
00000000
00010000
,
01000000
00000000
00001000
00010000
00000000
00000000
00000000
00000000
00000100
00001000
00000000
00000001
,
00000100
00000000
00000010
00001000
00000000
00000000
00000001
00000000
00000010
00000100
00000000
00000000
,
00000000
00000000
00000000
00001001
00000000
00000000
00000001
00000000
00000100
00000010
00000000
00010000
,
00001000
00000000
00000000
00011000
00000000
00000000
00011000
00000000
00000000
00100000
00000000
00010000
,
10000000
00000000
00100000
01000000
00000000
00000000
01100000
00000000
00000000
01100000
00000000
00000000
,
10000000
00000000
01000000
00100000
00000000
01000000
00010000
00000000
00001000
00000010
00000000
00000100
,
00000010
00000000
00000001
00001000
00000000
00000010
00020000
00000000
00000000
00000000
00000000
00000000
,
00000000
00031000
00001000
00001000
,
00010000
00000100
00000100
00001000
,
00000010
00000010
00010000
00001000
,
00000010
00001000
00010000
00100000
,
10000000
00000000
00100000
10000000
00000000
00010000
01000000
00000000
00010000
00100000
00000000
00001000
,
00010000
00000000
00000100
00001000
00000000
00000100
00000010
00000000
00000001
00000010
00000000
00000100
,
00001000
00000000
00000010
00010000
00000000
00001000
01000000
00000000
00010000
10000000
00000000
01000000
,
00100000
00000000
00000000
00010000
00000000
00000000
01000000
00000000
00000000
00001000
00000000
00010000
,
00000100
00000000
00001000
00000010
00000000
00000000
00001001
00000000
00000000
00000001
00000000
00000000
,
00000100
00001000
00010000
01000000
,
10000000
00100000
01000000
00000000
00010000
00100000
00001000
00000000
,
00010000
00000010
00001000
00000000
00000200
00000000
00000000
00000000
,
00000000
00000000
00000300
00000000
,
00010000
00000000
00001000
00000100
,
00000001
00000000
00000010
00000100
00000000
00001000
00000010
00000000
00000000
00000100
00000000
00001000
,
00010000
01000000
10000000
01000000
,
00020000
00000000
00031000
00000100
,
00000001
00000100
00002000
00000000
,
00013000
00000000
00001000
01000000
00010000
00000000
00100000
00000000
,
00001000
00010000
00000010
00010000
,
00001000
00000000
00100000
00010000
00000000
00000000
01000000
00000000
00000000
00100000
00000000
00010000
,
00001000
00000010
00000001
00000010
,
00002000
00000000
00013000
00100000
,
10000000
00100000
00020000
00000000
,
00031000
00000000
00100000
00001000
00010000
00000000
00001000
00000000
,
01000000
00010010
00101000
00020020
,
00000000
00000000
00000000
00030030
00000000
00000000
00000000
00000000
;

//--------------- dance-double - Brother Mojo ----------------
#NOTES:
     dance-double:
     Brother Mojo:
     Challenge:
     17:
     0,0,0,0,0:
00000000
00000000
00000000
00000000
,
00000000
00000000
00000000
00000000
00000000
00000000
00001000
00000000
00000000
00001000
00000000
00010000
,
00000010
00000000
00000000
00001000
00000000
00000000
00000100
00000000
00000010
00000001
00000000
00000000
,
00000100
00000000
00000010
00001000
00000000
00000100
00010000
00000000
00000000
00001000
00000000
00000000
,
01000000
00000000
00010000
00100000
00000000
00000000
01000000
00000000
10000000
00100000
00000000
01000000
,
00010000
00000000
00000000
00000000
00000000
00000000
00000000
00000000
00000000
00000000
00000000
00000000
00000000
00000000
00000000
00000000
00000000
00000000
00000000
00000000
00000000
00000000
00000000
00000000
00100000
00000000
00000000
00000000
00000000
00010000
00000000
00000000
00000000
00000000
00000000
00000000
00100000
00000000
00000000
00000000
00000000
00000000
00000000
00000000
00000000
00000000
00000000
00000000
00001000
00000000
00000000
00000000
00000000
00000000
00000000
00000000
00000000
00000000
00000000
00000000
00000000
00000000
00000000
00000000
00000000
00000000
00000000
00000000
00000000
00000000
00000000
00000000
00010000
00000000
00000000
00000000
00000000
00000000
00000000
00000000
00000000
00000000
00000000
00000000
00000000
00000000
00000000
00000000
00000000
00000000
00000000
00000000
00000000
00000000
00000000
00000000
,
00000020
00000000
00001030
00000200
00000000
00000310
00002000
00000000
00000000
00203000
00000000
00000000
,
01300000
00000000
00010000
00001000
00000000
00000010
00000100
00000000
00000000
00010000
00000000
00001000
,
00000100
00000000
00000000
00000010
00000000
00000000
00001000
00000000
00000100
00010000
00000000
00000000
,
00001000
00000000
00100000
00010000
00000000
01000000
00100000
00000000
00000000
10000000
00000000
00000000
,
01000000
00000000
00100000
00010000
00000000
00000000
01000000
00000000
00001000
00010000
00000000
00000010
,
00001000
00000000
00000000
00000000
00000000
00000000
00000000
00000000
00000000
00000000
00000000
00000000
00000000
00000000
00000000
00000000
00000000
00000000
00000000
00000000
00000000
00000000
00000000
00000000
00000001
00000000
00000000
00000000
00000000
00000010
00000000
00000000
00000000
00000000
00000000
00000000
00000001
00000000
00000000
00000000
00000000
00000000
00000000
00000000
00000000
00000000
00000000
00000000
00001000
00000000
00000000
00000000
00000000
00000000
00000000
00000000
00000000
00000000
00000000
00000000
00000000
00000000
00000000
00000000
00000010
00000000
00000000
00000000
00000000
00000000
00000000
00000000
00000100
00000000
00000000
00000000
00000000
00000000
00000000
00000000
00000000
00000000
00000000
00000000
00000000
00000000
00000000
00000000
00000000
00000000
00000000
00000000
00000000
00000000
00000000
00000000
,
00000010
00000000
00010000
00001000
00000000
01000000
00010000
00000000
00000000
20000000
00000000
00000000
,
30100000
01000000
10020000
00000000
,
10030000
01000000
00010000
00001000
,
00000200
00000000
00000301
00000100
,
00001000
00010000
00200000
00000000
,
10300000
00100000
00010000
00001000
,
00000020
00000000
00000032
00000000
,
00000103
00000010
00001000
00000000
,
00000100
00000010
00001000
00010000
,
00002000
00000000
01003000
00100000
,
10000000
01000000
00200000
00000000
,
00310000
01000000
00100000
00010000
,
00002000
00000000
00103000
00000000
,
00001000
00010000
01000100
00000000
,
00000200
00000000
00001300
00000010
,
00000100
00000000
00000000
00000001
00000000
00001000
00000001
00000000
00000000
00000100
00000000
00000000
,
00001000
00000000
00000000
00010000
00000000
00000000
00100000
00000000
00000000
10000000
00000000
00010000
,
10000000
00000000
01000000
00100000
,
00001000
00000000
00000000
00010000
00000000
00001000
00000010
00000000
00000000
00000000
00000000
00000000
,
00000001
00000100
00001001
00000001
,
00000010
00000000
00000000
00000000
00000000
00000000
00001000
00000000
00010000
01000000
00000000
00000000
,
00200000
00000000
00000000
00000000
00000000
00310000
10000000
00000000
10000000
00100000
00000000
00000000
,
01000000
00010000
00200000
00000000
,
00301000
00010000
00000010
00001000
,
00000200
00000000
00000000
00000000
00000000
00000000
00000300
00000000
00001000
00000010
00010000
00001000
,
01000000
00010000
00100000
01000000
10000000
00010000
01000000
00000000
00000000
00100000
00000000
00010000
,
00001000
00000000
00000000
00000010
00000000
00000000
00000010
00000000
00001000
00010000
00000000
00000000
,
00000100
00000000
00001000
00000010
00000000
00000100
00000001
00000000
00000000
00000100
00000000
00000000
,
00001000
00000000
00010000
01000000
00000000
00000000
00200000
00000000
00000000
00310000
00000000
10000000
,
00100000
00000000
00000000
01000000
00000000
00010000
00100000
00000000
00000000
01000000
00000000
00000000
,
10000000
00000000
00000000
00100000
00000000
00010000
00000000
00001000
00000000
00000000
01000000
00000000
00010000
00000000
00000000
00000000
00100000
00000000
01000000
00000000
00000000
00000000
00010000
00000000
,
00001000
00000000
00000100
00000010
00000000
00001000
00000002
00000000
00000000
00000013
00000000
00001000
,
00010000
00000000
00000000
00100000
00000000
00000000
00100000
00000000
00010000
00001000
00000000
00000000
,
10000000
00000000
01000000
00100000
00000000
00001000
00010000
00000000
00000000
00000010
00000000
00000000
,
00000100
00000000
00000001
00001000
00000000
00000000
00000200
00000000
00001300
00000010
00000000
00000000
,
00010000
00000000
00000000
00001000
00000000
00000000
00100000
00000000
00000000
00000000
00000000
00000000
00010000
00000000
00000000
00000000
01000000
00000000
00100000
00000000
00000000
00000000
10000000
00000000
,
01000000
00000000
00100000
00010000
01000000
00000000
00001000
00000000
00010000
00000010
00000000
00001000
,
00000100
00000000
00000010
00000000
00000001
00000000
00001000
00000000
00000000
00000000
00000010
00000000
00010000
00000000
00000000
00000000
00000000
00000000
00000100
00000000
00000000
00000010
00000000
00000000
,
00000002
00000000
00000103
00001000
,
02000000
00000000
00000000
00100000
00000000
00000000
03010000
00000000
00000000
00000000
00000000
10000000
,
01000000
00000000
00100000
00010000
00000000
01000000
00001000
00000000
00000000
10000000
00000000
00000000
,
01000000
00001000
00000100
00000010
,
00000002
00000000
00000103
00001000
00010000
00000010
00100000
00000000
00001000
02000000
00000000
03010000
,
10000000
00000000
01000000
00000000
00100000
00000000
00010000
00000000
00000000
00000000
01000000
00000000
00002000
00000000
00000000
00000000
00000000
00000000
10003000
00000000
00000000
01000000
00000000
00000000
,
00020000
00030000
00000100
00001000
,
00000020
00000000
00000000
00000100
00000000
00000000
00001030
00000000
00000000
00000000
00000000
00000001
,
00000010
00001001
00010000
01001000
,
10010000
00001000
00100010
00011000
,
00000100
01001000
00001001
00101000
,
00000000
00000000
00100000
00001000
10000000
00010000
01000000
00000000
00010000
00100000
01000000
00010000
,
00001000
00000000
00010000
00000100
00000000
00001000
00000010
00000000
00000010
00000100
00000000
00000001
,
00000010
00000000
00001000
00010000
00000000
00000100
00001000
00000000
00000010
00000100
00000000
00001000
,
00010000
00000000
00100000
01000000
00000000
00010000
10000000
00000000
00000000
01000000
00010000
00001000
,
00100000
00000000
00010000
01000000
00000000
00100000
00010000
00001000
00010000
00000010
00000000
00001000
,
00000100
00000010
00001000
00010000
00000000
00001000
00000100
00000000
00000001
00000100
00000000
00000010
,
00001000
00000000
00001000
00000001
00000010
00000100
00001000
00000000
00000010
00000100
00000000
00001000
,
01000000
00000000
00100000
10000000
00000000
00000000
01010000
00000000
00000000
00010000
00000000
00100000
,
01000000
00000000
00010000
00000100
00000000
00000010
00000001
00000000
00000000
00001100
00000000
00000000
,
00000001
00000000
00000100
00000010
00000100
00001000
00010000
00100000
01000000
00100000
10000000
00010000
,
00100000
00000000
01000000
00010000
00000000
00000100
00002000
00000000
00000000
00000000
00000000
00000000
,
00003000
00001100
00001001
00000101
,
00000100
00000000
00000010
00001000
00000000
00000100
00010000
00000000
00001000
00100000
00000000
00010000
,
01000000
00000000
00100000
10000000
00000000
00000000
00100000
00000000
00000000
00100000
00000000
00010000
,
00001000
00000010
00001000
00010000
00000010
00001000
00000100
00000000
,
00000010
00000001
00000100
00000010
00001000
00000001
00000010
00000100
00010000
00001000
01000000
00010000
,
00100000
01000000
10000000
00010000
01000000
00100000
10000000
00010000
00100000
00001000
00010000
00000010
,
00001000
00000000
00000100
00000000
00000010
00000000
00000001
00000000
00001000
00000000
00000001
00000000
00000100
00000000
00000000
00001000
00000000
00000000
00010000
00000000
00000000
00100000
00000000
00000000
,
20000000
00000000
00000000
30010000
00000000
01000000
00001000
00000000
00000000
00010000
00001000
00000010
,
00000100
00000000
00001000
00000010
00000000
00000100
00000002
00000000
00000000
00000013
00000000
00001000
,
00010000
01000000
10000000
00100000
01000000
00010000
00100000
00000000
,
00001000
00000000
00000000
00010000
00000000
00000000
00000010
00000000
00000000
00001000
00000000
00000000
00000010
00000000
00000100
00000000
00000001
00000000
00000010
00000000
00000000
00001000
00000000
00000000
,
00010000
00000000
00000000
01000000
00000000
00000000
00100000
00000000
00000000
00000000
00000000
00000000
00010000
00000000
00000000
00000000
10000000
00000000
00100000
00000000
00000000
00000000
01000000
00000000
,
00010000
00000000
00000000
00100000
00001000
00000000
00010000
00000000
00000000
00000000
00000000
00000000
00000010
00000000
00000000
00000000
00001000
00000000
00000001
00000000
00000000
00000000
00000000
00000000
,
00001000
00000000
00000000
00000100
00000000
00000010
00001000
00000000
00000000
00010000
00000000
00000000
,
00000010
00001000
00000100
00010000
00001000
01000000
00020000
00000000
00030000
00010000
00000000
00100000
,
01000000
00000000
00000000
00010000
00000000
00000000
00001000
00000000
00000010
00000001
00000000
00000000
,
00000100
00000000
00000000
00000000
00000010
00000000
00001000
00000000
00000000
00000000
00000100
00000000
00010000
00000000
00000000
00000000
00000000
00010000
00001000
00000000
00000000
00000000
00000000
00000000
,
00010000
00000000
00100000
01000000
00000000
00000000
00010000
00000000
10000000
00100000
00000000
01000000
,
00010000
00000000
00000000
00000000
00000000
00000000
00000000
00000000
00000000
00000000
00000000
00000000
00000000
00000000
00000000
00000000
00000000
00000000
00000000
00000000
00000000
00000000
00000000
00000000
10000000
00000000
00000000
00000000
00000000
01000000
00000000
00000000
00000000
00000000
00000000
00000000
10000000
00000000
00000000
00000000
00000000
00000000
00000000
00000000
00000000
00000000
00000000
00000000
00010000
00000000
00000000
00000000
00000000
00000000
00000000
00000000
00000000
00000000
00000000
00000000
00000000
00000000
00000000
00000000
00000000
00000000
00000000
00000000
00000000
00000000
00000000
00000000
00100000
00000000
00000000
00000000
00000000
00000000
00000000
00000000
00000000
00000000
00000000
00000000
00000000
00000000
00000000
00000000
00000000
00000000
00000000
00000000
00000000
00000000
00000000
00000000
,
01000000
00000000
10000000
00100000
00000000
00010000
00001000
00000000
00000100
00000001
00000000
00000010
,
00001000
00000000
00010000
00000100
00000000
00000000
00001001
00000000
00000000
00010000
00000000
00001000
,
00000100
00000000
00000000
00000010
00000000
00001000
00000100
00000000
00000100
00010000
00000000
00000000
,
00001000
00000000
00000000
00000000
00010000
00000000
01000000
00000000
00000000
00000000
00100000
00000000
00010000
00000000
00000000
00000000
00000000
00010000
10000000
00000000
00000000
00000000
00000000
00000000
,
00100000
00000000
01000000
00010000
00000000
00000000
00100000
00000000
01000000
00010000
00000000
00001000
,
00000010
00000000
00000000
00000000
00000000
00000000
00000000
00000000
00000000
00000000
00000000
00000000
00000000
00000000
00000000
00000000
00000000
00000000
00000000
00000000
00000000
00000000
00000000
00000000
00000001
00000000
00000000
00000000
00000000
00001000
00000000
00000000
00000000
00000000
00000000
00000000
00000001
00000000
00000000
00000000
00000000
00000000
00000000
00000000
00000000
00000000
00000000
00000000
00000100
00000000
00000000
00000000
00000000
00000000
00000000
00000000
00000000
00000000
00000000
00000000
00000000
00000000
00000000
00000000
00000000
00000000
00000000
00000000
00000000
00000000
00000000
00000000
00000010
00000000
00000000
00000000
00000000
00000000
00000000
00000000
00000000
00000000
00000000
00000000
00000000
00000000
00000000
00000000
00000000
00000000
00000000
00000000
00000000
00000000
00000000
00000000
,
00001000
00010001
10001000
00200200
,
00000000
00000000
00000000
00300300
00000000
00000000
00000000
00000000
;
