#TITLE:Caliburne ~Story of the Legendary sword~;
#SUBTITLE:;
#ARTIST:Project Grimoire;
#TITLETRANSLIT:;
#SUBTITLETRANSLIT:;
#ARTISTTRANSLIT:;
#GENRE:;
#CREDIT:;
#BANNER:[Team 4] Caliburne ~Story of the Legendary sword~.png;
#BACKGROUND:[Team 4] Caliburne ~Story of the Legendary sword~-bg.png;
#LYRICSPATH:;
#CDTITLE:cdtitle.png;
#MUSIC:[Team 4] Caliburne ~Story of the Legendary sword~.mp3;
#OFFSET:-1.301000;
#SAMPLESTART:61.932999;
#SAMPLELENGTH:15.158000;
#SELECTABLE:YES;
#BPMS:0.000000=190.000000
,417.000000=182.000000
,419.000000=173.000000
,421.000000=165.000000
,423.000000=149.000000
,426.000000=136.000000
,427.000000=133.000000
,429.000000=98.000000
;
#STOPS:
;
#BGCHANGES:-1.500=[Team 4] Caliburne ~Story of the Legendary sword~.avi=1.000=1=0=0=StretchNoLoop==CrossFade==,
99999=-nosongbg-=1.000=0=0=0 // don't automatically add -songbackground-
;
#KEYSOUNDS:;
#ATTACKS:;

//---------------dance-double - MEGAtive----------------
#NOTES:
     dance-double:
     :
     Easy:
     8:
     0.354224,0.553445,0.203800,0.149453,0.000000,365.000000,335.000000,30.000000,22.000000,0.000000,0.000000,0.354224,0.553445,0.203800,0.149453,0.000000,365.000000,335.000000,30.000000,22.000000,0.000000,0.000000:
00000000
00000000
00000000
00000000
,
00000000
00000000
00000000
00000000
,
00000000
00000000
00000000
00000000
,
00000000
00000000
00000000
00000000
,
00000000
00000000
00000000
00000000
,
00000000
00000000
00000000
00000000
,
01000000
00001000
00000000
00100000
,
00001000
00000000
00010000
00000100
,
00000000
00000010
00000100
00000000
,
00001000
00000100
00001000
00000000
00000001
00000100
00000010
00000000
,
00001000
00000100
00010000
00000000
00001000
00100000
00010000
00000000
,
01000000
00100000
10000000
00000000
00010000
00000000
10000000
00000000
,
01000000
01100000
00000000
00010000
,
10010000
00000000
01000000
01001000
,
00000000
00001000
00010000
00000100
,
00000010
00000011
00000000
00001000
,
00001010
00000000
00000100
00010100
,
00000000
00000000
00100000
00000000
00001000
00100000
00010000
00000000
,
10010000
10000000
00100000
01000000
,
00010000
00100000
00001000
00010000
,
00000100
00000010
00000100
00010000
,
00001000
00100000
00010000
10000000
,
01000000
00000000
00100000
00000000
00001000
00010000
00001000
00000000
,
00010000
00000100
00001000
00000000
00000001
00000100
00000010
00000000
,
00002000
00000000
00000000
00003100
,
00000000
00000000
00020000
00000000
,
00000000
00031000
00000000
00000000
,
00200000
00000000
00000000
00301000
,
00000000
00000000
02000000
00000000
,
00000000
03010000
00000000
00000000
,
00020000
00000000
00000000
00130000
,
00000000
00000000
00002000
00000000
,
00000000
00013000
00000000
00000000
,
00000200
00000000
00000000
00001300
,
00000000
00000000
00000020
00000000
,
00000000
00001030
00000000
00000000
,
00001000
00000010
00000100
00001000
,
00000100
00000001
00010000
00001000
,
00100000
01000000
10000000
00010000
,
01000000
00100000
00010000
00100000
,
10000000
00010000
00100000
00001000
,
00010000
00000000
00000100
00000000
00000010
00000000
00000001
00001000
,
00000001
00000100
00001000
00000100
,
00000010
00010000
00001000
00100000
,
01000000
10000000
00010000
01000000
,
00100000
10000000
00010000
00000000
00100000
00000000
00010000
10000000
,
00100000
00000000
10000000
00000000
01000000
00100000
00010000
00000000
,
00100000
00001000
00010000
00000000
00001000
00010000
00000010
00000000
,
00000110
00000000
00000000
00001001
00000000
00000000
00000110
00000000
,
00000110
00000000
00000000
00000000
00001010
00000000
00000000
00011000
,
00000000
00101000
00101000
00000000
,
01000000
00001000
01000000
00010000
,
10000000
01000000
00100000
00001000
,
00010000
00100000
01000000
00010000
,
10010000
00000000
00000000
01100000
00000000
00000000
10010000
00000000
,
10010000
00000000
00000000
00000000
01010000
00000000
00000000
00011000
,
00000000
00001100
00001100
00000000
,
00001000
00000100
00000010
00000100
,
00010000
00001000
01000000
00100000
,
10000000
00010000
00100000
01000000
,
20000000
00000000
00000000
30010000
,
00000000
00000000
00200000
00000000
,
00000000
00301000
00000000
00000000
,
00020000
00000000
00000000
00030100
,
00000000
00000000
00002000
00000000
,
00000000
00003001
00000000
00000000
,
00000002
00000000
00000000
00000103
,
00000000
00000000
00000020
00000000
,
00000000
00010030
00000000
00000000
,
00000100
00010000
00001000
00100000
,
00001000
01000000
00010000
01000000
,
00100000
10000000
01000000
00100000
,
00020000
00000000
00000000
00000000
,
00000000
00000000
02030000
00000000
,
00000000
00000000
00000000
00000000
,
03002000
00000000
00000000
00023000
,
00000000
00000000
00030200
00000000
,
00000000
00010300
00000100
00010000
,
00001000
01000000
00100000
10000000
,
00010000
00100000
00001000
00010000
,
00000010
00001000
00000001
00000010
,
00000100
00001000
00000001
00001000
,
00000010
00010000
00001000
00100000
,
01000000
10000000
01000000
00100000
,
00001000
00010000
00000010
00000100
,
00000001
00000100
00000010
00010000
,
00001000
00100000
01000000
10000000
,
00010000
00100000
00010000
00100000
00010000
00100000
00010000
00000000
,
00000000
00000000
00000000
00000000
10010000
00000000
00010000
00100000
,
00010000
00000000
01000000
00000000
00100000
10000000
00100000
00000000
,
10000000
00000000
01000000
00100000
00010000
00000000
01000000
00000000
,
00001000
00010000
00000100
00000000
00000010
00000000
00000001
00001000
,
00000001
00000000
00000100
00000000
00000010
00001000
00000001
00000000
,
00000010
00000000
00000100
00010000
00001000
00000000
00101000
00000000
,
00110000
00000000
00101000
00000000
00110000
00000000
00010000
10000000
,
00010000
00000000
01000000
00000000
00010000
10000000
00010000
00000000
,
00100000
00000000
01100000
00000000
01000000
10000000
00010000
00000000
,
01000000
00000000
00100000
00000000
10000000
00000000
01000000
00100000
,
01000000
00000000
10000000
00000000
00010000
01000000
00010000
00000000
,
00100000
00000000
00001000
00010000
00000100
00000000
00000010
00000000
,
00000001
00001000
00000010
00000000
00000100
00000001
00001000
00000000
,
00000100
00010000
00001000
00000000
00010000
00001000
01000000
00000000
,
02200000
00000000
00000000
00000000
,
00000000
00000000
03300000
00000000
,
00000000
00100000
00000000
00000000
,
10000000
00000000
00000000
00001000
,
00000000
00010000
00000000
00000100
,
00000000
00000000
00000010
00000002
00000000
00000000
00000000
00000000
,
00000000
00000000
00000000
00000000
00000000
00000003
00000000
00000000
;

//---------------dance-double - MEGAtive----------------
#NOTES:
     dance-double:
     :
     Medium:
     11:
     0.520176,0.627238,0.407600,0.122280,0.000000,536.000000,476.000000,60.000000,18.000000,0.000000,0.000000,0.520176,0.627238,0.407600,0.122280,0.000000,536.000000,476.000000,60.000000,18.000000,0.000000,0.000000:
00000000
00000000
00000000
00000000
,
00000000
00000000
00000000
00000000
,
00000000
00000000
00000000
00000000
,
00000000
00000000
00000000
00000000
,
00000000
00000000
00000000
00000000
,
00000000
00000000
00000000
00000000
,
00000100
00010100
00000000
01000000
,
01010000
00000000
00001000
00101000
,
00000000
00010000
00010010
00000000
,
00000010
00000100
00000010
00000100
00000001
00000010
00000100
00001000
,
00000100
00010000
00001000
01000000
00100000
10000000
00010000
10000000
,
00010000
00100000
01000000
00000000
01100000
00000000
10010000
00000000
,
10000000
00000000
00100000
01000000
00100000
00000000
10000000
00000000
,
00010000
00100000
00010000
00000000
01000000
00000000
00001000
00010000
,
00001000
00000000
00100000
00000000
00001000
00010000
00000100
00001000
,
00000100
00000000
00000010
00000001
00000010
00000000
00000100
00000000
,
00001000
00000001
00001000
00000000
00000010
00000000
00000100
00000001
,
00000100
00000000
00000001
00000010
00000001
00001000
00000010
00010000
,
00001000
00000000
00001000
00100000
00001000
00000000
01000000
00000000
,
00010000
10000000
00010000
00000000
00100000
00000000
00001000
00010000
,
00001000
00000000
01000000
00000000
00010000
00100000
00001000
00010000
,
00000100
00000000
00000100
00001000
00000001
00000000
00001001
00000000
,
00001000
00000010
00000100
00000000
00000010
00001000
00000010
00001000
,
00000001
00000010
00000100
00010000
00001000
01000000
00100000
10000000
,
00020000
00000000
00000000
00130000
,
00000000
00000000
02000000
00000000
,
00000000
03001000
00000000
00000000
,
00020000
00000000
00000000
00030100
,
00000000
00000000
00000020
00000000
,
00000000
00000130
00000000
00000000
,
00002000
00000000
00000000
00003100
,
00000000
00000000
00200000
00000000
,
00000000
00301000
00000000
00000000
,
00020000
00000000
00000000
01030000
,
00000000
00000000
20000000
00000000
,
00000000
31000000
00000000
00000000
,
10100000
00000000
00100000
10000000
00010000
00000000
00110000
00000000
,
00010000
00100000
00000100
00000000
00001100
00000000
00001000
00000001
,
00000100
00000000
00000101
00000000
00000001
00001000
00000010
00000000
,
00000110
00000000
00000100
00000001
00001000
00000000
00001100
00000000
,
00000100
00010000
00001000
00000000
00101000
00000000
00100000
00010000
,
01000000
00000000
01010000
00000000
00010000
10000000
00100000
01000000
,
00010000
00000000
00010000
00100000
00001000
00000000
00101000
00000000
,
00100000
00000100
00001000
00000000
00001001
00000000
00000001
00000100
,
00000010
00000000
00001010
00000000
00001000
00000010
00010000
00000000
,
00010000
00001000
00100000
00010000
10000000
00010000
01000000
00100000
,
10000000
00010000
00100000
01000000
10000000
00010000
00100000
00001000
,
00010000
00000010
00001000
00000100
00010000
00001000
01000000
00010000
,
10000000
00000000
00000000
10010000
00000000
00000000
00110000
00000000
,
10010000
00000000
00000000
00000000
01010000
00000000
00000000
01001000
,
00000000
00011000
00010100
00000000
,
00000100
00001000
00000010
00000000
00000100
00000000
00000010
00001000
,
00000001
00000000
00000010
00000000
00000001
00001000
00000010
00000000
,
00000100
00000110
00001010
00001001
,
00000011
00000000
00000000
00001001
00000000
00000000
00001010
00000000
,
00001001
00000000
00000000
00000000
00001100
00000000
00000000
00010100
,
00000000
00011000
01001000
00000000
,
01000000
00010000
10000000
00000000
01000000
00000000
10000000
00010000
,
01000000
00000000
00100000
00000000
10000000
00010000
00100000
00010000
,
10000000
00010000
01000000
00100000
10000000
00010000
00100000
00001000
,
00020000
00000000
00000000
00100000
00000000
00000000
00001000
00000000
,
00001000
00000000
00000000
00000000
00030200
00000000
00000000
00001000
,
00000000
00000010
00000010
00000000
,
00002300
00000000
00000000
00000010
00000000
00000000
00000001
00000000
,
00000000
00000001
00000000
00000000
00003020
00000000
00000000
00000100
,
00000000
00000030
00001010
00000000
00000000
00000010
00010000
00000000
,
00002000
00000000
00000000
00100000
00000000
00000000
00010000
00000000
,
00010000
00000000
00000000
00000000
02003000
00000000
00000000
00010000
,
00000000
00100000
00100000
00000000
,
03010000
10010000
11000000
10010000
,
01010000
00000000
01001000
00000000
00001000
00010000
00001000
00100000
,
00001000
00010000
00000100
00001000
00000010
00000100
00000001
00000010
,
00000200
00000000
00000000
00000000
,
00000000
00000000
00000000
00010000
00020300
00000000
00000000
00000000
,
00000000
00000000
00000000
00000000
00000000
00000000
00000000
00001000
,
00031000
00000000
00000000
01000000
00001000
00000000
00010000
00000000
,
00000000
00000100
00010000
00000000
00001000
00000000
00000000
00100000
,
00001000
00011000
00101000
01100000
,
01000000
10000000
00010000
01000000
00100000
00000000
00100000
10000000
,
00010000
00100000
00001000
00000000
00001000
00010000
00000010
00001000
,
00000010
00000000
00000010
00000100
00000001
00001000
00000100
00000000
,
00000100
00000010
00000001
00000010
00000100
00000000
00010000
00001000
,
00100000
00001000
00010000
00000000
00001000
01000000
00010000
01000000
,
00001000
01000000
00010000
00100000
01000000
00100000
00010000
10000000
,
00100000
01000000
00010000
00100000
00001000
00010000
00000010
00001000
,
00000001
00000100
00000010
00001000
00000100
00010000
00001000
00100000
,
00001000
00100000
00010000
10000000
01000000
00100000
01000000
10000000
,
00010000
01000000
00100000
01000000
00100000
01000000
00010000
00000000
,
00000000
00000000
10000000
00000000
10010000
00000000
00010000
00100000
,
01000000
10000000
00010000
00000000
01010000
00000000
10010000
00000000
,
11000000
00000000
01000000
10000000
00010000
01000000
00001000
00000000
,
01001000
00000000
00011000
00000000
00010100
00000000
00000100
00010000
,
00000001
00000000
00000101
00000000
00000100
00000001
00001000
00000000
,
00001100
00000000
00000100
00001000
00000010
00000000
00000110
00000000
,
00001001
00000000
00001100
00000000
00000100
00001000
00000001
00001000
,
00000010
00000100
00000001
00000000
00000101
00000000
00000001
00000010
,
00000100
00000000
00001100
00000000
00001000
00000100
00010000
00000000
,
00011000
00000000
00001000
01000000
00100000
10000000
00100000
01000000
,
00010000
00100000
00010000
10000000
00010000
00100000
00001000
00010000
,
00000100
00001000
00000100
00000010
00000100
00001000
00000001
00000100
,
00000010
00000100
00000001
00000100
00000010
00001000
00000001
00000010
,
00000100
00010000
00001000
01000000
00100000
10000000
00010000
00100000
,
02000000
00000000
00000000
00000000
,
00000000
00000000
00000000
00000000
,
00000000
00000000
13000000
00000000
00010000
10000000
00010000
00000000
,
01000000
00100000
10000000
00010000
,
00100000
00001000
00010000
00000010
,
00000100
00000001
00000010
00000200
00000000
00000000
00000000
00000000
,
00000000
00000000
00000000
00000000
00000000
00000300
00000000
00000000
;

//---------------dance-double - MEGAtive----------------
#NOTES:
     dance-double:
     :
     Hard:
     14:
     0.594902,0.664134,0.319287,0.251354,0.000000,613.000000,566.000000,47.000000,37.000000,0.000000,0.000000,0.594902,0.664134,0.319287,0.251354,0.000000,613.000000,566.000000,47.000000,37.000000,0.000000,0.000000:
// measure 0
00000000
00000000
00000000
00000000
,  // measure 1
00000000
00000000
00000000
00000000
,  // measure 2
00000000
00000000
00000000
00000000
,  // measure 3
00000000
00000000
00000000
00000000
,  // measure 4
00000000
00000000
00000000
00000000
,  // measure 5
00000000
00000000
00000000
00000000
,  // measure 6
00000010
00000000
00000100
00000010
00001000
00000000
00000100
00000000
,  // measure 7
00010000
00001000
01000000
00000000
00100000
00000000
01000000
00010000
,  // measure 8
00100000
00000000
01000000
00000000
10000000
00100000
01000000
00000000
,  // measure 9
00010000
00100000
01000000
10000000
00100000
01000000
00001000
00010000
,  // measure 10
00000100
00000010
00000001
00000100
00000010
00010000
00001000
00100000
,  // measure 11
01000000
10000000
00010000
00000000
01010000
00000000
10010000
00000000
,  // measure 12
11000000
00000000
01000000
10000000
00010000
00000000
01010000
00000000
,  // measure 13
01000000
00001000
00010000
00000000
00011000
00000000
00010000
00000100
,  // measure 14
00000010
00000000
00000011
00000000
00000010
00000001
00000100
00000000
,  // measure 15
00000110
00000000
00000100
00000010
00001000
00000000
00001100
00000000
,  // measure 16
00001000
00000100
00010000
00000000
00011000
00000000
00001000
01000000
,  // measure 17
00010000
01010000
10010000
11000000
,  // measure 18
01000000
10000000
00010000
01000000
00010000
00000000
00010000
01000000
,  // measure 19
00001000
00010000
00000100
00000000
00000100
00001000
00000001
00000100
,  // measure 20
00000001
00000000
00000001
00000100
00000001
00001000
00000100
00000010
,  // measure 21
00000100
00000000
00000100
00001000
00000001
00001000
00000010
00000000
,  // measure 22
00000010
00001000
00000100
00010000
00001000
00100000
00010000
10000000
,  // measure 23
00100000
01000000
00010000
10000000
01000000
00010000
00000100
00000010
,  // measure 24
00000002
00000000
00000000
00001000
,  // measure 25
00000000
00000000
00020003
00000000
,  // measure 26
00000000
00000100
00000000
00000000
,  // measure 27
00032000
00000000
00000000
01000000
,  // measure 28
00000000
00000000
20003000
00000000
,  // measure 29
00000000
01000000
00000000
00000000
,  // measure 30
30002000
00000000
00000000
00100000
,  // measure 31
00000000
00000000
00023000
00000000
,  // measure 32
00000000
00000100
00000000
00000000
,  // measure 33
00030020
00000000
00000000
00000100
,  // measure 34
00000000
00000000
00002030
00000000
,  // measure 35
00000000
00000001
00000000
00000000
,  // measure 36
00003100
00001000
00000100
00000010
00000100
00010000
00001000
01000000
,  // measure 37
00100000
00010000
00100000
10000000
01000000
00100000
01000000
10000000
,  // measure 38
01000000
00010000
00001000
00010000
00000001
00000100
00000010
00000100
,  // measure 39
00000001
00000010
00000100
00000010
00000001
00001000
00000100
00010000
,  // measure 40
00001000
01000000
00100000
10000000
00100000
01000000
00010000
00100000
,  // measure 41
01000000
00100000
00001000
00010000
00000010
00001000
00000001
00000010
,  // measure 42
00000100
00001000
00000100
00000010
00000100
00010000
00001000
01000000
,  // measure 43
00100000
00010000
00100000
10000000
01000000
00100000
01000000
10000000
,  // measure 44
01000000
00010000
00001000
00010000
00000010
00000100
00000001
00000100
,  // measure 45
00000010
00001000
00000001
00000010
00001000
00000001
00000100
00001000
,  // measure 46
00000010
00010000
00001000
00100000
01000000
10000000
00010000
01000000
,  // measure 47
10000000
00010000
00100000
10000000
00001000
00010000
01000000
00100000
,  // measure 48
01100000
01000000
00000000
11000000
10000000
00000000
10010000
00000000
,  // measure 49
01010000
00000000
01000000
00001000
00011000
00010000
00000000
00001100
,  // measure 50
00001000
00000000
00001001
00000000
00000101
00000000
00000100
00000001
,  // measure 51
00001000
00000100
00001000
00000001
00000010
00000001
00010000
00001000
,  // measure 52
01000000
00100000
01000000
00010000
10000000
01000000
10000000
00010000
,  // measure 53
00100000
00010000
01000000
10000000
01000000
00100000
01000000
00010000
,  // measure 54
01010000
01000000
00000000
00110000
00010000
00000000
10010000
00000000
,  // measure 55
01010000
00000000
01000000
00001000
00011000
00010000
00000000
00010100
,  // measure 56
00000100
00000000
00000110
00000000
00001001
00000000
00001000
00000100
,  // measure 57
00001000
00000010
00001000
00000001
00000010
00000001
00000100
00001000
,  // measure 58
00000100
00000010
00001000
00000100
00010000
00001000
01000000
00100000
,  // measure 59
00001000
00100000
10000000
01000000
00100000
00001000
00000100
00000001
,  // measure 60
00002000
00000000
00000000
00000010
00000000
00000000
00003002
00000000
,  // measure 61
00000023
00000000
00000230
00000000
00020300
00000000
00000000
00100000
,  // measure 62
00000000
00032000
00203000
02300000
,  // measure 63
23000000
00000000
00000000
00100000
00000000
00000000
30020000
00000000
,  // measure 64
00000000
00230000
00302000
00000000
00023000
00000000
00000000
00000010
,  // measure 65
00000000
00000000
00000200
00000000
00000000
00030300
00010100
00000000
,  // measure 66
00000200
00000000
00000000
00010000
00000000
00000000
00002300
00000000
,  // measure 67
00003020
00000000
00000230
00000000
00002300
00000000
00000000
00100000
,  // measure 68
00000000
00023000
00230000
01300000
,  // measure 69
01010000
10010000
11000000
00110000
,  // measure 70
00011000
00000000
00001010
00000000
00001000
00000001
00000010
00000100
,  // measure 71
00010000
00000010
00000100
00001000
00100000
01000000
10000000
00010000
,  // measure 72
20010000
00000000
00000000
00000000
,  // measure 73
00000000
00000000
00000000
00001000
30002000
00000000
00000000
00000000
,  // measure 74
00000000
00000000
00000000
00000000
00000000
00000000
00100000
00100000
,  // measure 75
00203000
00000000
00000000
00000010
00300010
00000000
00000020
00000000
,  // measure 76
00000000
00001000
00001000
00000000
00002030
00000000
00000000
00000001
,  // measure 77
00003001
00001001
00000110
00010010
,  // measure 78
00010000
00001000
00100000
00010000
01000000
00100000
01000000
00010000
,  // measure 79
10000000
01000000
00100000
00001000
00010000
00000010
00000100
00000010
,  // measure 80
00001000
00000100
00000010
00000100
00001000
00000001
00000100
00001000
,  // measure 81
00010000
00001000
00100000
00010000
01000000
00100000
10000000
01000000
,  // measure 82
00100000
01000000
10000000
00010000
01000000
10000000
01000000
00100000
,  // measure 83
01000000
10000000
01000000
00010000
00100000
01000000
00100000
00010000
,  // measure 84
00100000
01000000
10000000
00010000
01000000
00001000
00010000
00000100
,  // measure 85
00000010
00000001
00000100
00000010
00010000
00001000
00100000
01000000
,  // measure 86
10000000
00001000
00010000
00100000
00010000
00001000
00100000
00001000
,  // measure 87
00010000
00000100
00000010
00000001
00000100
00001000
00100000
00000000
,  // measure 88
00000000
00000000
00110000
00000000
00100000
00010000
01000000
10000000
,  // measure 89
01000000
00010000
00100000
01000000
00100000
00001000
00010000
00000010
,  // measure 90
00000100
00001000
00000100
00000001
00000010
00001000
00000010
00000100
,  // measure 91
00001000
00000100
00010000
00001000
01000000
10000000
01000000
00010000
,  // measure 92
01000000
00100000
10000000
01000000
00010000
01000000
10000000
00100000
,  // measure 93
00010000
00000100
00000010
00000001
00000100
00000000
00000110
00000000
,  // measure 94
00010010
00000000
00010100
00000000
00000100
00001000
00000010
00000001
,  // measure 95
00000010
00001000
00000100
00000010
00000100
00010000
00001000
00100000
,  // measure 96
00010000
00000000
10010000
00000000
10000000
00100000
10100000
00000000
,  // measure 97
01100000
00000000
01000000
00010000
00100000
10000000
00100000
01000000
,  // measure 98
00100000
00001000
00010000
00000010
00001000
00000010
00000100
00000010
,  // measure 99
00001000
00000001
00010000
00000100
00100000
00001000
10000000
00100000
,  // measure 100
10000000
00010000
01000000
00010000
10000000
01000000
00010000
00001000
,  // measure 101
00000100
00000001
00000010
00001000
00010000
00100000
10000000
01000000
,  // measure 102
00200000
00000000
00000000
00000000
,  // measure 103
00000000
00000000
00300000
00000000
,  // measure 104
00010000
00100000
00010000
00000000
00100000
00001000
00010000
00000000
,  // measure 105
00000010
00000100
00000001
00001000
,  // measure 106
00000100
00010000
00001000
01000000
,  // measure 107
00100000
10000000
00010000
00220000
00000000
00000000
00000000
00000000
,  // measure 108
00000000
00000000
00000000
00000000
00000000
00330000
00000000
00000000
;
