#TITLE:バビロニア;
#SUBTITLE:;
#ARTIST:劇団レコード;
#TITLETRANSLIT:BABYLONIA;
#SUBTITLETRANSLIT:;
#ARTISTTRANSLIT:Gekidan Record;
#GENRE:;
#CREDIT:;
#MUSIC:BABYLONIA.ogg;
#BANNER:BABYLONIA.png;
#BACKGROUND:BABYLONIA-bg.png;
#CDTITLE:./CDTITLES/BEATMANIA IIDX.PNG;
#SAMPLESTART:68.049;
#SAMPLELENGTH:15.000;
#SELECTABLE:YES;
#OFFSET:0.000;
#BPMS:0.000=164.000;
#STOPS:;
#BGCHANGES:0.000=BABYLONIA.avi=1.000=0=0=0=StretchNoLoop====,
99999.000=-nosongbg-=1.000=0=0=0=StretchNoLoop====
;
#FGCHANGES:;

//--------------- dance-double - TO8P Team 4 "t7r" ----------------
#NOTES:
     dance-double:
     TO8P Team 4 "t7r":
     Hard:
     14:
     0,0,0,0,0:
00000000
00000000
00000000
00000000
,
00000000
00000000
00000000
00000000
,
00000000
00000000
00000000
00000000
,
00000000
00000000
00000000
00000000
,
00000000
00000000
00000000
00000000
,
00000000
00000000
00000000
00000000
,
00000000
00000000
00000000
00000000
,
01100000
00000000
00000000
00010000
01000000
00010000
00100000
00000000
00000000
00101000
00000000
00000000
,
00011000
00000000
00000000
00010100
00000000
00000000
00000110
00000000
00000000
00000001
00000100
00000001
,
00000010
00000000
00000001
00000100
00000020
00000000
00010030
00000000
,
00000110
00000000
00000000
00001000
00000100
00010000
00001000
00000000
00000000
01001000
00000000
00000000
,
01100000
00000000
00000000
10100000
00000000
00000000
10020000
00000000
00000000
10030000
01000000
00100000
,
00001000
00000000
00010000
00001000
00020000
00000000
00032000
00000000
,
00003010
00000001
00000100
00001000
00000100
00000010
00001000
00000000
,
00001100
00000000
00001000
00010000
00100000
00000000
00110000
00000000
,
10010000
01100000
10010000
11000000
,
00100000
10000000
01000000
00010000
01000000
00100000
00010000
00000000
,
00001000
00000100
00000001
00000100
00001000
00000010
00000001
00000010
,
00001000
00010000
01000000
00100000
10000000
00010000
10000000
01000000
,
00100000
00010000
01000000
10000000
01000000
00100000
10000000
00000000
,
01010000
00000000
00010000
00001000
00000010
00000000
00000011
00000000
,
00001001
00000101
00000110
00001010
,
00000010
00001000
00000100
00000001
00000100
00000010
00000001
00000000
,
00000100
00000010
00001000
00010000
01000000
10000000
01000000
00010000
,
01000000
00100000
10000000
01000000
00010000
00001000
00000100
00000001
,
00000100
00001010
00011000
01000000
,
00110000
00000000
00011000
00000000
00000001
00000100
00001000
00010000
,
00100000
10000000
00100000
00000000
00022000
00000000
00033000
00000000
,
01000000
01000000
00100000
10000000
,
02000000
00000000
03010000
00010000
,
00001000
00000010
00000002
00000000
,
00000103
00000100
00001000
00010000
,
00200000
20300000
31000000
01000000
,
00010000
00002000
00003020
00000030
,
00000011
00000000
00000001
00000100
00001000
00000000
00110000
00000000
,
20020000
00000000
30030000
00000000
10100000
00000000
10000000
01000000
,
00010000
00001010
00002002
00003003
,
00000101
00000000
00000001
00000100
00001000
00000000
00020000
00000000
,
00230000
00000000
20300000
00000000
30200000
00000000
00000000
01300000
,
00010000
00001000
00000100
00000000
00000110
00000000
00001001
00000000
,
00000001
00000000
00000000
00000010
00000000
00000000
00000200
00000000
00000000
00000000
00000000
00000000
00010300
00000000
00001000
00000000
01000000
00000000
00020000
00000000
00000000
00000000
00000000
00000000
,
10030000
01000000
10000000
00200000
00000000
00000000
01300000
00000000
00000000
01001000
00000000
00000000
,
00101000
00000000
00000000
00011000
00000000
00000000
00001000
00010000
00000010
00002000
00000000
00000000
,
00003001
00000010
00000100
00000010
00000001
00000000
00000201
00000000
,
00000301
00000100
00000010
00000200
00000000
00000000
00000310
00000000
00000000
00010010
00000000
00000000
,
00011000
00010100
01001000
00010100
,
00001000
00000000
00000000
00010000
00000000
00000000
00012000
00000000
00000000
00000000
00000000
00000000
00023000
00000000
00000000
00000000
00000000
00000000
00031000
00000000
01000000
00000000
00200000
00000000
,
00000000
00000000
00000000
10300000
00000000
00000000
01000000
00100000
00002000
00000000
00000000
00000000
,
00013000
00000020
00000000
00002030
,
00003200
00000000
00000000
00000000
00000301
00000100
00002000
00000000
,
00000000
00000000
00000000
00013000
01000000
00010000
20000000
00000000
00000000
00000000
00000000
00000000
,
30100000
01000000
00010000
00000000
01010000
00000000
00101000
00000000
,
00010000
00001000
00020000
00000000
00000000
00000000
00032000
00000000
00000000
00013000
00000100
00000020
,
00000000
00000000
00000000
00000031
00000000
00000000
00000100
00000010
00020000
00000000
00000000
00000000
,
00032000
00000000
02003000
00000000
00000000
03100000
10000000
01000000
,
00020000
00000000
00000000
00000000
00001000
00000000
00000000
00000000
00030010
00000000
00000100
00000010
00000200
00000000
00000000
00000000
,
00000310
00001000
00000001
00002000
00000000
00000000
00003002
00000000
00000000
00000100
00000000
00000000
,
00002003
00000000
00000000
00000000
00003100
00010000
00001000
00010000
00002000
00000000
00000000
00000000
01000000
00000000
00000000
00000000
,
00010000
00000000
00103000
00000000
00001000
01000000
00100000
00000000
,
10000000
00000000
01000000
00000000
00100000
00000000
00002000
00000000
00000000
00000000
00000000
00000000
00013000
00000000
00000000
00001000
00000000
00000000
00022000
00000000
00000000
00000000
00000000
00000000
,
00000000
00000000
00000000
00000000
00000000
00000000
00033000
00000000
00000000
00000000
00000000
00000000
01000000
00000000
00100000
00000000
01000000
00000000
00100000
00000000
00000000
10000000
00000000
00000000
,
00010000
00000000
00000000
00000000
00000000
00000000
00100000
00000000
00001000
00000000
00100000
00000000
00001000
00000000
00000000
00010000
00000000
00000000
00001000
00000000
00000000
00000000
00000000
00000000
,
00010000
00001000
00000010
00000100
00001000
00000000
00000001
00001000
,
00010000
00100000
01000000
00100000
00010000
01000000
10000000
01000000
,
00100000
00000000
10000000
00000000
00100000
00000000
10000000
00000000
00000000
01000000
00000000
00000000
00100000
00000000
00000000
00001000
00000000
00000000
00010000
00000000
00000000
00000010
00000000
00000000
,
00000100
00000000
00000000
00000110
00000000
00000000
00010010
00000000
00000000
00010000
00001000
00010000
,
00001000
00000000
00000000
01000000
00000000
00000000
00100000
00000000
00000000
00000000
00000000
00000000
10000000
00000000
01000000
00000000
00100000
00000000
00010000
00000000
00000000
01000000
00000000
00000000
,
00001000
00000000
00000000
00000000
00000000
00000000
00010000
00000000
00000010
00000000
00000100
00000000
00000010
00000000
00000000
00001000
00000000
00000000
00000001
00000000
00000000
00000000
00000000
00000000
,
00000010
00000100
00001000
00010000
01000000
00100000
10000000
00100000
,
01000000
00000000
00000000
00000000
00000000
00000000
01001000
00000000
00000000
00001000
00000000
00000000
00100000
00000000
00000000
00000000
00000000
00000000
00001000
00000000
01000000
00000000
00001000
00000000
,
00010000
00000000
00011000
00000000
00010000
00000010
00000200
00000000
,
00000301
00001000
00000001
00001000
00000002
00000000
00000000
00000000
00000100
00000000
00000000
00000000
00001000
00000000
00000000
00000000
,
00000010
00000000
00000000
00000000
00000000
00000000
00001003
00000000
00000000
00000100
00000000
00000000
00010100
00000000
00000000
00000000
00000000
00000000
00001000
00000000
01000000
00000000
00010000
00000000
,
10000000
11000000
01100000
00101000
,
00001000
00010000
00002000
00000000
00000000
00000000
00000000
00000000
00000000
00000000
00000000
00000000
00000000
00000000
00000000
00000000
,
00000000
00000000
00000000
00000000
00003000
00000000
00000000
00000000
00011000
00000000
00000000
00000000
00001000
01000000
00001000
01000000
,
00001000
01100000
10100000
11000000
,
01100000
00000000
00000000
00000000
00100000
00001000
00100000
00001000
00100000
00000000
00000000
00000000
00001000
00000000
00000010
00000000
,
00000001
00000000
00000000
00000000
00000110
00000000
00000000
00000000
00000101
00000000
00000000
00000000
00000001
00000100
00000001
00000100
,
00000001
00000110
00010010
00011000
,
01100000
00000000
00000000
00000000
00100000
01000000
00100000
01000000
00100000
00000000
00000000
00000000
10020000
00000000
00000000
00000000
,
00100000
00000000
00000000
00000000
00000000
00000000
10030000
00000000
00000000
00000000
00000000
00000000
00010000
00000000
00100000
00000000
01000000
00000000
00100000
00000000
00000000
00010000
00000000
00000000
,
00000010
00000000
00000100
00001000
01000000
00010000
00001000
00000000
,
01000000
01000000
00010000
00010000
00001000
00001000
00000100
00000000
,
00022000
00000000
00000000
00000000
,
00000000
00000000
00000000
00000000
,
00033000
00000000
00000000
00000000
;
