#TITLE:conflict;
#SUBTITLE:;
#ARTIST:siromaru + Cranky;
#TITLETRANSLIT:;
#SUBTITLETRANSLIT:;
#ARTISTTRANSLIT:;
#GENRE:;
#CREDIT:;
#MUSIC:conflict.ogg;
#BANNER:conflict.png;
#BACKGROUND:conflict-bg.png;
#CDTITLE:;
#SAMPLESTART:12.750;
#SAMPLELENGTH:15.000;
#SELECTABLE:YES;
#OFFSET:0.000;
#BPMS:0.000=160.000
,164.000=80.000
,180.000=160.000
;
#STOPS:;
#BGCHANGES:;
#FGCHANGES:;

//--------------- dance-double - ----------------
#NOTES:
     dance-double:
     :
     Challenge:
     18:
     0,0,0,0,0:
00000000
00000000
00000000
00000000
,
00000000
00000000
00000000
00000000
,
00000000
00000000
00000000
00000000
,
00000000
00000000
00000000
00000000
,
00000000
00000000
00000000
00000000
,
00010000
00001000
01000000
00010000
10000000
01000000
00100000
00001000
,
00010000
00000010
00000100
00000001
00001000
00000010
00010000
00001000
,
00100000
00010000
10000000
00100000
01000000
00001000
00010000
00000100
,
00000010
00000100
00001000
00000000
00000100
00001000
00000001
00000000
00000100
00000010
00001000
00000000
00000010
00010000
00000010
00010000
,
00001000
01000000
00010000
01000000
00001000
01000000
00010000
01000000
00100000
10000000
00010000
10000000
01000000
00100000
00010000
01000000
,
00001000
00010000
00000010
00001000
00000001
00001000
00000010
00001000
00000001
00000010
00000100
00001000
00000001
00001000
00000100
00010000
,
00001000
00100000
00010000
00100000
00001000
00100000
00010000
10000000
00100000
01000000
00010000
01000000
00100000
10000000
00010000
00100000
,
01000000
00100000
00001000
00010000
00000010
00001000
00000010
00000100
00000010
00001000
00000010
00000100
00000001
00001000
00000100
00010000
,
00001000
01000000
00010000
01000000
00001000
01000000
00010000
10000000
01000000
00100000
00010000
00100000
01000000
10000000
00010000
01000000
,
00100000
01000000
00001000
00010000
00000100
00001000
00000100
00000010
00000100
00001000
00000100
00000010
00000001
00001000
00000010
00010000
,
00001000
00000000
00100000
00001000
00100000
00000000
00000010
00010000
00000010
00000000
00100000
00001000
00100000
00000000
00001000
00000000
,
00020000
00000000
00000000
00030010
00000200
00000000
00000000
00000301
00001000
00000000
00000100
00010000
00001000
00000000
00000000
00000000
,
00010000
00000010
00001000
00000010
00010000
00000010
00001000
00000010
00000100
00000001
00001000
00000001
00000010
00000100
00001000
00000010
,
00010000
00001000
01000000
00010000
10000000
00010000
01000000
00010000
10000000
01000000
00100000
00010000
10000000
00010000
00100000
00010000
,
01000000
00010000
00100000
00010000
01000000
00001000
00010000
00000100
00000010
00000001
00001000
00000100
00001000
00000001
00000100
00000010
,
00010000
00001000
00010000
00000010
00000100
00000001
00001000
00000001
00000100
00000001
00001000
00000010
00010000
00001000
01000000
00010000
,
10000000
00010000
01000000
00100000
00010000
00100000
01000000
00010000
10000000
01000000
00100000
01000000
00010000
00001000
00010000
00000010
,
00001000
00000001
00000100
00001000
00000100
00000010
00001000
00000001
00000010
00000100
00000010
00001000
00010000
00001000
01000000
00010000
,
10000000
01000000
00100000
00010000
10000000
01000000
00100000
00001000
00010000
00000100
00001000
00000001
00000100
00000010
00010000
00001000
,
00100000
00010000
10000000
00100000
01000000
00001000
00010000
00000010
00000100
00000001
00001000
00000100
00010000
00000000
00000000
00000000
,
00001000
00000000
00M01000
00000100
00010000
00000000
00001000
00000000
00M01000
00000100
00000010
00000000
00001000
00000000
00M01000
00000100
,
00000010
00000000
00001000
00000000
00M01000
00000100
00000010
00000000
00001000
00010000
00001000
00000000
01000000
00000000
00100000
00000000
,
00010000
00000000
000100M0
01000000
00001000
00000000
00010000
00000000
000100M0
01000000
00100000
00000000
00010000
00000000
000100M0
01000000
,
00100000
00000000
00010000
00000000
000100M0
01000000
00100000
00000000
00010000
00001000
00000100
00000000
00001000
00000100
00000010
00000100
,
00000001
00000000
00001000
00000100
00010000
00000000
00001000
00000000
0M001000
00000010
00000100
00000000
00001000
00000000
0M001000
00000010
,
00000100
00000000
00001000
00000000
0M001000
00000010
00000100
00000000
00001000
00010000
00001000
00000000
00100000
00000000
01000000
00000000
,
00010000
00000000
00010M00
00100000
00001000
00000000
00010000
00000000
00010M00
00100000
01000000
00000000
00010000
00000000
01000000
10000000
,
00200000
00000000
00310000
00000000
00001000
00000000
00010000
00010000
00001000
00100000
00010000
00000000
01000000
00001000
01000000
00001000
,
00010000
00000000
00000100
00001000
00010000
00000000
000100M0
00000000
00000100
00001000
00010000
00000000
000100M0
00000000
00000100
00001000
,
00010000
00000000
000100M0
00000000
00000100
00001000
00000001
00000000
00000010
00000100
00000010
00000000
00001000
00000000
00010000
00010000
,
00001000
00000000
01000000
00010000
00001000
00000000
00M01000
00000000
01000000
00010000
00001000
00000000
00M01000
00000000
01000000
00010000
,
00001000
00000000
00M01000
00000000
01000000
00010000
10000000
00000000
00100000
01000000
00100000
00000000
00010000
00001000
00010000
00001000
,
01000000
00000000
00001000
00010000
00001000
00000000
00010000
00000000
00000010
00001000
00010000
00000000
00010M00
00000000
00000010
00001000
,
00010000
00000000
00010M00
00000000
00000010
00001000
00000001
00000000
00000100
00000010
00000100
00000010
00001000
00000000
00000001
00001000
,
00000100
00010000
00000100
00000000
01000000
00001000
01000000
00000000
00000100
00010000
00000100
00010000
00001000
01000000
00001000
01000000
,
00100000
00000000
00000000
10100000
00000000
00000000
01100000
00000000
00000000
01001000
00000000
00000000
00041000
00000000
00000000
00000000
,
M003010M
00000000
00000010
00000100
00000001
00000000
00000100
00001000
00000001
00000000
00000100
00000010
00010000
00000000
00001000
00000000
,
00100000
00000000
00000000
00000000
00010000
00000000
00100000
00000000
01000000
00000000
10000000
00000000
00010000
00000000
01000000
00000000
00100000
00000000
00000000
00000000
00000000
00000000
01000000
00100000
01000000
00000000
00000000
00000000
00001000
00000000
00000000
00000000
,
00010000
00000000
00000100
00010000
00001000
00010000
00000100
00000010
00001000
00000000
00100000
00001000
00010000
00001000
00100000
01000000
,
00010000
00000000
00000000
00000000
00001000
00000000
00010000
00000000
00000010
00000000
00000000
00000000
00000100
00000000
00000010
00000000
00000100
00000000
00000010
00000100
00000001
00000100
00000010
00000100
00000001
00000000
00001000
00000000
00000100
00000000
00010000
00000000
,
M000100M
01000000
00100000
01000000
10000000
01000000
00100000
01000000
,
00001000
00010000
00000100
00000010
00001000
00010000
00000100
00010000
,
00001000
00100000
01000000
00100000
10000000
00100000
01000000
10000000
,
00010000
01000000
00001000
00010000
00000010
00000100
00000001
00000100
,
00000010
00010000
00001000
00100000
01000000
00010000
01000000
00100000
,
00001000
00010000
00000010
00000100
00001000
00000100
00000010
00010000
,
00001000
00100000
01000000
10000000
00010000
01000000
00100000
01000000
,
00001000
00000000
00010000
00000000
00000100
00000000
00000010
00000000
00000001
00000000
00000000
00000000
00000101
00000000
00000000
00000100
,
00000020
00000000
00000000
00000000
,
00000000
00000000
00000000
00000000
00000000
00000000
00000000
00000000
00000000
00000000
00000000
00000000
00010030
00000000
00000000
0001M000
,
01000000
00000000
00010000
00000000
00000000
0M010000
00001000
00000000
00010000
00000000
00000000
0001M000
01000000
00000000
00010000
00000000
,
00000000
0M010000
00001000
00000000
00000100
00000000
00000001
00000000
00001000
00000000
00000000
00000000
00001000
00000000
00000000
00000000
,
00000100
00000000
00000000
00010000
00000000
00010000
00001000
01000000
00010000
00000000
00000000
00000000
00010000
00000000
00000000
00000000
,
10000000
00000000
00010000
10000000
01000000
00000000
00000000
00000000
02000000
00000000
03010000
00001000
00010000
00001000
00010000
00000000
,
00000010
00001000
00000100
00001000
00000010
00000100
00000001
00000000
00001000
00000100
00000010
00000000
00001000
00000000
00001000
00010000
,
00000100
00000000
00001000
00000100
00000010
00000000
00000001
00000000
00001000
00000010
00000100
00000000
00000001
00000000
00001000
00000010
,
00000100
00000000
00000001
00000000
00001000
00000010
00000100
00000000
00001000
00000000
00010000
00000000
00000100
00000000
00010000
00001000
,
01000000
00000000
00010000
00000000
00100000
01000000
10000000
00000000
00010000
00000000
00100000
01000000
10000000
00000000
00010000
00000000
,
00100000
01000000
10000000
00000000
00100000
00000000
01000000
00000000
00001000
00000000
00010000
00000010
00001000
00000000
00000001
00000000
,
00001000
00000100
00000010
00000000
00000001
00000000
00001000
00000100
00000010
00000000
00000001
00000000
00001000
00000100
00000010
00000000
,
00001000
00010000
00002000
00000000
01000000
00000000
01000000
00000000
01000000
00000000
01000000
00000000
01003000
00000000
00100000
01000000
,
00000000
01000000
00001000
00010000
00000010
00000000
00000100
00000000
00002000
00000000
00013000
00000010
00001000
00000010
00001000
00000000
,
00000001
00000100
00000001
00000100
00000000
00000000
00020022
00030033
00000000
00020022
00030033
00000000
00020022
00030033
00000000
00020022
,
00030033
00000000
00020022
00030033
00000000
00020022
00030033
00000000
00001000
00010000
00001000
00010000
00001000
00000000
00000000
02020200
,
03030300
00000000
02020200
03030300
00000000
02020200
03030300
00000000
02020200
03030300
00000000
02020200
03030300
00000000
02020200
03030300
,
00000000
02020200
03030300
00000000
00010000
00001000
00010000
00001000
01000000
00010000
10000000
01000000
10000000
00010000
00100000
00010000
,
10000000
01000000
10000000
00010000
00100000
00010000
10000000
00100000
01000000
00001000
00010000
00000010
00001000
00000001
00000100
00000010
,
00001000
00000100
00000010
00000001
00000100
000M0100
00000100
00000001
00002000
00000000
00000000
00000000
00003100
00010000
00001000
00010000
,
00000100
00000000
02000000
00000000
03010000
00000000
00000000
10010000
00000000
00000000
11000000
00000000
01000000
00100000
00002000
00000000
,
00020000
00000000
00033000
00000000
00010000
00000010
00001000
00000010
00010000
00000010
00001000
00000010
00000100
00000001
00001000
00000001
,
00000010
00000100
00001000
00000010
00010000
00001000
01000000
00010000
10000000
00010000
01000000
00010000
10000000
01000000
00100000
00010000
,
10000000
00010000
00100000
00001000
00010000
00000100
00001000
00000100
00010000
00000100
00001000
00000001
00000100
00000010
00001000
00000010
,
00000100
00000001
00001000
00000100
00000010
00000100
00010000
00001000
01000000
00010000
01000000
00100000
01000000
00010000
01000000
00100000
,
10000000
00010000
00100000
00001000
00010000
00000010
00001000
00000010
00010000
00000010
00001000
00000001
00000010
00000100
00001000
00000100
,
00000010
00000001
00001000
00000010
00000100
00000010
00010000
00001000
00100000
00010000
00100000
01000000
00100000
00010000
00100000
01000000
,
10000000
00010000
01000000
00001000
00010000
00000000
00000100
00010000
00000100
00000000
01000000
00001000
01000000
00000000
00000100
00010000
,
00000100
00000000
00010000
00000000
00002000
00000000
00000000
01003000
00200000
00000000
00000000
10300000
00010000
00000000
00100000
00001000
,
00010000
00000000
00000000
00000000
00001000
01000000
00010000
01000000
00001000
01000000
00010000
01000000
00100000
10000000
00010000
10000000
,
01000000
00100000
00010000
01000000
00001000
00010000
00000010
00001000
00000001
00001000
00000010
00001000
00000001
00000010
00000100
00001000
,
00000001
00001000
00000100
00001000
00000010
00001000
00000100
00001000
00000010
00010000
00001000
00100000
01000000
10000000
00010000
00100000
,
00010000
10000000
00100000
01000000
00001000
00010000
00001000
01000000
00100000
10000000
00010000
10000000
00100000
10000000
00010000
01000000
,
00001000
00010000
00000010
00001000
00000001
00001000
00000010
00000100
00001000
00000100
00000010
00001000
00000001
00000010
00000100
00000010
,
00001000
00010000
00001000
01000000
00010000
10000000
00100000
00010000
00100000
01000000
00010000
10000000
01000000
00100000
01000000
00010000
,
00001000
00010000
00000010
00001000
00000001
00000010
00000100
00001000
00000001
00000010
00000100
00010000
00001000
00100000
00010000
10000000
,
00100000
01000000
00001000
00010000
00000010
00000100
00000001
00000010
00000100
00010000
00001000
01000000
00100000
10000000
01000000
00100000
,
00001000
00010000
00000100
00000010
00000001
00000000
00000010
00000000
00010000
00000000
00000010
00000000
00000001
00000000
00000010
00000000
,
00010000
00000000
00000010
00000000
00000100
00000000
00010000
00000000
01000000
00000000
00010000
00000000
00000100
00000000
00010000
00001000
,
01000000
00010000
10000000
00100000
01000000
00010000
01000000
00100000
10000000
00010000
00100000
01000000
00010000
00001000
00000010
00000100
,
00001000
00000001
00000010
00000100
00020000
00000000
00000000
00000000
00000000
00000000
00000000
00000000
00000000
00000000
00000000
00000000
,
00000000
00030000
00000000
00000000
;
