#VERSION:0.83;
#TITLE:Vairocana;
#SUBTITLE:;
#ARTIST:五条式改;
#TITLETRANSLIT:;
#SUBTITLETRANSLIT:;
#ARTISTTRANSLIT:;
#GENRE:;
#ORIGIN:;
#CREDIT:Telperion;
#BANNER:Vairocana-bn.png;
#BACKGROUND:Vairocana-bg-ws.png;
#PREVIEWVID:;
#JACKET:Vairocana-jk.png;
#CDIMAGE:;
#DISCIMAGE:Vairocana-bg-fs.png;
#LYRICSPATH:;
#CDTITLE:;
#MUSIC:Vairocana.ogg;
#OFFSET:-1.077000;
#SAMPLESTART:28.370001;
#SAMPLELENGTH:19.862000;
#SELECTABLE:YES;
#BPMS:0.000=290.000,
228.000=250.000,
234.000=270.000,
240.000=290.000;
#STOPS:;
#DELAYS:;
#WARPS:;
#TIMESIGNATURES:0.000=4=4;
#TICKCOUNTS:0.000=4;
#COMBOS:0.000=1;
#SPEEDS:0.000=1.000=0.000=0,
120.000=2.000=12.000=0;
#SCROLLS:0.000=0.500,
502.000=0.250;
#FAKES:;
#LABELS:0.000=Song Start;
#BGCHANGES:;
#KEYSOUNDS:;
#ATTACKS:
;

//---------------dance-double - Telperion----------------
#NOTEDATA:;
#CHARTNAME:Telperion;
#STEPSTYPE:dance-double;
#DESCRIPTION:Telperion;
#CHARTSTYLE:;
#DIFFICULTY:Challenge;
#METER:18;
#RADARVALUES:0.791795,1.265923,0.085666,0.171331,0.102799,647.000000,637.000000,10.000000,20.000000,6.000000,2.000000,0.000000,0.000000,0.000000,0.791795,1.265923,0.085666,0.171331,0.102799,647.000000,637.000000,10.000000,20.000000,6.000000,2.000000,0.000000,0.000000,0.000000;
#CREDIT:Telperion;
#NOTES:
// measure 0
00000000
00000000
00000000
00000000
,  // measure 1
00000000
00000000
00000000
00000000
,  // measure 2
00000000
00000000
00000000
00000000
,  // measure 3
00000000
00000000
00000000
00000000
,  // measure 4
00000000
00000000
00000000
00000000
,  // measure 5
00000000
00000000
00000000
00000000
,  // measure 6
00000000
00000000
00000000
00000000
,  // measure 7
00000000
00000000
00000000
00000000
,  // measure 8
00000000
00000000
00000000
00000000
,  // measure 9
00000000
00000000
00000000
00000000
,  // measure 10
00000000
00000000
00000000
00000000
,  // measure 11
00000000
00000000
00000000
00000000
,  // measure 12
00000000
00000000
00000000
00000000
,  // measure 13
00000000
00000000
00000000
00000000
,  // measure 14
00000000
00000000
00000000
00000000
,  // measure 15
00000000
00000000
00000000
00000000
,  // measure 16
00011000
00000000
00000000
00000000
,  // measure 17
00000000
00000000
00000000
00000000
00000000
00000000
00100000
00000000
00010000
00000000
00100000
00000000
,  // measure 18
00002000
00000000
00000000
00000000
,  // measure 19
00003000
00000000
00000000
00000000
00000000
00000000
00010000
00000000
00000010
00000000
00010000
00000000
,  // measure 20
00000200
00000000
00000000
00000000
,  // measure 21
00000300
00001000
00000010
00000100
,  // measure 22
00000002
00000000
00000000
00000000
,  // measure 23
00000100
00000000
00001003
00000001
,  // measure 24
00000021
00000000
00000000
00000000
,  // measure 25
00000230
00000000
00000000
00000000
,  // measure 26
00020300
00000000
00030000
00001000
,  // measure 27
02000000
00000000
03100000
00000000
,  // measure 28
10100000
00000000
00000000
00000000
,  // measure 29
00000000
00000000
00000000
00000000
00000000
00000000
00010000
10000000
,  // measure 30
00010000
00000000
00100000
00000000
00000000
01000000
10000000
01000000
,  // measure 31
00100000
00000000
00001000
00000000
00000000
00010000
00001000
00010000
,  // measure 32
00000000
00000010
00001000
00000010
00000100
00000001
00001000
00000100
,  // measure 33
00000010
00000001
00000100
00001000
00010000
00000000
00100000
00010000
,  // measure 34
00001000
00000100
00000001
00000000
00001000
00000001
00000010
00001000
,  // measure 35
00010000
00000000
01000000
00010000
00001000
00100000
00010000
10000000
,  // measure 36
01000000
10000000
00100000
00010000
00001000
00000000
00000100
00001000
,  // measure 37
00010000
00100000
10000000
00000000
00010000
10000000
01000000
00010000
,  // measure 38
00001000
00000000
00000010
00001000
00010000
00001000
00000100
00000001
,  // measure 39
00001000
00000010
00010000
00001000
00100000
00010000
01000000
00001000
,  // measure 40
00010000
00000100
00001000
00000010
00000100
00000001
00001000
00000010
,  // measure 41
00010000
00001000
00100000
01000000
10000000
01000000
00010000
00001000
,  // measure 42
01000000
00010000
00100000
00001000
00010000
00000010
00001000
00000100
,  // measure 43
00010000
00000000
00000000
00001000
00000000
00000000
01000000
00000000
00000000
00010000
00000000
00000000
00100000
00000000
00001000
00000000
00010000
00000000
00000100
00000000
00001000
00000000
00000100
00000000
,  // measure 44
00010000
00001000
01000000
00010000
01000000
00001000
00010000
00000010
00001000
00000010
00010000
00001000
,  // measure 45
00100000
00010000
00000000
10000000
00000000
01000000
01000000
00010000
,  // measure 46
00000000
00100000
00000000
00010000
00010000
00001000
00000000
01000000
,  // measure 47
00001000
00000000
00010000
00000000
00001000
00000000
00010000
00000000
00000000
00000100
00000000
00000000
00000000
00000000
00000000
00001000
00000000
00000000
00000100
00000000
00000000
00000010
00000000
00000000
,  // measure 48
00000001
00001000
00000000
00000001
00000000
00000100
00000100
00001000
,  // measure 49
00000000
00000010
00000000
00001000
00001000
00010000
00000000
00000100
,  // measure 50
00000000
00010000
00010000
01000000
00000000
00001000
00200000
00000000
,  // measure 51
01310000
10000000
00001000
01000000
00000010
00000000
00110000
00001000
,  // measure 52
10000000
00010000
01000000
00000000
00110000
10000000
01000000
00100000
,  // measure 53
00001000
00010000
00000010
00000010
00000000
00002000
00000000
00000000
,  // measure 54
00003101
00010000
00001000
00100000
00000010
00000000
00001100
00000001
,  // measure 55
00010000
00000010
00100000
00000000
00001010
00010000
00000100
01000000
,  // measure 56
00001000
00000000
00110000
00001000
10000000
00010000
00100000
01000000
,  // measure 57
20000000
00000000
00000000
01000000
00000000
00000000
00020000
00000000
,  // measure 58
00000000
00000000
30030000
00000000
10000000
01000000
00000000
01000000
,  // measure 59
00010000
00000000
00010000
00001000
00000000
00001000
00000100
00000000
,  // measure 60
00000010
00001000
00000000
00000001
00000000
00000100
00000100
00001000
,  // measure 61
00000000
00000010
00000000
00001000
00001000
00010000
00000000
00000100
,  // measure 62
00010000
00000000
00001000
00000000
00010000
00000000
00001000
00000000
00000000
01000000
00000000
00000000
00000000
00000000
00000000
00010000
00000000
00000000
01000000
00000000
00000000
00100000
00000000
00000000
,  // measure 63
10000000
00010000
00000000
10000000
00000000
01000000
01000000
00010000
,  // measure 64
00000000
00100000
00000000
00010000
00010000
00001000
00000000
01000000
,  // measure 65
00000000
00001000
00001000
00000100
00000000
00010000
00001000
00010000
,  // measure 66
00000010
00001000
00000001
00000010
00001000
00010000
00000100
00100000
,  // measure 67
00001000
00010000
01000000
10000000
00000000
00010000
01000000
00100000
,  // measure 68
10000000
00010000
01000000
00001000
00010000
00001000
00100000
00010000
,  // measure 69
M1000000
00000000
01M00000
00000000
10000000
00010000
00100000
01000000
,  // measure 70
00010000
00001000
00100000
00000100
00010000
00001000
00000010
00000100
,  // measure 71
00000000
00001000
00000001
00001000
00000100
00010000
00001000
00010000
,  // measure 72
00000010
00001000
00000001
00001000
000001M0
00000000
0000M100
00000000
,  // measure 73
00000001
00001000
00000010
00000100
00001000
00010000
00000010
01000000
,  // measure 74
00001000
00010000
00100000
10000000
00000000
00100000
01000000
00010000
,  // measure 75
01000000
00001000
00010000
00001000
00100000
00010000
10000000
00010000
,  // measure 76
01M00000
00000000
M1000000
00000000
00100000
00010000
10000000
00100000
,  // measure 77
00010000
00001000
01000000
00000010
00010000
00001000
00000100
00000001
,  // measure 78
00000000
00001000
00000100
00000010
00000001
00000010
00000100
00010000
,  // measure 79
00001000
00000000
00100000
00000000
00001000
00000000
00010000
00000000
00000010
00000000
00010000
00000000
00001000
00000000
00000000
01000000
00000000
00000000
00010000
00000000
00000000
01000000
00000000
00000000
,  // measure 80
00200000
00000000
00000000
00000000
,  // measure 81
00000000
00000000
20300000
00000000
,  // measure 82
30020000
00000000
00000000
00000000
,  // measure 83
00000000
00000000
02030000
00000000
,  // measure 84
03000200
00000000
00000000
00000000
,  // measure 85
00000000
00000000
00000000
00000000
,  // measure 86
00002300
00000000
00000000
00000000
,  // measure 87
00003002
00000000
00000000
00000000
00000000
00000000
00001003
00000100
,  // measure 88
00000010
00000000
00000001
00000000
00001000
00000000
00000001
00000010
,  // measure 89
00000000
00000001
00000000
00001000
00000001
00000000
00000010
00000100
,  // measure 90
00010000
00001000
00000000
00001000
00100000
00000000
00001000
00010000
,  // measure 91
00000000
00001000
00000000
00100000
00010000
10000000
00010000
00000000
,  // measure 92
01000000
00100000
10000000
00100000
00010000
00000000
00001000
01000000
,  // measure 93
00010000
00100000
00001000
00010000
00000010
00000000
00000100
00000001
,  // measure 94
00000010
00000100
00000010
00001000
00010000
00000100
00010000
00001000
,  // measure 95
01000000
00000100
00000000
01000000
00000000
00000100
01000000
00000000
,  // measure 96
00010000
10000000
01000000
00010000
00001000
00000000
00100000
00001000
,  // measure 97
00010000
01000000
10000000
00000000
00100000
10000000
01000000
00010000
,  // measure 98
00001000
00100000
00010000
00100000
00001000
00010000
00000100
00001000
,  // measure 99
00000001
00000100
00001000
00010000
00000010
00001000
00000010
00010000
,  // measure 100
00001000
01000000
00010000
00000000
10000000
01000000
00010000
00001000
,  // measure 101
00100000
00000000
00000010
00010000
00001000
00010000
00000020
00000000
,  // measure 102
00001030
00000001
00000100
00001000
00010000
00000000
00000010
00010000
,  // measure 103
00001000
00000100
00000001
00000000
00000010
00000001
00000100
00001000
,  // measure 104
00010000
00000010
00001000
00000010
00010000
00001000
01000000
00010000
,  // measure 105
10000000
00001000
00000000
00010000
00010000
01000000
00010000
00010000
,  // measure 106
00000000
00001000
00001000
00000010
00000000
00000100
00000010
00001000
,  // measure 107
00000001
00010000
00000000
00001000
00001000
00000100
00001000
00001000
,  // measure 108
00000000
00010000
00010000
00100000
01000000
10000000
01000000
00010000
,  // measure 109
00001000
00100000
00000000
00010000
00010000
00001000
00010000
00010000
,  // measure 110
00000000
01000000
01000000
00000000
10000000
01000000
00010000
00001000
,  // measure 111
00000010
00000100
00000000
00001000
00001000
00010000
00001000
00001000
,  // measure 112
00000000
00000010
00000010
00000001
00001000
00000000
00000010
00010000
,  // measure 113
00001000
00100000
00000000
00010000
00010000
00000100
00001000
00001000
,  // measure 114
00000000
00010000
00010000
01000000
00001000
00001000
00000010
00000000
,  // measure 115
00000100
00000001
00000100
00001000
00010000
00000010
00001000
00000001
,  // measure 116
00000100
00001000
00010000
00000010
00000100
00000001
00000100
00001000
,  // measure 117
00010000
00000100
00001000
00000001
00000010
00001000
00010000
01000000
,  // measure 118
10000000
01000000
00100000
00001000
00010000
00001000
00100000
00010000
,  // measure 119
10000000
01000000
00100000
00010000
10000000
01000000
00010000
00001000
,  // measure 120
00000010
00000100
00010000
00001000
01000000
00100000
00010000
00001000
,  // measure 121
00000100
00000001
00000100
00001000
00010000
00000010
00001000
00000001
,  // measure 122
00000100
00001000
00010000
00100000
01000000
00001000
00010000
00001000
,  // measure 123
00100000
01000000
10000000
01000000
00010000
00001000
00000010
00000001
,  // measure 124
00000100
00000010
00010000
00001000
00010000
00000100
01000000
00001000
,  // measure 125
00010000
00001000
00100000
00010000
20000000
00000000
00000000
00000000
,  // measure 126
00000000
00000000
00000000
00000000
,  // measure 127
00000000
00000000
00000000
00000000
,  // measure 128
00000000
00000000
30000000
00000000
;

//---------------dance-solo - ----------------
#NOTEDATA:;
#CHARTNAME:;
#STEPSTYPE:dance-solo;
#DESCRIPTION:;
#CHARTSTYLE:;
#DIFFICULTY:Beginner;
#METER:1;
#RADARVALUES:0.000000,0.000000,0.000000,0.000000,0.000000,0.000000,0.000000,0.000000,0.000000,2.000000,0.000000,0.000000,0.000000,0.000000,0.000000,0.000000,0.000000,0.000000,0.000000,0.000000,0.000000,0.000000,0.000000,2.000000,0.000000,0.000000,0.000000,0.000000;
#CREDIT:;
#NOTES:
000000
000000
000000
000000
,
000000
000000
000000
000000
,
000000
000000
000000
000000
,
000000
000000
000000
000000
,
000000
000000
000000
000000
,
000000
000000
000000
000000
,
000000
000000
000000
000000
,
000000
000000
000000
000000
,
000000
000000
000000
000000
,
000000
000000
000000
000000
,
000000
000000
000000
000000
,
000000
000000
000000
000000
,
000000
000000
000000
000000
,
000000
000000
000000
000000
,
000000
000000
000000
000000
,
000000
000000
000000
000000
,
000000
000000
000000
000000
,
000000
000000
000000
000000
,
000000
000000
000000
000000
,
000000
000000
000000
000000
,
000000
000000
000000
000000
,
000000
000000
000000
000000
,
000000
000000
000000
000000
,
000000
000000
000000
000000
,
000000
000000
000000
000000
,
000000
000000
000000
000000
,
000000
000000
000000
000000
,
000000
000000
000000
000000
,
000000
000000
000000
000000
,
000000
000000
000000
000000
,
000000
000000
000000
000000
,
000000
000000
000000
000000
,
000000
000000
000000
000000
,
000000
000000
000000
000000
,
000000
000000
000000
000000
,
000000
000000
000000
000000
,
000000
000000
000000
000000
,
000000
000000
000000
000000
,
000000
000000
000000
000000
,
000000
000000
000000
000000
,
000000
000000
000000
000000
,
000000
000000
000000
000000
,
000000
000000
000000
000000
,
000000
000000
000000
000000
,
000000
000000
000000
000000
,
000000
000000
000000
000000
,
000000
000000
000000
000000
,
000000
000000
000000
000000
,
000000
000000
000000
000000
,
000000
000000
000000
000000
,
000000
000000
000000
000000
,
000000
000000
000000
000000
,
000000
000000
000000
000000
,
000000
000000
000000
000000
,
000000
000000
000000
000000
,
000000
000000
000000
000000
,
000000
000000
000000
000000
,
000000
000000
000000
000000
,
000000
000000
000000
000000
,
000000
000000
000000
000000
,
000000
000000
000000
000000
,
000000
000000
000000
000000
,
000000
000000
000000
000000
,
000000
000000
000000
000000
,
000000
000000
000000
000000
,
000000
000000
000000
000000
,
000000
000000
000000
000000
,
000000
000000
000000
000000
,
000000
000000
000000
000000
,
000000
000000
000000
000000
,
000000
000000
000000
000000
,
000000
000000
000000
000000
,
000000
000000
000000
000000
,
000000
000000
000000
000000
,
000000
000000
000000
000000
,
000000
000000
000000
000000
,
000000
000000
000000
000000
,
000000
000000
000000
000000
,
000000
000000
000000
000000
,
000000
000000
000000
000000
,
000000
000000
000000
000000
,
000000
000000
000000
000000
,
000000
000000
000000
000000
,
000000
000000
000000
000000
,
000000
000000
000000
000000
,
000000
000000
000000
000000
,
000000
000000
000000
000000
,
000000
000000
000000
000000
,
000000
000000
000000
000000
,
000000
000000
000000
000000
,
000000
000000
000000
000000
,
000000
000000
000000
000000
,
000000
000000
000000
000000
,
000000
000000
000000
000000
,
000000
000000
000000
000000
,
000000
000000
000000
000000
,
000000
000000
000000
000000
,
000000
000000
000000
000000
,
000000
000000
000000
000000
,
000000
000000
000000
000000
,
000000
000000
000000
000000
,
000000
000000
000000
000000
,
000000
000000
000000
000000
,
000000
000000
000000
000000
,
000000
000000
000000
000000
,
000000
000000
000000
000000
,
000000
000000
000000
000000
,
000000
000000
000000
000000
,
000000
000000
000000
000000
,
000000
000000
000000
000000
,
000000
000000
000000
000000
,
000000
000000
000000
000000
,
000000
000000
000000
000000
,
000000
000000
000000
000000
,
000000
000000
000000
000000
,
000000
000000
000000
000000
,
000000
000000
000000
000000
,
000000
000000
000000
000000
,
000000
000000
000000
000000
,
000000
000000
000000
000000
,
000000
000000
000000
000000
,
000000
000000
000000
000000
,
000000
000000
000000
000000
,
000000
000000
000000
000000
,
000000
000000
000000
000000
,
000000
000000
000000
000000
,
000000
000000
000000
000000
,
000000
000000
000000
000000
,
000000
000000
000000
000000
,
000000
000000
000000
000000
,
000000
000000
000000
000000
,
000000
000000
M0000M
000000
;
