#VERSION:0.83;
#TITLE:melody H4CKER;
#SUBTITLE:;
#ARTIST:Moe Shop;
#TITLETRANSLIT:;
#SUBTITLETRANSLIT:;
#ARTISTTRANSLIT:;
#GENRE:;
#ORIGIN:;
#CREDIT:;
#BANNER:;
#BACKGROUND:;
#PREVIEWVID:;
#JACKET:;
#CDIMAGE:;
#DISCIMAGE:;
#LYRICSPATH:;
#CDTITLE:;
#MUSIC:melody H4CKER.ogg;
#OFFSET:-0.128387;
#SAMPLESTART:26.320000;
#SAMPLELENGTH:15.000000;
#SELECTABLE:YES;
#BPMS:0.000=155.000;
#STOPS:;
#DELAYS:;
#WARPS:;
#TIMESIGNATURES:0.000=4=4;
#TICKCOUNTS:0.000=4;
#COMBOS:0.000=1;
#SPEEDS:0.000=1.000=0.000=0;
#SCROLLS:0.000=1.000;
#FAKES:;
#LABELS:0.000=Song Start;
#BGCHANGES:;
#KEYSOUNDS:;
#ATTACKS:
;

//---------------dance-single - ----------------
#NOTEDATA:;
#CHARTNAME:;
#STEPSTYPE:dance-single;
#DESCRIPTION:;
#CHARTSTYLE:;
#DIFFICULTY:Hard;
#METER:15;
#RADARVALUES:0.662497,0.882995,0.215479,0.056212,0.365377,495.000000,472.000000,23.000000,6.000000,0.000000,0.000000,0.000000,0.000000,0.000000,0.662497,0.882995,0.215479,0.056212,0.365377,495.000000,472.000000,23.000000,6.000000,0.000000,0.000000,0.000000,0.000000,0.000000;
#CREDIT:bonkmiserly;
#NOTES:
// measure 0
0000
0000
0000
0000
,  // measure 1
0000
0000
0000
0000
,  // measure 2
0000
0000
0000
0000
,  // measure 3
0000
0000
0000
0000
,  // measure 4
0000
0000
0000
0000
,  // measure 5
0000
0000
0000
0000
,  // measure 6
0000
0000
0000
0000
,  // measure 7
0000
0000
0000
0000
,  // measure 8
0000
0000
0000
0000
,  // measure 9
1000
0000
0001
0000
1000
0000
0010
0000
1000
0000
0010
1000
0010
0000
0100
0000
,  // measure 10
0001
0000
0010
0000
1000
0000
0001
0000
0100
0000
0001
0100
0001
0000
0010
0000
,  // measure 11
1000
0000
0001
0000
0100
0000
0010
0000
1000
0000
0010
0100
0010
0000
0100
0000
,  // measure 12
0001
0000
0010
0000
1000
0000
0001
0000
1000
0000
0010
1000
0010
0000
0100
0000
,  // measure 13
0001
0100
0001
0000
1000
0010
1000
0000
0100
0001
0100
0000
0001
0010
0001
0000
,  // measure 14
1000
0100
1000
0000
0010
0001
0010
0000
1000
0001
1000
0000
0001
0100
0001
0000
,  // measure 15
1000
0001
1000
0001
1000
0001
1000
0001
1000
0001
1000
0001
1000
0001
1000
0001
,  // measure 16
1000
0000
0010
0000
1000
0000
0000
0010
0000
0000
1000
0001
1000
0000
0010
0000
,  // measure 17
1000
0000
0010
0000
1000
0001
1000
0000
0001
0000
0100
0000
0010
0000
0001
0000
,  // measure 18
0100
0000
0001
0100
0001
0000
0010
0000
1000
0000
0010
0100
0010
0000
0100
0000
,  // measure 19
0001
0000
1000
0000
0010
0100
0010
0000
1000
0000
0001
0000
0100
0001
0100
0000
,  // measure 20
0010
0000
1000
0010
1000
0000
0100
0000
0010
0000
0100
0001
0100
0000
0010
0000
,  // measure 21
1000
0000
0010
0000
1000
0010
1000
0000
0001
0000
0010
0000
1000
0000
0001
0000
,  // measure 22
1000
0000
0001
1000
0001
0000
0100
0000
0010
0000
0100
0001
0100
0000
0010
0000
,  // measure 23
1000
0000
0010
0000
0100
0001
0100
0000
0010
0000
1000
0000
0100
0010
0100
0000
,  // measure 24
0010
0000
0100
0000
0010
0000
0100
0000
0010
0000
0100
0010
0100
0000
0010
0000
,  // measure 25
1000
0000
0001
1000
0000
1000
0001
0000
0100
0000
0010
0000
1000
0000
0001
0000
,  // measure 26
0100
0000
0001
0100
0000
0100
0001
0000
0010
0000
0100
0000
1000
0000
0010
0000
,  // measure 27
1000
0000
0001
1000
0000
1000
0001
0000
0100
0000
0010
0000
1000
0000
0010
0000
,  // measure 28
1000
0000
1000
0010
0000
0010
1000
0000
0100
0000
0010
0000
0100
0000
0001
0000
,  // measure 29
1000
0000
0010
1000
0000
1000
0010
0000
0100
0000
0010
0000
0100
0000
0001
0000
,  // measure 30
0100
0000
0001
0100
0000
0100
0001
0000
0010
0000
0100
0000
1000
0000
0001
0000
,  // measure 31
1000
0000
0010
0001
0000
0001
0010
0000
1000
0000
0001
0000
0100
0000
0010
0000
,  // measure 32
1000
0000
0100
1000
0000
1000
0100
0000
0010
0000
0100
0000
0001
0000
0010
0000
,  // measure 33
1000
0010
1000
0001
1000
0010
1000
0100
,  // measure 34
1001
0101
0110
1010
,  // measure 35
1000
0010
1000
0001
1000
0100
1000
0001
,  // measure 36
1001
1010
0110
0101
,  // measure 37
1000
0010
1000
0001
0100
0010
1000
0001
,  // measure 38
1001
0110
1010
0101
,  // measure 39
0001
1000
0001
0100
0010
1000
0100
1000
,  // measure 40
0101
1001
0110
1010
,  // measure 41
2001
0100
0001
0100
,  // measure 42
3002
0010
1000
0010
,  // measure 43
2003
0100
0010
0100
,  // measure 44
3020
0001
0100
0001
,  // measure 45
1030
0001
1000
0001
1000
0010
1000
0010
,  // measure 46
1010
1000
0001
1000
0010
0100
0001
0100
,  // measure 47
0110
0000
0000
0001
1001
0000
1000
0000
,  // measure 48
2002
0000
0000
3003
,  // measure 49
1000
0001
1000
0001
1000
0000
0010
0000
1000
0000
0001
0000
0100
0000
0010
0000
,  // measure 50
0100
0010
0100
0010
0100
0000
0001
0000
1000
0000
0010
0000
1000
0000
0001
0000
,  // measure 51
0100
0001
0100
0001
0100
0000
0001
0000
1000
0000
0010
0000
1000
0000
0010
0000
,  // measure 52
1000
0001
1000
0001
1000
0000
0010
0000
0100
0000
1000
0000
0010
0000
0100
0000
,  // measure 53
0001
0100
0001
0100
0001
0000
0010
0000
1000
0000
0010
0000
1000
0000
0001
0000
,  // measure 54
1000
0001
1000
0001
1000
0000
0010
0000
0100
0000
0010
0000
1000
0000
0001
0000
,  // measure 55
0100
0001
0100
0000
0001
0000
1000
0000
0001
0100
0001
0000
1000
0000
0010
0000
,  // measure 56
1000
0010
1000
0000
0100
0010
0100
0000
0001
1000
0001
0000
0000
0000
0001
0000
,  // measure 57
1001
0000
1000
0000
0001
0000
0100
0001
0100
0000
0010
0000
1000
0000
0001
0000
,  // measure 58
0100
0000
0010
0000
1000
0000
0010
1000
0010
0000
0100
0000
0001
0000
0100
0000
,  // measure 59
1000
0000
0010
0000
0100
0000
0001
0100
0001
0000
0010
0000
0100
0000
1000
0000
,  // measure 60
0010
0000
1000
0000
0010
0000
0100
0001
0100
0000
0010
0000
1000
0000
0010
0000
,  // measure 61
0100
0000
0001
0000
0100
0000
0010
0001
0010
0000
0100
0000
1000
0000
0001
0000
,  // measure 62
0100
0000
0001
0000
1000
0000
0010
0100
0010
0000
0100
0000
0001
0000
0100
0000
,  // measure 63
1000
0000
0010
1000
0010
0000
0100
0000
0010
0000
0001
0100
0001
0000
1000
0000
,  // measure 64
0001
0000
1000
0001
1000
0000
0010
0000
0100
0000
0010
0100
0010
0000
0000
0000
,  // measure 65
1001
0000
0000
0000
;

//---------------dance-single - ----------------
#NOTEDATA:;
#CHARTNAME:;
#STEPSTYPE:dance-single;
#DESCRIPTION:;
#CHARTSTYLE:;
#DIFFICULTY:Medium;
#METER:11;
#RADARVALUES:0.460402,0.548066,0.187373,0.149898,0.037475,344.000000,324.000000,20.000000,16.000000,0.000000,0.000000,0.000000,0.000000,0.000000,0.460402,0.548066,0.187373,0.149898,0.037475,344.000000,324.000000,20.000000,16.000000,0.000000,0.000000,0.000000,0.000000,0.000000;
#CREDIT:bonkmiserly;
#NOTES:
0000
0000
0000
0000
,
0000
0000
0000
0000
,
0000
0000
0000
0000
,
0000
0000
0000
0000
,
0000
0000
0000
0000
,
0000
0000
0000
0000
,
0000
0000
0000
0000
,
0000
0000
0000
0000
,
0000
0000
0000
0000
,
1000
0010
1000
0010
1000
0000
0100
0000
,
0001
0100
0001
0000
1000
0010
1000
0000
,
0100
0010
0100
0010
0100
0000
0001
0000
,
1000
0010
1000
0000
0100
0001
0100
0000
,
1000
0010
1000
0010
1000
0010
1000
0010
,
1000
0001
1000
0001
1000
0001
1000
0001
,
1000
0010
1000
0000
0100
0001
0100
0000
,
2002
0000
0000
3003
,
1000
0010
1000
0010
1000
0000
0100
0000
,
0001
0100
0001
0000
1000
0010
1000
0000
,
0100
0010
0100
0010
0100
0000
0010
0000
,
1000
0010
1000
0000
0100
0001
0100
0000
,
0010
0001
0010
0001
0010
0000
1000
0000
,
0100
0010
0100
0000
0001
1000
0001
0000
,
1000
0001
1000
0001
1000
0000
0010
0000
,
1000
0010
1000
0000
0100
0001
0100
0000
,
1000
0001
1000
0001
1000
0000
1001
0000
,
0100
0001
0100
0001
0100
0000
0101
0000
,
0010
1000
0010
1000
0010
0000
1010
0000
,
1000
0010
1000
0010
1000
0000
1010
0000
,
0100
0010
0100
0010
0100
0000
0110
0000
,
0001
1000
0001
1000
0001
0000
1001
0000
,
1000
0010
1000
0010
1000
0000
1010
0000
,
1000
0001
1000
0001
1000
0000
1001
0000
,
0002
0100
0100
0100
,
0203
1000
1000
1000
,
2300
0001
0001
0001
,
3002
0100
0100
0100
,
0203
0010
0010
0010
,
0320
1000
1000
1000
,
2030
0001
0001
0001
,
3002
0100
0100
0100
,
0203
0010
1000
0010
,
2300
0001
0100
0001
,
3200
0010
0001
0010
,
0302
0010
1000
0010
,
1003
0010
1000
0010
1000
0000
0010
0000
,
0100
0001
0100
0001
0100
0000
0010
0000
,
0100
0010
0100
0000
0010
0100
0010
0000
,
0220
0000
0000
0330
,
1000
0001
1000
0000
0100
0000
0010
0000
0001
0000
0000
0000
1001
0000
0000
0000
,
0001
0100
0001
0000
0010
0000
0100
0000
1000
0000
0000
0000
1010
0000
0000
0000
,
1000
0010
1000
0000
0100
0000
0010
0000
1000
0000
0000
0000
1001
0000
0000
0000
,
0001
0100
0001
0000
0010
0000
0100
0000
0001
0000
0000
0000
1001
0000
0000
0000
,
0100
0010
0100
0000
0010
0000
1000
0000
0001
0000
0000
0000
1001
0000
0000
0000
,
1000
0010
1000
0000
0010
0000
0100
0000
1000
0000
0000
0000
1001
0000
0000
0000
,
0001
0100
0001
0000
0010
0000
1000
0000
0010
0000
0000
0000
1010
0000
0000
0000
,
1000
0001
1000
0000
0010
0000
0100
0000
1000
0000
0010
0000
0000
0000
1000
0000
,
1000
0010
1000
0001
1000
0100
1000
0010
,
1000
0001
1000
0100
1000
0010
1000
0001
,
1000
0100
1000
0010
1000
0001
1000
0010
,
1000
0001
1000
0010
1000
0010
1000
0001
,
1000
0001
1000
0001
1000
0000
1010
0000
,
0100
0001
0100
0001
0100
0000
0101
0000
,
1000
0001
1000
0000
0100
0001
0100
0000
,
1000
0010
1000
0010
1000
0000
0010
0000
,
1010
0000
0000
0000
;

//---------------dance-single - ----------------
#NOTEDATA:;
#CHARTNAME:;
#STEPSTYPE:dance-single;
#DESCRIPTION:;
#CHARTSTYLE:;
#DIFFICULTY:Easy;
#METER:6;
#RADARVALUES:0.259645,0.304481,0.028106,0.074949,0.000000,194.000000,191.000000,3.000000,8.000000,0.000000,0.000000,0.000000,0.000000,0.000000,0.259645,0.304481,0.028106,0.074949,0.000000,194.000000,191.000000,3.000000,8.000000,0.000000,0.000000,0.000000,0.000000,0.000000;
#CREDIT:bonkmiserly;
#NOTES:
0000
0000
0000
0000
,
0000
0000
0000
0000
,
0000
0000
0000
0000
,
0000
0000
0000
0000
,
0000
0000
0000
0000
,
0000
0000
0000
0000
,
0000
0000
0000
0000
,
0000
0000
0000
0000
,
0000
0000
0000
0000
,
1000
0001
1000
0001
,
0100
0100
0010
0010
,
1000
0100
1000
0100
,
0001
0001
0010
0010
,
1000
1000
0001
0001
,
1000
1000
0001
0001
,
1000
1000
0001
0001
,
2002
0000
0000
3003
,
1000
0010
1000
0010
,
1000
1000
0001
0001
,
0100
0001
0100
0001
,
0010
0010
0100
0100
,
1000
0100
1000
0100
,
0010
0010
0001
0001
,
1000
0010
1000
0010
,
0001
0001
1000
1000
,
0010
0010
0100
0100
,
0001
0001
1000
1000
,
0010
0010
0100
0100
,
0001
0001
1000
1000
,
0010
0010
0100
0100
,
0001
0001
1000
1000
,
0001
0001
0100
0100
,
0010
0010
1000
1000
,
0001
0000
0001
0000
,
1000
0000
1000
0000
,
0001
0000
0001
0000
,
0100
0000
0100
0000
,
0010
0000
0010
0000
,
0100
0000
0100
0000
,
0010
0000
0010
0000
,
1000
0000
1000
0000
,
2000
0000
0000
0000
,
3002
0000
0000
0000
,
2003
0000
0000
0000
,
3002
0000
0000
0000
,
1003
1000
1000
1000
,
0001
0001
0001
0001
,
1000
1000
1000
1000
,
2002
0000
0000
3003
,
1000
0010
1000
0010
,
0100
0001
0100
0001
,
1000
0001
1000
0001
,
0100
0001
0100
0001
,
1000
0010
1000
0010
,
0100
0001
0100
0001
,
0100
0010
0100
0010
,
1000
0010
1000
0010
,
1000
1000
0001
0001
,
0100
0100
0010
0010
,
1000
1000
0001
0001
,
1000
1000
0001
0001
,
1000
1000
1000
1000
,
0001
0001
0001
0001
,
0100
0100
0100
0100
,
0010
0010
0010
0010
,
0110
0000
0000
0000
;
