#VERSION:0.83;
#TITLE:iL;
#SUBTITLE:;
#ARTIST:Ice;
#TITLETRANSLIT:;
#SUBTITLETRANSLIT:;
#ARTISTTRANSLIT:;
#GENRE:;
#ORIGIN:;
#CREDIT:;
#BANNER:;
#BACKGROUND:;
#PREVIEWVID:;
#JACKET:;
#CDIMAGE:;
#DISCIMAGE:;
#LYRICSPATH:;
#CDTITLE:;
#MUSIC:iL.ogg;
#OFFSET:-0.095000;
#SAMPLESTART:72.095001;
#SAMPLELENGTH:15.000000;
#SELECTABLE:YES;
#BPMS:0.000=160.000;
#STOPS:;
#DELAYS:;
#WARPS:;
#TIMESIGNATURES:0.000=4=4;
#TICKCOUNTS:0.000=4;
#COMBOS:0.000=1;
#SPEEDS:0.000=1.000=0.000=0;
#SCROLLS:0.000=1.000;
#FAKES:;
#LABELS:0.000=Song Start;
#BGCHANGES:;
#KEYSOUNDS:;
#ATTACKS:
;

//---------------dance-single - ----------------
#NOTEDATA:;
#CHARTNAME:;
#STEPSTYPE:dance-single;
#DESCRIPTION:;
#CHARTSTYLE:;
#DIFFICULTY:Hard;
#METER:17;
#RADARVALUES:0.885153,0.954854,0.299327,0.164630,0.796959,828.000000,788.000000,40.000000,22.000000,0.000000,0.000000,0.000000,0.000000,0.000000,0.885153,0.954854,0.299327,0.164630,0.796959,828.000000,788.000000,40.000000,22.000000,0.000000,0.000000,0.000000,0.000000,0.000000;
#CREDIT:ballspill;
#NOTES:
// measure 0
0000
0000
0000
0000
,  // measure 1
0000
0000
0000
0000
,  // measure 2
0000
0000
0000
0000
,  // measure 3
0000
0000
0000
0000
,  // measure 4
1001
0000
0010
0000
0100
0000
1000
0010
1000
0000
0100
0000
0001
0000
0010
1000
,  // measure 5
0010
0100
1000
0100
0010
0001
1000
0001
1000
0001
1000
0001
,  // measure 6
1000
0000
0000
0000
0000
0000
1000
0001
1000
0000
0000
0000
1000
0000
0010
1000
,  // measure 7
0010
0000
0000
0000
0000
0000
0100
0000
0000
0001
0000
0000
0100
0000
0000
0000
0000
0000
0010
0000
0000
0000
0000
0000
1001
0000
0000
0000
1001
0000
0000
0000
1001
0000
0000
0000
2001
0000
0000
0000
0000
0000
0000
0000
0000
0000
0000
0000
,  // measure 8
3002
0000
0000
0000
0003
0000
0100
0001
0100
0000
0000
0000
0000
0000
0001
0000
,  // measure 9
1001
0000
0000
1010
0000
0000
0010
0000
0100
0000
0010
0000
0100
0000
1000
0010
,  // measure 10
1000
0000
0100
0000
1000
0000
0001
0100
0001
0000
0000
0101
0000
0000
0001
0000
,  // measure 11
1001
0000
0000
0010
0000
0000
1010
0000
2000
0000
0000
0000
3000
0000
0001
0100
,  // measure 12
0001
0000
0010
0000
0100
0000
1000
0010
1000
0000
0100
0000
0010
0000
1000
0000
,  // measure 13
1010
0000
0000
0000
0000
0000
0000
0000
0000
0010
0000
0000
0000
0000
0000
0000
0000
0000
0011
0000
0000
0000
0000
0000
1001
0000
0000
0000
0000
0000
0000
0000
0000
0000
0000
0000
1000
0000
0000
0000
0001
0000
0000
0000
1000
0000
0000
0000
,  // measure 14
0001
0000
1000
0001
1000
0001
1001
0000
1000
0010
1000
0010
,  // measure 15
1010
0000
0000
0000
0100
0000
0001
0000
0100
0000
0001
0000
0100
0000
0000
0000
0000
0000
0101
0000
0000
0010
0000
0000
,  // measure 16
0001
0000
1000
0000
0100
0000
0010
0000
0001
0000
1000
0000
0010
0000
1000
0010
,  // measure 17
1000
0000
0100
0000
0010
0000
0001
0000
0010
0000
1000
0000
0001
0000
1000
0001
,  // measure 18
1000
0000
0100
0000
0010
0000
0001
0000
1000
0000
0010
0000
0100
0000
0001
0100
,  // measure 19
0001
0000
0010
0000
1000
0000
0010
0000
0100
0000
0001
0000
0100
0000
0010
0001
,  // measure 20
0010
0000
1000
0000
0100
0000
0010
0000
0100
0000
0001
0000
0100
0000
0010
0001
,  // measure 21
0010
0000
1000
0000
0010
0000
0100
0000
0010
0000
0100
0000
0001
0000
1000
0001
,  // measure 22
1000
0000
0010
0000
1000
0000
0010
0000
0100
0000
0010
0000
0100
0000
0001
0100
,  // measure 23
0001
0000
0010
0000
1000
0000
0010
0000
0100
0000
0010
0000
0100
0000
0010
0100
,  // measure 24
0010
0000
2002
0000
3003
0000
1010
0000
1010
0000
0000
1010
0000
0000
1010
0000
,  // measure 25
0000
0000
0202
0000
0303
0000
0101
0000
0101
0000
0000
0101
0000
0000
0101
0000
,  // measure 26
0000
0000
0220
0000
0330
0000
0110
0000
0110
0000
0000
0110
0000
0000
0110
0000
,  // measure 27
1010
0000
0000
1010
0000
0000
0110
0000
0110
0000
0000
0101
0000
0000
0101
0000
,  // measure 28
1000
0000
0010
1000
0010
0000
0100
0000
0001
0000
0100
0001
0100
0000
0010
0000
,  // measure 29
1000
0000
0100
0010
0100
0000
0001
0000
1000
0000
0001
1000
0001
0000
0010
0000
,  // measure 30
1000
1000
0100
0100
0010
0010
0001
0001
,  // measure 31
1000
0001
1000
0000
0100
0010
0100
0000
0001
1000
0001
1000
0001
1000
0001
1000
,  // measure 32
0002
0000
0000
0000
0003
0000
0100
0001
0100
0000
0010
0000
1000
0000
0001
0000
,  // measure 33
2000
0000
0000
0000
3000
0000
0001
0100
0001
0000
0010
0000
1000
0000
0001
0000
,  // measure 34
0200
0000
0000
0000
0300
0000
0001
0100
0001
0000
0010
0000
1000
0000
0001
0000
,  // measure 35
0200
0000
0000
0010
0310
0000
0110
0000
,  // measure 36
1001
0000
0000
0000
0000
0000
1000
0010
1000
0000
0000
0010
0000
0000
1000
0000
,  // measure 37
0001
0000
0000
0000
0000
0000
1000
0001
1000
0000
0000
0000
0000
0000
0001
1000
,  // measure 38
0001
0000
0000
1000
0000
0000
0010
0000
1000
0000
0000
0010
0000
0000
0001
0000
,  // measure 39
0200
0000
0000
0000
0000
0000
0300
0000
1000
0100
0010
0001
1000
0100
0010
0001
,  // measure 40
1000
0010
1000
0010
1000
0010
1000
0010
1000
0000
0100
0000
0010
0000
0001
0000
,  // measure 41
0100
0001
0100
0001
0100
0001
0100
0001
0100
0000
0010
0000
0100
0000
0010
0000
,  // measure 42
1000
0100
1000
0100
1000
0100
1000
0100
1000
0000
0010
0000
0100
0000
0010
0000
,  // measure 43
1000
0001
1000
0001
1000
0001
1000
0001
1000
0000
0010
0000
0100
0000
0001
0000
,  // measure 44
0100
0001
0100
0001
0100
0001
0100
0001
0100
0000
0010
0000
1000
0000
0001
0000
,  // measure 45
0100
0010
0100
0010
0100
0010
0100
0010
0100
0000
0001
0000
1000
0000
0010
0000
,  // measure 46
1000
0010
1000
0010
1000
0010
1000
0010
1000
0000
0100
0000
0010
0000
0001
0000
,  // measure 47
1000
0001
1000
0001
1000
0001
1000
0001
1000
0100
0010
0001
1000
0100
0010
0001
,  // measure 48
1000
0100
1000
0100
1000
0000
0010
0000
1000
0000
0001
0000
0100
0000
0001
0000
,  // measure 49
0100
0001
0100
0001
0100
0000
0010
0000
1000
0000
0100
0000
0010
0000
0100
0000
,  // measure 50
0001
0010
0001
0010
0001
0000
0100
0000
1000
0000
0010
0000
1000
0000
0010
0000
,  // measure 51
1000
0010
1000
0010
1000
0000
0100
0000
0010
0000
0001
0000
1000
0000
0001
0000
,  // measure 52
1000
0001
1000
0001
1000
0000
0010
0000
1000
0000
0100
0000
0010
0000
0100
0000
,  // measure 53
0001
0100
0001
0100
0001
0000
0010
0000
1000
0000
0001
0000
0100
0000
0010
0000
,  // measure 54
1000
0010
1000
0010
1000
0000
0100
0000
0010
0000
0001
0000
0100
0000
0001
0000
,  // measure 55
0100
0001
0100
0001
0100
0000
0010
0000
1000
0000
0001
0000
0100
0000
0010
0000
,  // measure 56
1000
0001
1000
0001
1000
0000
0100
0000
0010
0000
1000
0000
0001
0000
0100
0000
,  // measure 57
0001
0100
0001
0100
0001
0000
0010
0000
1000
0000
0010
0000
0100
0000
0001
0000
,  // measure 58
0010
0001
0010
0001
0010
0000
0100
0000
1000
0000
0010
0000
0100
0000
0010
0000
,  // measure 59
0100
0010
0100
0010
0100
0000
0001
0000
1000
0000
0010
0000
0100
0000
0010
0000
,  // measure 60
0001
0010
0001
0010
0001
0000
0100
0000
1000
0000
0100
0000
0010
0000
1000
0000
,  // measure 61
0010
0100
0010
0100
0010
0000
0001
0000
1000
0000
0010
0000
0100
0000
0010
0000
,  // measure 62
0001
0100
0001
0100
0001
0000
0010
0000
1000
0000
0010
0000
1000
0000
0010
0000
,  // measure 63
1000
0010
1000
0010
1000
0000
0100
0000
0001
0000
0100
0000
0010
0000
0001
0000
,  // measure 64
1000
1000
0001
0001
0100
0100
0010
0010
,  // measure 65
1000
0001
1000
0000
0100
0001
0100
0000
2002
0000
0000
0000
0000
0000
3003
0000
,  // measure 66
1000
0100
0010
0001
1000
0000
0010
0000
1000
0100
1000
0100
1000
0000
0010
0000
,  // measure 67
1000
0001
1000
0001
1000
0000
0010
0000
0100
0001
0100
0001
0100
0000
0010
0000
,  // measure 68
1000
0100
1000
0100
1000
0000
0010
0000
0001
0010
0001
0010
0001
0000
1000
0000
,  // measure 69
0010
1000
0010
1000
0010
0000
0100
0000
0010
0001
0010
0001
0010
0000
0100
0000
,  // measure 70
1000
0100
1000
0100
1000
0000
0010
0000
0100
0001
0100
0001
0100
0000
0010
0000
,  // measure 71
1000
0100
1000
0100
1000
0000
0010
0000
1000
0001
1000
0001
1000
0000
0010
0000
,  // measure 72
0100
0010
0100
0010
0100
0000
0001
0000
1000
0001
1000
0001
1000
0000
0010
0000
,  // measure 73
1000
0100
1000
0100
1000
0000
0010
0000
1000
0001
1000
0001
1000
0001
1000
0001
,  // measure 74
1000
0010
1000
0010
1000
0000
0100
0000
0010
0001
0010
0001
0010
0000
0100
0000
,  // measure 75
1000
0100
1000
0100
1000
0000
0010
0000
0001
0010
0001
0010
0001
0000
1000
0000
,  // measure 76
0100
0010
0100
0010
0100
0000
0001
0000
1000
0001
1000
0001
1000
0000
0010
0000
,  // measure 77
0001
0010
0001
0010
0001
0000
1000
0000
0010
1000
0010
1000
0010
0000
0100
0000
,  // measure 78
0001
0100
0001
0100
0001
0000
0010
0000
1000
0010
1000
0010
1000
0000
0100
0000
,  // measure 79
0010
0100
0010
0100
0010
0000
0100
0000
0001
0100
0001
0100
0001
0000
0010
0000
,  // measure 80
1000
0010
1000
0010
1000
0000
0100
0000
0010
0100
0010
0100
0010
0000
0100
0000
,  // measure 81
0001
1000
0001
1000
0001
0000
0100
0000
0010
1000
0010
1000
0010
0000
1000
0000
,  // measure 82
0001
0001
1000
1000
0010
0010
0100
0100
,  // measure 83
1000
0001
1000
0000
0100
0001
0100
0000
1000
0001
1000
0001
1000
0001
1000
0001
,  // measure 84
2000
0010
3002
0100
,  // measure 85
0203
0010
0320
1000
,  // measure 86
2030
0000
0000
0000
,  // measure 87
0002
0000
0000
0000
,  // measure 88
3003
0000
0000
0000
;

//---------------dance-single - ----------------
#NOTEDATA:;
#CHARTNAME:;
#STEPSTYPE:dance-single;
#DESCRIPTION:;
#CHARTSTYLE:;
#DIFFICULTY:Medium;
#METER:13;
#RADARVALUES:0.677762,0.724372,0.164630,0.074832,0.130956,634.000000,612.000000,22.000000,10.000000,0.000000,0.000000,0.000000,0.000000,0.000000,0.677762,0.724372,0.164630,0.074832,0.130956,634.000000,612.000000,22.000000,10.000000,0.000000,0.000000,0.000000,0.000000,0.000000;
#CREDIT:ballspill;
#NOTES:
0000
0000
0000
0000
,
0000
0000
0000
0000
,
0000
0000
0000
0000
,
0000
0000
0000
0000
,
1000
0010
1000
0001
1000
0001
1000
0010
,
1000
1010
0010
0011
,
0001
1000
0001
1000
0100
0010
0001
1000
,
0001
1001
1000
1010
,
0010
0100
0010
0100
0010
0100
0010
0100
,
1000
0001
1000
0001
1000
0001
1000
0010
,
0100
0010
0100
0010
0100
0010
0100
0001
,
0100
0001
0100
0001
0100
0001
0100
0010
,
1000
0010
1000
0010
1000
0010
1000
0010
,
0100
0010
0100
0010
0100
0010
0100
0010
,
1010
0010
0110
0100
,
0101
0001
1001
1001
,
1000
0010
1000
0010
1000
0010
1000
0010
,
1000
0100
0010
0001
1000
0001
1000
0001
,
1000
0001
1000
0010
0001
0010
1000
0010
,
0001
1000
0010
0100
0010
0001
1000
0000
,
1000
0010
1000
0010
1000
0001
1000
0100
,
0010
0001
0100
0001
1000
0001
0100
0000
,
0010
1000
0010
0100
0001
0100
0010
1000
,
0010
0100
0001
0100
0001
1000
0001
1000
,
0000
0000
1001
0000
0000
0000
1000
0000
0001
0000
0000
1000
0000
0000
0001
0000
,
0000
0000
0101
0000
0000
0000
0001
0000
0100
0000
0000
0001
0000
0000
0101
0000
,
0000
0000
1010
0000
0000
0000
1000
0000
0010
0000
0000
1000
0000
0000
1010
0000
,
1000
0000
0000
0010
0000
0000
1000
0000
0001
0000
0000
1000
0000
0000
1001
0000
,
0000
1000
0010
1000
0010
1000
0010
0000
,
0000
0100
0001
0100
0001
0100
0001
0000
,
1000
0010
1000
0010
1000
0010
1000
0010
,
0100
0000
0010
0000
0100
0000
0010
0000
1000
0010
1000
0000
0100
0001
0100
0000
,
2000
0000
3000
0001
1000
0001
1000
0001
,
1000
0000
0000
0001
1000
0001
1000
0001
,
1000
0000
0000
0100
0001
0100
0001
0100
,
0001
0000
0000
1000
1001
0000
0001
0000
,
1001
0000
0000
0000
0000
0000
1000
0000
1010
0000
0000
1000
0000
0000
0010
0000
,
1000
0000
0000
0001
1001
0000
0000
1000
,
1010
0000
0000
0010
0000
0000
0001
0000
1000
0000
0000
0001
0000
0000
1000
0000
,
0010
0000
0000
0000
0000
0000
0000
0000
1000
0001
1000
0000
0100
0010
0100
0000
,
1000
0010
1000
0000
0100
0000
0010
0000
0001
0000
1000
0000
0001
0000
0100
0000
,
0001
0100
0001
0000
0010
0000
1000
0000
0010
0000
0100
0000
0010
0000
0100
0000
,
0010
0100
0010
0000
1000
0000
0001
0000
1000
0000
0100
0000
0010
0000
0001
0000
,
1000
0001
1000
0000
0100
0000
0010
0000
0001
0000
1000
0000
0001
0000
0100
0000
,
0010
0001
0010
0000
1000
0000
0100
0000
0010
0000
0001
0000
1000
0000
0010
0000
,
0100
0001
0100
0000
0010
0000
0100
0000
1000
0000
0001
0000
0100
0000
0010
0000
,
0001
0100
0001
0000
0010
0000
1000
0000
0010
0000
0100
0000
0001
0000
0100
0000
,
0001
0100
0001
0000
1000
0000
0010
0000
0010
0000
0000
0000
0000
0000
0000
0000
,
0001
1000
0001
0000
0100
0000
1000
0000
0010
0000
0100
0000
0001
0000
0010
0000
,
1000
0100
0001
0100
1000
0010
1000
0010
,
1000
0010
1000
0000
0100
0000
0010
0000
1000
0000
0001
0000
0100
0000
0010
0000
,
0001
1000
0001
1000
0001
0100
1000
0100
,
0010
1000
0010
0000
0100
0000
0002
0003
1000
0000
0010
0000
0100
0000
0001
0000
,
0100
1000
0010
0100
0001
0100
0010
0001
,
0100
0001
0100
0000
0001
0000
1000
0000
0100
0000
0010
0000
1000
0000
0100
0000
,
0010
0001
1000
0001
0100
0010
1000
0010
,
1000
0001
1000
0000
0001
0000
0100
0000
1000
0000
0001
0000
1000
0000
0010
0000
,
1000
0100
0010
0001
1000
0010
0100
0001
,
0100
0001
0100
0000
0010
0000
0100
0000
1000
0000
0010
0000
0100
0000
0010
0000
,
1000
0010
0001
0100
0010
1000
0010
1000
,
0010
0001
0010
0000
1000
0000
0010
0000
0100
0000
0001
0000
1000
0000
0001
0000
,
0100
0010
1000
0010
0100
0001
0100
0001
,
0100
0001
0100
0000
0010
0000
0100
0000
1000
0000
0010
0000
0001
0000
0100
0000
,
1000
0010
0001
0100
0010
1000
0010
0100
,
0001
0100
0001
0000
0010
0000
1000
0000
0001
0000
0100
0000
0010
0000
1000
0000
,
1000
0001
1000
0000
0001
1000
0001
0000
2002
0000
0000
0000
0000
0000
3003
0000
,
1000
0010
1000
0010
1000
0010
0001
0010
,
0001
0010
0001
0010
1000
0010
1000
0010
,
1000
0100
1000
0100
1000
0100
0010
0100
,
0010
0100
0010
0100
0001
0100
0001
0100
,
0010
1000
0010
1000
0010
0100
0001
0100
,
0001
0100
0001
0100
0001
0100
0001
0100
,
0010
1000
0010
1000
0010
1000
0100
0001
,
0100
0001
0100
0001
0100
0001
0100
0001
,
1000
0001
1000
0001
1000
0001
1000
0001
,
1000
0010
1000
0010
1000
0010
1000
0010
,
1000
0100
1000
0100
1000
0100
1000
0100
,
1000
0001
1000
0001
1000
0001
1000
0001
,
1000
0010
1000
0010
1000
0010
1000
0001
,
1000
0001
1000
0001
1000
0001
1000
0100
,
1000
0100
1000
0100
1000
0100
1000
0001
,
1000
0001
1000
0001
1000
0001
1000
0001
,
1000
0100
0010
0001
0010
0100
1000
0100
,
0010
0100
0010
0000
1000
0001
1000
0000
0001
1000
0001
0000
1000
0010
1000
0000
,
2001
0000
3002
0000
,
2003
0000
3020
0000
,
0230
0000
0000
0000
,
0020
0000
0000
0000
,
0330
0000
0000
0000
;

//---------------dance-single - ----------------
#NOTEDATA:;
#CHARTNAME:;
#STEPSTYPE:dance-single;
#DESCRIPTION:;
#CHARTSTYLE:;
#DIFFICULTY:Easy;
#METER:8;
#RADARVALUES:0.383780,0.460964,0.321777,0.157147,0.000000,359.000000,316.000000,43.000000,21.000000,0.000000,0.000000,0.000000,0.000000,0.000000,0.383780,0.460964,0.321777,0.157147,0.000000,359.000000,316.000000,43.000000,21.000000,0.000000,0.000000,0.000000,0.000000,0.000000;
#CREDIT:ballspill;
#NOTES:
0000
0000
0000
0000
,
0000
0000
0000
0000
,
0000
0000
0000
0000
,
0000
0000
0000
0000
,
1000
1000
0100
0100
,
0001
0001
0100
0100
,
1000
1000
0001
0001
,
0100
0100
0010
0010
,
1000
0010
1000
0010
,
0100
0001
0100
0001
,
1000
0001
1000
0001
,
1000
0010
1000
0010
,
1000
0001
0100
0001
,
0100
0001
0100
0001
,
1001
1000
0110
0010
,
1001
0001
1001
1001
,
1000
0100
1000
0100
,
0001
0100
0001
0100
,
0001
1000
0001
1000
,
0001
1000
0010
1000
,
0010
0100
0001
0100
,
0001
1000
0001
1000
,
0001
1000
0010
1000
,
0010
0100
0010
0100
,
0000
0001
0000
0001
0000
0001
0000
0001
,
0000
0100
0000
0100
0000
0100
0000
0100
,
0000
0010
0000
0010
0000
0010
0000
0010
,
0000
1000
0000
1000
0000
1000
0000
1000
,
0000
0001
1000
0001
1000
0000
0001
0000
,
1000
0001
1000
0001
1000
0000
0010
0000
,
0100
0001
0100
0001
0100
0000
0001
0000
,
1000
0010
1000
0010
2000
0000
0000
0000
,
3002
0000
0100
0000
,
0203
0000
0010
0000
,
0320
0000
1000
0000
,
2030
0000
0001
0000
,
3002
0000
0010
0000
,
0023
0000
1000
0000
,
2030
0000
0001
0000
,
3002
0000
0010
0010
,
0013
1000
1000
0001
,
0001
0100
0100
0010
,
0010
0100
0100
0001
,
0001
1000
1000
0001
,
0001
1000
1000
0001
,
0001
0100
0100
0010
,
0110
0010
1010
1000
,
1000
0000
0001
0000
2002
0000
0000
3003
,
0001
1000
0001
1000
,
0001
0100
0001
0100
,
0010
1000
0010
1000
,
0100
0010
0100
0010
,
0001
0100
0001
0100
,
0001
1000
0001
1000
,
0100
0001
0100
0001
,
0010
1000
0010
1000
,
0001
1000
0001
1000
,
0010
1000
0010
1000
,
0001
0100
0001
0100
,
0010
0001
0010
0001
,
1000
0010
1000
0010
,
1000
0001
1000
0001
,
1000
0001
1000
0001
,
1000
0010
1000
0010
,
1000
1000
0001
0001
,
1000
1000
2002
3003
,
1000
1010
0010
0011
,
0001
1001
1000
1010
,
0010
0011
0001
1001
,
1000
1010
0010
0011
,
0001
1001
1000
1010
,
0010
0011
0001
1001
,
1000
1010
0010
0011
,
0001
0101
2002
3003
,
1000
1010
0010
0011
,
0001
1001
1000
1010
,
0010
0011
0001
1001
,
1000
1001
0001
0101
,
0100
0110
0010
1010
,
1000
1100
0100
0101
,
0001
1001
1000
1100
,
1000
1001
0001
0101
,
0001
0011
0001
1001
,
1000
0100
1000
0000
0001
0100
0001
0000
,
2000
0000
3002
0000
,
2003
0000
3002
0000
,
2003
0000
0000
0000
,
0002
0000
0000
0000
,
3003
0000
0000
0000
;
