#VERSION:0.83;
#TITLE:Utopia;
#SUBTITLE:;
#ARTIST:溝口ゆうま feat. 大瀬良あい;
#TITLETRANSLIT:;
#SUBTITLETRANSLIT:;
#ARTISTTRANSLIT:Yuuma Mizonokuchi feat. Ai Ohsera;
#GENRE:;
#CREDIT:;
#MUSIC:Utopia.ogg;
#BANNER:;
#BACKGROUND:;
#CDTITLE:;
#SAMPLESTART:65.447;
#SAMPLELENGTH:15.000;
#SELECTABLE:YES;
#OFFSET:-0.012;
#BPMS:0.000=187.000;
#STOPS:;
#DISPLAYBPM:187.000;
#BGCHANGES:;
#FGCHANGES:;

//--------------- dance-single - ----------------
#NOTEDATA:;
#STEPSTYPE:dance-single;
#DESCRIPTION:;
#DIFFICULTY:Easy;
#METER:8;
#RADARVALUES:0,0,0,0,0;
#CREDIT:criticaldingdong;
#NOTES:
0000
0000
0000
0000
,
0000
0000
0000
0000
,
0000
0000
0000
0000
,
0000
0000
0000
0000
,
0000
0000
0000
0000
,
0000
0100
0100
0010
,
1000
0001
0000
0010
,
0100
1000
0100
0001
,
0200
0010
0020
0330
,
1001
0001
0100
0001
,
1000
0010
1000
0000
,
0100
0010
0100
1000
,
0010
0100
0010
0000
,
1000
0001
0010
0001
,
0100
0010
0100
0000
,
0001
0010
0100
1000
,
0100
0010
0001
0000
,
1000
0010
0100
0001
,
0010
0001
1000
0000
,
0100
0010
0001
0100
,
0010
0100
0001
0000
,
1000
0010
1000
0100
,
0010
0001
0100
0000
,
0010
0010
0100
0100
,
0001
1000
0001
0000
,
1001
0000
0001
0000
,
0100
0100
0100
0000
,
0010
1000
0010
0000
,
1000
1000
1000
0000
,
0100
0000
0010
0000
,
0001
0001
0001
0000
,
0100
0010
0100
0000
,
0001
1000
0001
0000
,
1001
0000
1000
0000
,
0100
0100
0100
0000
,
0010
0001
0010
0000
,
0100
1000
0100
0000
,
1001
0000
0001
0000
,
0100
0010
0100
0000
,
0002
0023
0230
2300
,
3010
0000
0000
0010
0000
0000
0100
0000
,
1001
0000
0000
0000
0010
0000
0000
0100
,
0000
0100
0000
0000
0010
0000
0010
0000
,
1000
0000
0000
0000
0000
0000
0000
0000
0001
0000
0000
0001
0000
0000
1000
0000
,
0000
0000
0000
0100
,
0110
0000
0000
0000
0001
0000
0000
1000
,
0000
1000
0000
0000
0010
0000
0010
0000
,
0100
0100
0100
0000
0010
0010
0010
0000
,
1000
0000
0000
0001
0000
0000
1000
0000
,
2002
0000
0000
0000
,
0000
0000
0000
3003
,
0001
0100
0001
0100
,
0010
1000
0001
0000
,
1000
0100
1000
0100
,
0010
0001
0100
0000
,
0002
2003
3002
2003
,
3200
0320
0230
0300
,
2000
3002
2003
3002
,
0203
0010
0020
0330
,
1000
0010
0100
0001
,
0010
0100
0010
0000
,
0001
0100
0010
1000
,
0001
1000
0100
0000
,
1000
1000
1000
0000
0001
0001
0001
0000
,
0100
0010
0000
0110
0000
0000
0000
0000
,
0002
0203
0320
2030
,
3200
0010
0020
0330
,
1001
0001
0100
0001
,
1000
1000
0010
0010
,
0100
0001
0010
0100
,
0010
0010
0001
0001
,
1000
0010
0100
0001
,
0010
0010
0100
0100
,
1000
0010
1000
0001
,
0100
0000
0000
0100
0000
0000
0010
0000
,
1001
0001
0010
0001
,
0100
0010
1000
0001
,
0010
0001
0100
0010
,
1000
0100
1000
0001
,
0100
0010
1000
0001
,
0010
0100
0010
0001
,
0100
0100
0010
0010
,
1000
0000
0000
0001
0000
0000
0010
0000
,
2002
0000
0000
0000
,
0000
0000
0000
0000
,
3003
0000
0000
0000
;

//--------------- dance-single - ----------------
#NOTEDATA:;
#STEPSTYPE:dance-single;
#DESCRIPTION:;
#DIFFICULTY:Medium;
#METER:10;
#RADARVALUES:0,0,0,0,0;
#CREDIT:criticaldingdong;
#NOTES:
0000
0000
0000
0000
,
0000
0000
0000
0000
,
0000
0000
0000
0000
,
0000
0000
0000
0000
,
0000
0000
0000
0000
,
0000
0001
0001
1000
,
0010
0100
0000
0020
0000
1000
0030
0000
,
2000
3200
0302
0203
,
0320
0000
0001
0001
0002
0000
0033
0000
,
0200
0000
0301
2000
0000
3020
0000
2030
,
0000
3100
0010
0100
,
1000
0002
0000
0203
0000
0320
0000
0230
,
0000
0301
0010
0100
,
2000
0000
3010
0200
0000
0302
0000
2003
,
0000
3100
0001
0100
,
0020
0000
0031
2000
0000
3020
0000
0130
,
0001
0000
1000
0001
0000
0100
0010
0000
,
1002
0000
1003
0200
0000
2300
0000
3020
,
0000
0000
0000
0000
0130
0000
0000
0001
0000
0001
0000
0000
0100
0000
0000
0000
,
0020
0000
1030
0002
0000
0023
0000
0230
,
0000
0000
0000
0000
1300
0000
0000
0010
0000
0010
0000
0000
0100
0000
0000
0000
,
0002
0000
0013
0200
0000
0320
0000
0032
,
0000
0000
0000
0000
0103
0000
0000
0010
0000
0010
0000
0000
1000
0000
0000
0000
,
0002
0000
0013
0200
0000
2300
0000
3010
,
0100
0000
0001
0100
0010
1000
0001
0000
,
1100
0000
1100
0000
0000
1000
0100
0000
,
1000
0010
0100
0001
,
0011
0000
0011
0000
0000
0001
0100
0000
,
0010
0010
0010
0000
0100
0100
0100
0000
,
1001
0000
1001
0000
0000
1000
0100
0000
,
0010
0000
0010
0000
0000
0100
1000
0000
,
0010
0000
1000
0001
0000
1000
0001
0000
,
0100
0000
0000
0000
0010
0000
0000
0010
0000
0000
1000
0000
0001
0000
0000
0000
,
1100
0000
1010
0000
0001
0100
0001
0000
,
0020
0230
2300
3000
,
0110
0000
0101
0000
1000
0001
1000
0000
,
0200
0000
0302
0000
0103
0010
0001
0000
,
0101
0000
1001
0000
0001
1000
0010
0000
,
0200
0302
0023
0030
,
0200
0001
0010
1000
,
0310
0100
0000
1000
0001
0000
0100
0000
,
1001
0000
0000
1000
0010
0000
0000
0100
,
0000
0100
0000
0001
0010
0000
0010
0000
,
0100
0000
0000
0000
0000
0000
1000
0000
0001
0000
0000
0001
0000
0000
0100
0000
,
0000
0020
0000
0000
0000
0100
0130
0000
,
1001
0000
0000
1000
0010
0000
0000
0100
,
0000
0100
0000
0001
1000
0001
1000
0000
,
0200
0001
0301
0000
0200
1000
1300
0000
,
0110
0000
0000
1001
0000
0000
0110
0000
,
2002
0000
0000
3003
,
0200
0010
0010
0310
,
0001
0100
0001
0100
0000
0010
1000
0010
,
0000
0100
0001
0100
0000
0010
1000
0000
,
0001
0010
0001
0010
0000
0100
1000
0100
,
0000
0010
0001
0010
0002
0000
0003
0000
,
0101
1010
0101
1010
,
0001
1000
0001
1000
0002
0000
0003
0000
,
1100
0011
1100
0011
,
0200
0000
0010
0010
0020
0000
0330
0000
,
0001
1000
0001
1000
0000
0100
0010
0100
,
0000
1000
0001
1000
0000
0010
0100
0010
,
1000
0001
1000
0001
0000
0100
0001
0100
,
0000
0010
1000
0010
2000
0000
3000
0000
,
0100
0100
0100
0000
0010
0010
0010
0000
,
0001
1000
0000
0110
0000
0001
1000
0000
,
0101
1000
1100
0001
,
0200
0000
0010
0010
0020
0000
0330
0000
,
2001
0000
3001
0200
0000
0320
0000
2030
,
0000
3001
0010
0001
,
0100
0020
0000
2030
0000
3002
0000
2003
,
0000
3100
0010
0100
,
2000
0000
3010
0200
0000
0302
0000
2003
,
0000
3001
0010
0100
,
0020
0000
0031
2000
0000
3020
0000
0130
,
0001
0000
1000
0100
0000
0001
0100
0000
,
1002
0000
1003
0020
0000
0230
0000
0302
,
0000
0000
0000
0000
0013
0000
0000
0100
0000
0100
0000
0000
0010
0000
0000
0000
,
0002
0000
1003
0020
0000
0230
0000
2300
,
0000
0000
0000
0000
3100
0000
0000
0001
0000
0001
0000
0000
0100
0000
0000
0000
,
0020
0000
1030
0002
0000
0023
0000
0230
,
0000
0000
0000
0000
1300
0000
0000
0010
0000
0010
0000
0000
1000
0000
0000
0000
,
1100
0010
0101
0010
,
1000
0001
1000
0001
0100
0010
0100
0000
,
2002
0000
0000
0000
,
0000
0000
0000
0000
,
3003
0000
0000
0000
;

//--------------- dance-single - ----------------
#NOTEDATA:;
#STEPSTYPE:dance-single;
#DESCRIPTION:;
#DIFFICULTY:Hard;
#METER:13;
#RADARVALUES:0,0,0,0,0;
#CREDIT:criticaldingdong;
#NOTES:
0000
0000
0000
0000
,
0000
0000
0000
0000
,
0000
0000
0000
0000
,
0000
0000
0000
0000
,
0000
0000
0000
0000
,
0000
1100
1100
0001
,
0100
0010
0000
2000
0000
0100
3100
0000
,
1000
0010
1000
0010
0100
0001
0100
0001
,
0010
0000
0000
0000
0001
1000
0001
1000
0002
0000
0000
0000
0000
0000
0000
0000
,
2003
0000
3010
2000
0000
3002
0000
0203
,
0000
0301
0010
0100
1000
0100
0010
0001
,
0100
0020
0000
2030
0000
3002
0000
2003
,
0000
3100
0010
0100
1000
0001
0100
0010
,
0200
0000
0301
0020
0000
0230
0000
2300
,
0000
3010
0100
0001
0010
0001
0100
0010
,
2000
0000
3100
0020
0000
0130
2000
0000
,
3010
0000
0100
0000
0001
0000
1000
0000
0001
0100
0001
0100
0001
0000
0000
0000
,
1002
0000
1003
0020
0000
0230
0000
0302
,
0000
0013
0100
0010
0001
0100
0010
0100
,
0002
0000
1003
0020
0000
2030
0000
3200
,
0000
0310
0100
1000
0010
0100
0010
1000
,
0200
0000
0310
0002
0000
2003
0000
3020
,
0000
0130
0001
1000
0100
1000
0001
0100
,
0020
0000
1030
0002
0000
0023
0000
0031
,
0100
0010
0100
1000
0100
0001
0100
0000
,
0010
0100
0010
1000
0000
0001
0000
0010
,
0000
0001
0100
0002
0000
0100
0103
0000
,
1000
0100
0010
0100
0000
1000
0000
0101
,
0000
0001
0100
1000
0100
0001
0200
0000
,
0310
1000
0001
1000
0000
0100
0000
0010
,
0000
0100
1000
0020
0000
0000
0130
0001
,
0100
0000
0010
1000
0000
1000
0001
0000
,
0010
0000
0100
0000
1000
0000
0000
1000
0010
0000
0100
0000
0001
0000
0000
0000
,
1000
0100
0010
0001
0000
0100
0000
0010
,
0000
0100
0001
0020
0000
0100
0130
0000
,
0100
1000
0001
1000
0000
0010
0000
0200
,
0000
0001
0301
0100
0000
0100
0001
1000
,
0100
0010
0000
0100
0010
0000
0001
1000
,
0001
0100
0010
2000
0000
0100
3100
0000
,
1100
0010
0101
0010
,
1000
1000
0001
1000
1000
0001
0100
0000
,
1001
0000
0000
0001
0100
0000
0000
0110
,
0000
0110
0000
0010
1000
0001
1000
0000
,
0100
0000
0000
0000
0000
0000
0010
0000
0001
0000
0000
0001
0000
0000
0100
0000
,
0000
0020
0000
0000
0000
0100
0130
0000
,
1001
0000
0000
0001
0100
0000
0000
1010
,
0000
1010
0000
1000
0001
0010
0100
0000
,
1000
1000
0010
0000
0001
0001
0010
0000
,
0100
0010
0010
0100
0010
0010
0100
0000
,
2002
0000
0000
3003
,
0001
0000
0100
0000
0100
0000
1000
0000
0100
0000
0100
0000
0001
1000
0001
1000
,
0001
0010
0001
0200
0000
0310
1000
0200
,
0000
0310
0100
2000
0000
3001
0100
0010
,
1000
0001
0010
0002
0000
0103
0010
2000
,
0000
3100
0010
0001
0200
0000
0310
0000
,
1010
0011
1100
0101
,
0001
1000
0100
0010
0002
0000
0103
0000
,
0101
0011
1100
1010
,
1001
0000
0000
0000
1000
0100
1000
0100
0020
0000
0000
0000
0130
0000
0000
0000
,
0100
1000
0001
0200
0000
0310
1000
0002
,
0000
0013
0001
0200
0000
0310
1000
0100
,
0010
0100
1000
0020
0000
0130
0001
0020
,
0000
0130
0010
0001
0200
0000
0310
0000
,
1000
1000
1010
0000
0001
0001
0011
0000
,
0001
1000
0100
0020
0000
0130
1000
0000
,
1100
1001
0101
1001
,
0110
0000
0000
0000
0001
1000
0001
1000
0020
0000
0000
0000
0030
0000
0000
0000
,
2100
0000
3001
2000
0000
3020
0000
0230
,
0000
1300
0100
0001
0100
0010
1000
0001
,
0010
0200
0000
0302
0000
0203
0000
0320
,
0000
0031
1000
0010
0100
0010
1000
0001
,
0020
0000
0130
0002
0000
0203
0000
2300
,
0000
3010
1000
0001
0100
1000
0100
0010
,
2000
0000
3001
0020
0000
0130
2000
0000
,
3001
0100
0100
1000
0100
0100
0010
0000
,
1002
0000
1003
0020
0000
0230
0000
0320
,
0000
0031
0010
1000
0001
0010
1000
1000
,
0020
0000
0130
2000
0000
3002
0000
0203
,
0000
1300
0100
0001
1000
0100
0001
0001
,
0200
0000
0310
0002
0000
2003
0000
3020
,
0000
0031
0010
1000
0001
0010
1000
0010
,
0100
0110
0101
1100
,
1000
0000
0001
0000
0100
0000
0010
0000
1000
0001
1000
0001
0020
0000
0000
0000
,
0200
0000
0000
0000
,
0000
0000
0000
0000
,
0330
0000
0000
0000
;

//--------------- dance-single - ----------------
#NOTEDATA:;
#STEPSTYPE:dance-single;
#DESCRIPTION:;
#DIFFICULTY:Challenge;
#METER:15;
#RADARVALUES:0,0,0,0,0;
#CREDIT:criticaldingdong;
#NOTES:
0000
0000
0000
0000
,
0000
0000
0000
0000
,
0000
0000
0000
0000
,
0000
0000
0000
0000
,
0000
0000
0000
0000
,
0001
0000
1000
0000
0100
0010
0100
0000
,
1000
1000
0010
0100
0000
0001
0010
0000
,
0100
1000
0100
1000
0001
0100
0001
0100
,
0010
0000
1000
0000
0001
0010
0100
1000
0001
0000
0100
0000
0010
0000
0000
0000
,
2001
0000
3200
0302
0000
0203
0000
2300
,
0000
0000
3010
0000
0100
0000
0001
0000
0010
0000
0100
1000
0100
0000
0010
0000
,
0002
0203
0000
2300
0000
3200
0000
0320
,
0000
0000
1030
0000
0001
0000
1000
0000
0100
0000
0010
0001
0010
0000
0100
0000
,
2000
0000
3020
0230
0000
2300
0000
3200
,
0000
0000
0301
0000
0010
0000
0100
0000
1000
0000
0010
0100
0010
0000
1000
0000
,
0002
0000
0023
0230
0000
2300
0000
3001
,
0100
0000
0010
1000
0010
0000
0100
0000
0001
1000
0001
1000
0001
0000
0000
0000
,
2100
0000
3020
0032
0000
0023
0000
0230
,
0000
0000
0301
0000
0010
0000
0100
1000
0000
0100
1000
0000
0001
0000
0100
0000
,
0020
0000
0032
0023
0000
2030
0000
3002
,
0000
0000
0013
0000
0100
0000
1000
0001
0000
1000
0010
0000
0100
0000
0001
1000
,
0002
0000
0023
2030
0000
3020
0000
0032
,
0000
0000
0013
0000
0100
0000
1000
0010
0000
0100
0001
0000
1000
0000
0001
0000
,
0020
0000
0230
0302
0000
2003
0000
3020
,
0031
0000
1000
0000
0010
0000
0100
0000
0001
0010
0001
0010
0002
0000
0000
0000
,
0103
0010
1000
0100
0000
0010
0100
1000
,
0001
0001
0100
0010
0000
1000
1001
0000
,
0001
0100
1000
0100
0000
0010
0001
0010
,
0000
0000
1000
0001
1000
0000
0100
0000
0010
0000
0001
0000
0200
0000
0000
0000
,
0310
1000
0001
0100
0000
0001
0010
0100
,
0010
0010
1000
0010
0000
0001
1000
0010
,
0100
0000
0000
0000
1000
0000
0100
0000
0000
0000
0001
0000
0100
0000
0001
1000
,
0001
0000
0010
0000
0100
0000
0000
0100
1000
0000
0010
0000
0100
0001
0100
0000
,
0010
1000
0001
1000
0100
0001
0100
1000
,
0001
0000
1000
0000
0010
0000
0100
0000
0000
0000
0001
0000
1000
0000
0100
0010
,
0001
0100
0010
1000
0100
0001
0100
1000
,
0010
0001
0010
0100
0010
1000
0010
0100
,
0001
0100
1000
0001
0010
1000
0001
0010
,
0100
0000
0001
0000
0100
0000
0010
0000
0000
0000
0001
0000
1000
0000
0010
0100
,
0001
0010
1000
0010
0001
0100
1000
0100
,
0010
0001
1000
0100
0001
1000
1001
0000
,
0110
0000
0000
1000
1010
0000
0000
0101
,
0000
0101
0000
0001
1000
0100
1100
0000
,
0011
0000
0000
0000
0000
0000
1000
0000
1010
0000
0000
1010
0000
0000
0100
0000
,
0000
0000
0001
0100
0001
0000
0010
0000
0100
1000
0100
0000
0110
0000
0000
0000
,
1001
0000
0000
1000
1100
0000
0000
0110
,
0000
0110
0000
0001
1000
0001
0101
0000
,
1000
0010
1010
0000
0001
0010
0011
0000
,
0001
0000
1000
0100
1000
0000
0010
0000
0100
0000
0001
0000
0010
0000
0000
0000
,
2002
0000
0000
3003
,
0001
0000
0100
0001
0100
0000
0010
0000
1000
0001
1000
0000
0001
0010
0001
0010
,
0001
0100
1000
0100
0010
1000
0001
1000
,
0100
0000
0001
0000
0100
0000
0010
0000
0001
0100
0001
0000
0010
0000
0000
0000
,
0100
0001
0100
1000
0010
0100
0001
1000
,
0100
0000
0010
0000
0001
0000
1000
0000
0001
0010
0001
0000
1000
0000
0001
0000
,
0100
0000
0000
0100
1000
0000
0000
1000
0100
0000
0000
0100
0001
0000
0000
0001
,
0010
0100
1000
0010
0100
0000
1001
0000
,
1000
0000
0000
1000
0100
0000
0000
0100
0001
0000
0000
0001
0100
0000
0000
0100
,
0010
0000
0001
0000
1000
0010
0100
0001
1000
0000
0001
0000
0010
0000
0000
0000
,
0100
0001
0100
0010
0001
1000
0010
0100
,
1000
0000
0100
0000
0010
0000
1000
0000
0001
0100
0001
0000
0010
0000
0000
0000
,
0100
0001
0100
1000
0001
0010
1000
0010
,
0100
0000
1000
0000
0010
0000
0100
0000
0001
0010
0001
0000
1000
0000
0000
0000
,
0001
0100
0101
0000
1000
0100
1100
0000
,
0001
1000
1001
0001
1000
0100
0110
0000
,
2100
3010
0102
0013
,
1000
0000
0001
0000
1000
0100
0010
0001
1000
0000
0010
0000
0100
0000
0000
0000
,
0012
0000
0203
2300
0000
3200
0000
0320
,
0000
0000
1030
0000
0001
0000
0010
0000
1000
0000
0010
0100
0010
0000
0001
0000
,
0200
0320
0000
0032
0000
0023
0000
2030
,
0000
0000
3100
0000
0001
0000
1000
0000
0010
0000
0001
1000
0001
0000
0100
0000
,
0020
0000
0032
2003
0000
3200
0000
0302
,
0000
0000
0013
0000
0100
0000
0001
0000
0100
0000
1000
0001
1000
0000
0100
0000
,
0002
0000
0203
0320
0000
2030
0000
3010
,
0001
0000
1000
0010
1000
0000
0100
0000
0010
0001
0010
0001
0010
0000
0000
0000
,
1002
0000
0203
2300
0000
3002
0000
0023
,
0000
0000
1030
0000
0100
0000
0010
0001
0000
0100
0001
0000
1000
0000
0010
0000
,
0200
0000
2300
3200
0000
0302
0000
2003
,
0000
0000
3100
0000
0010
0000
0001
1000
0000
0001
0100
0000
0010
0000
1000
0100
,
2000
0000
3002
0023
0000
2030
0000
3020
,
0000
0000
0130
0000
1000
0000
0001
0100
0000
0010
1000
0000
0001
0000
0010
0000
,
0011
0101
1010
1100
,
0001
0000
1000
0100
1000
0000
0001
0000
1000
0100
0010
0001
1000
0001
1000
0001
,
2000
0000
0000
0000
,
0000
0000
0000
0000
,
3000
0000
0000
0000
;
