#VERSION:0.83;
#TITLE:Unbelief;
#SUBTITLE:;
#ARTIST:BEMANI Sound Team "Anonymous";
#TITLETRANSLIT:;
#SUBTITLETRANSLIT:;
#ARTISTTRANSLIT:Anonymous;
#GENRE:;
#ORIGIN:;
#CREDIT:;
#BANNER:;
#BACKGROUND:;
#PREVIEWVID:;
#JACKET:;
#CDIMAGE:;
#DISCIMAGE:;
#LYRICSPATH:;
#CDTITLE:;
#MUSIC:Unbelief.ogg;
#OFFSET:0.005000;
#SAMPLESTART:7.106000;
#SAMPLELENGTH:14.222000;
#SELECTABLE:YES;
#BPMS:0.000=33.750,
4.000=270.000,
100.000=135.000,
116.000=270.000,
180.000=135.000,
204.000=67.500,
212.000=270.000,
340.000=33.750,
344.000=135.000,
376.000=67.500;
#STOPS:377.917=1.778;
#DELAYS:;
#WARPS:;
#TIMESIGNATURES:0.000=4=4;
#TICKCOUNTS:0.000=4;
#COMBOS:0.000=1;
#SPEEDS:0.000=1.000=0.000=0;
#SCROLLS:0.000=1.000;
#FAKES:;
#LABELS:0.000=Song Start;
#BGCHANGES:;
#KEYSOUNDS:;
#ATTACKS:
;

//---------------dance-single - ----------------
#NOTEDATA:;
#CHARTNAME:;
#STEPSTYPE:dance-single;
#DESCRIPTION:;
#CHARTSTYLE:;
#DIFFICULTY:Easy;
#METER:11;
#RADARVALUES:0.382932,0.779541,0.140669,0.211003,0.070334,343.000000,325.000000,18.000000,27.000000,0.000000,0.000000,0.000000,0.000000,0.000000,0.382932,0.779541,0.140669,0.211003,0.070334,343.000000,325.000000,18.000000,27.000000,0.000000,0.000000,0.000000,0.000000,0.000000;
#CREDIT:judgmentworldcup;
#NOTES:
0000
0000
0000
0000
,
1000
0100
0000
1000
,
0010
0000
0200
0000
,
0310
0000
1000
0000
,
0100
0000
0010
0100
,
0010
0001
0000
0010
,
0100
0000
0020
0000
,
0031
0000
0100
0000
,
0010
1000
0010
1000
0000
0000
0000
0000
,
0001
0000
0000
0010
0000
0000
0001
0000
,
0000
0100
0000
0000
0010
0000
1000
0000
,
0100
0000
0000
0010
0000
0000
0100
0000
,
0000
1000
0000
0000
0010
0000
1000
0000
,
0001
0000
0000
0010
0000
0000
0100
0000
,
0000
0010
0000
0000
0100
0000
1000
0000
,
0001
0100
0001
0100
,
0010
1000
0001
0100
,
0010
0000
0000
1000
0000
0000
0100
0000
,
0000
0010
0000
0000
0100
0000
1000
0000
,
0010
0000
0000
0100
0000
0000
0001
0000
,
0000
0010
0000
0000
0100
0000
0010
0000
,
0001
0000
0000
0010
0000
0000
0001
0000
,
0000
0100
0000
0000
0001
0000
1000
0000
,
0001
0100
0001
1000
,
0100
1000
0001
0100
,
0010
1000
0000
0000
1001
1000
0100
0000
,
0010
0000
0100
0000
1100
1000
1000
0000
,
0100
0010
0011
0001
,
0100
0000
0010
0000
1000
0200
0000
0000
,
0320
0000
0000
0000
,
0000
0130
0010
0001
,
0100
0001
0010
0001
,
0100
0001
1000
0100
,
1000
0010
0100
0001
,
0010
0100
0010
0001
,
0100
0010
1000
0001
,
1000
0100
0010
0000
,
0100
0000
2002
0000
,
0000
0000
0000
3003
,
0010
0000
0220
0000
,
0000
0000
0000
0330
,
1000
0000
0202
0000
,
0000
0000
0000
0303
,
0001
0100
0010
1000
,
0001
0010
0100
1000
,
0001
1000
0001
0000
0100
0001
0010
0100
,
0010
0001
0101
0001
,
1001
0000
0110
0000
1001
0001
0001
0000
,
1000
0100
0010
0100
1000
1000
1100
0000
,
1000
0010
0100
0001
0011
0000
1010
0000
,
0001
0010
0100
0010
0011
0000
1010
0000
,
0001
1000
0000
0000
0000
0000
0100
0010
0001
0100
0000
0000
0000
0000
0010
1000
,
0100
1000
0000
0000
0000
0000
0100
0010
0100
1000
0100
1000
0100
0010
0001
1000
,
0002
0000
0000
0203
,
0000
0000
0000
0310
,
1000
0100
0010
0100
,
1000
0000
0000
0001
0000
0000
0020
0000
,
0000
0130
1000
0100
,
1000
0001
0100
0001
,
0100
0010
0100
0001
,
1000
0100
0020
0000
,
0130
1000
0100
0000
,
1000
0010
1000
0000
,
0010
0100
0010
0000
,
0100
0001
0100
0000
,
0002
0000
1000
2003
,
0000
3100
0010
0100
,
0020
0000
0000
0000
0000
0000
0031
1000
,
0002
0000
0000
0000
,
0103
0100
0001
0001
,
0010
0010
0100
0100
,
1000
0100
1000
0010
,
0100
0000
0000
0001
0000
0000
0010
0000
,
0000
0100
0010
0001
,
0100
0001
1000
0100
,
0010
0100
1000
0010
,
0100
0001
0200
0000
,
0300
0010
1000
0100
,
1000
0010
0100
0001
,
0010
0100
0010
0001
,
1000
0001
0100
0010
,
2000
0000
0100
3200
,
0000
0310
0100
1000
,
0020
0000
0000
0000
0000
0000
0130
0010
,
0200
0000
0000
0000
,
0301
0000
0000
0000
,
1000
0010
0100
0001
0010
0000
0001
0000
,
0100
0010
1010
1000
,
0200
0000
0000
0000
0000
0000
0310
0000
0100
0000
1000
0000
,
0001
0000
1000
0000
0010
0000
2000
0000
0000
0000
0000
0000
,
3001
0010
0100
1000
1001
0000
1000
0000
,
0001
0100
0110
0010
,
1000
0000
0000
0000
0000
0000
0100
0000
1000
0000
0010
0000
,
0100
0000
0001
0000
0010
0000
0002
0000
0000
0000
0000
0000
,
0203
0000
0000
0000
,
0300
0000
0000
0000
;

//---------------dance-single - ----------------
#NOTEDATA:;
#CHARTNAME:;
#STEPSTYPE:dance-single;
#DESCRIPTION:;
#CHARTSTYLE:;
#DIFFICULTY:Medium;
#METER:15;
#RADARVALUES:0.581655,1.150750,0.125039,0.437637,0.300875,521.000000,505.000000,16.000000,56.000000,0.000000,0.000000,0.000000,0.000000,0.000000,0.581655,1.150750,0.125039,0.437637,0.300875,521.000000,505.000000,16.000000,56.000000,0.000000,0.000000,0.000000,0.000000,0.000000;
#CREDIT:judgmentworldcup;
#NOTES:
0000
0000
0000
0000
,
1000
0001
0010
0001
0000
0000
0010
0001
,
0010
0001
0000
0000
1000
0020
0000
0000
,
0130
0001
0010
0001
,
1000
0001
0100
0010
,
1000
0010
1000
0100
0000
0000
0010
0100
,
0010
0001
0000
0000
1000
0002
0000
0000
,
0103
0001
0010
0100
,
0010
0001
1000
0100
0000
0000
0000
0000
,
0020
0000
0000
0230
0000
0000
2300
0000
,
0000
3020
0000
0000
0130
0000
0001
0000
,
2001
0000
0000
3002
0000
0000
0023
0000
,
0000
0032
0000
0000
0103
0000
0001
0000
,
2100
0000
0000
3200
0000
0000
0320
0000
,
0000
0230
0000
0000
1300
0000
0100
0000
,
0010
0001
0010
0000
0100
0010
0100
0000
,
0010
0100
1000
0000
0100
0010
0001
0000
,
0102
0000
0000
0203
0000
0000
0320
0000
,
0000
2030
0000
0000
3100
0000
1000
0000
,
0012
0000
0000
0023
0000
0000
0032
0000
,
0000
2003
0000
0000
3010
0000
1000
0000
,
2001
0000
0000
3020
0000
0000
0230
0000
,
0000
0320
0000
0000
1030
0000
0010
0000
,
0100
0001
0100
0000
0010
1000
0010
0000
,
0100
0010
1000
0001
0010
0100
1000
0001
,
1000
0100
0000
0000
0000
0000
0000
0000
0011
0000
0000
0010
0000
0000
0000
0001
,
0100
0000
0020
0030
1000
0001
0100
0000
,
0010
0000
1000
0000
1001
0100
0010
0000
,
1000
0000
0000
0100
0000
0000
0010
0000
0100
0000
2000
0000
0000
0000
0000
0000
,
3020
0000
0000
0000
,
0000
0000
0130
0001
0100
0000
0010
0100
,
0010
0000
0100
0001
0100
0000
0001
1000
,
0001
0000
1000
0100
1000
0000
0001
0100
,
0001
0000
0001
1000
0001
0000
0001
0010
,
0001
0000
0010
0100
0010
0000
0100
1000
,
0100
0000
1000
0010
1000
0000
0010
0100
,
0010
0000
0100
0000
0001
0010
0000
0000
,
0100
0010
0001
2000
0020
0000
0000
0000
,
0000
0000
3030
0000
,
0100
0001
0010
0002
2000
0000
0000
0000
,
0000
0000
3003
0000
,
0001
1000
0100
2000
0200
0000
0000
0000
,
0000
0000
0000
3300
,
0010
0001
0100
0010
1000
0001
0010
0100
,
0010
0001
0100
0010
1000
0001
0010
0100
,
1000
0010
1000
0100
0000
0000
0000
0000
0110
0000
0010
0001
1000
0000
0001
0000
,
0100
0001
0010
1000
0010
0001
0100
0001
,
1000
0000
0000
0000
0100
0000
0000
0000
0001
0000
0000
0000
0100
0000
0000
0000
1000
0000
0000
0000
0010
0000
0000
0000
0100
0000
0000
0010
0000
0000
0100
0000
0000
0010
0000
0000
0100
0000
0000
0010
0000
0000
0100
0000
0000
0010
0000
0000
,
0100
0001
0100
0010
1000
0100
1000
0010
1000
0001
0010
0100
1000
0000
0000
0000
,
1001
0000
1000
0100
0010
0000
0100
0000
1000
0000
0100
1000
0010
0000
0100
0001
,
0010
0100
0010
0001
0011
0000
1010
0000
,
0001
0001
0000
0000
0110
0000
1000
0010
0100
0100
0000
0000
1001
0000
0010
0100
,
1000
0000
1000
0000
0000
0000
0000
0000
0011
0000
0000
0000
0010
0000
0001
0000
0100
0000
0100
0000
0001
0000
0001
0000
1000
0001
1000
0001
1000
0001
1000
0001
,
1000
0000
0010
1000
0100
0000
0010
0001
,
0100
0000
0010
1000
0100
0000
0010
0000
,
0100
0000
0010
0001
0100
0001
1000
0100
,
0020
0000
0000
0230
0000
0000
2300
0000
,
0000
3010
0001
0010
,
1000
0010
0100
0001
,
0010
1000
0010
0100
,
0010
0100
1000
0001
2000
0000
0000
0000
,
3000
0001
0100
0001
,
0010
0001
1000
0100
,
0010
0100
1000
0100
,
0010
0100
1000
0010
,
0210
0000
0001
0302
,
0000
0013
0100
0100
,
0020
0000
0000
0000
0000
0000
0130
2000
,
0002
0000
0000
3003
,
1000
0010
1000
0010
0100
0001
0100
0001
,
0010
0001
0010
0001
0010
0001
0010
0000
,
0100
0000
0010
0001
0100
0000
0010
1000
,
0001
0000
0000
1000
0000
0000
0200
0000
,
0000
0310
0100
1000
,
0010
0100
0001
0010
,
0001
1000
0100
0010
,
0100
1000
0010
1000
0002
0000
0000
0000
,
0003
1000
0100
0010
0100
0000
1000
0010
,
0100
0000
0010
1000
0001
0000
0010
0100
,
1000
0000
0100
1000
0010
0000
0100
0001
,
0010
0000
0100
0010
0001
0000
0100
0010
,
2000
0000
3001
0200
,
0000
0310
1000
1000
,
0002
0000
0000
0000
0000
0000
0013
0100
,
2000
0000
0000
3000
,
0011
0001
0010
0100
0010
0001
1000
0000
0100
0010
0001
0010
0100
0010
0001
0000
,
1000
0000
0100
0000
1000
0000
0010
0000
0100
0010
0100
0010
1000
0010
1000
0010
,
0100
0001
0100
0001
0010
0001
0010
0100
0010
0100
1000
0100
1000
0001
1000
0001
,
0200
0000
0000
0000
0000
0000
0000
0000
0000
0000
0000
0000
0000
0000
0000
0000
0000
0000
0310
0000
0000
1000
0000
0000
0100
0000
0000
0000
0000
0000
0000
0000
1000
0000
0000
0000
0000
0000
0000
0000
0100
0000
0000
0000
0000
0000
0000
0000
,
0010
0000
0000
0010
0000
0000
0100
0000
0020
0000
0000
0000
0000
0000
0000
0000
,
0031
0000
0010
0000
0001
0000
0100
0000
0001
1000
0001
1000
0001
0100
0001
0100
,
0010
0100
0010
1000
0010
1000
0100
1000
0100
0010
0100
0010
0001
0010
0001
0100
,
0002
0000
0000
0000
0000
0000
0000
0000
0000
0000
0000
0000
0000
0000
0000
0000
0000
0000
1003
0000
0000
0010
0000
0000
1000
0000
0000
0000
0000
0000
0000
0000
0100
0000
0000
0000
0000
0000
0000
0000
1000
0000
0000
0000
0000
0000
0000
0000
,
0010
0000
0100
0000
0001
0000
0020
0000
0000
0000
0000
0000
,
0230
0000
0000
0300
0200
0000
0000
0000
,
0300
0000
0000
0000
;

//---------------dance-single - ----------------
#NOTEDATA:;
#CHARTNAME:;
#STEPSTYPE:dance-single;
#DESCRIPTION:;
#CHARTSTYLE:;
#DIFFICULTY:Hard;
#METER:18;
#RADARVALUES:0.904301,1.967412,0.250078,0.453267,0.937793,810.000000,778.000000,32.000000,58.000000,0.000000,0.000000,0.000000,0.000000,0.000000,0.904301,1.967412,0.250078,0.453267,0.937793,810.000000,778.000000,32.000000,58.000000,0.000000,0.000000,0.000000,0.000000,0.000000;
#CREDIT:judgmentworldcup;
#NOTES:
// measure 0
0000
0000
0000
0000
,  // measure 1
1100
1000
0001
1000
0000
0000
0011
0010
,  // measure 2
0100
0010
0000
0001
1000
0200
0000
0000
,  // measure 3
0310
0000
0001
1000
0001
0010
0000
0010
,  // measure 4
0001
1000
0001
0010
0100
1000
0010
0100
,  // measure 5
0110
0010
1000
0100
0000
0000
0110
0010
,  // measure 6
0100
1000
0000
0010
0100
0020
0000
0000
,  // measure 7
0130
0000
0010
0100
0001
1000
0001
0010
,  // measure 8
0110
0010
0110
0100
0000
0000
0000
0000
,  // measure 9
2000
0000
3010
0200
0000
0301
0200
0000
,  // measure 10
0301
0020
0000
0130
1000
0010
0100
0001
,  // measure 11
2000
0000
3001
0020
0000
0031
0200
0000
,  // measure 12
1300
0200
0000
0310
1000
0001
0010
0100
,  // measure 13
2000
0000
3010
0200
0000
0301
0020
0000
,  // measure 14
0130
0020
0000
0130
0010
0001
0010
0100
,  // measure 15
1000
0100
1000
0100
0010
0001
0010
0100
,  // measure 16
1000
0010
0100
0001
1000
0100
0010
0001
,  // measure 17
2000
0000
3010
0200
0000
0301
0020
0000
,  // measure 18
0130
2000
0000
3010
0100
0010
0100
0001
,  // measure 19
0200
0000
0301
0200
0000
1300
0200
0000
,  // measure 20
0301
0020
0000
0130
0010
0100
1000
0001
,  // measure 21
2000
0000
3100
0020
0000
0130
2000
0000
,  // measure 22
3001
0200
0000
0310
0100
0010
1000
0001
,  // measure 23
1000
0000
0001
0000
1000
0000
0001
0000
0000
1000
0000
0000
0100
0000
0010
0000
0100
0000
0010
0000
0000
0001
0000
0000
,  // measure 24
1000
0100
1000
0100
0010
0100
0010
0001
1000
0010
0100
0010
,  // measure 25
1000
0000
0010
0000
1000
0000
0010
0000
0000
0000
0000
0000
0000
0000
0000
0000
1100
0000
0000
0000
0010
0000
0001
0000
0100
0000
0000
0000
0010
0100
0010
0100
,  // measure 26
0010
0000
0000
1000
0200
0000
0300
0000
0110
0100
0000
0000
0110
0010
0000
0000
,  // measure 27
0001
0000
0100
0000
1010
0100
0001
0000
,  // measure 28
0010
0000
0001
0000
0100
0000
0010
0000
1000
0000
0001
0000
0010
0000
0100
0000
1000
0000
0001
0000
0100
0010
0100
0010
0100
0010
0100
0010
0100
0010
0100
0010
,  // measure 29
0200
0000
0000
0000
,  // measure 30
0000
0000
0301
0100
0010
0100
0001
1000
,  // measure 31
0010
0100
0001
1000
0100
0010
0100
1000
,  // measure 32
0010
1000
0001
0010
0100
0010
0001
0100
,  // measure 33
0010
1000
0100
0010
0001
1000
0100
1000
,  // measure 34
0001
1000
0100
0010
0001
1000
0100
0000
,  // measure 35
0010
0001
0100
0001
1000
0100
0010
0001
,  // measure 36
1000
0100
0010
0100
1000
0001
1000
0000
,  // measure 37
1000
0000
0000
0010
0000
0000
0100
0000
0000
0001
0000
0000
0010
0000
0100
0000
0010
0000
0100
0000
0010
0000
0100
0000
,  // measure 38
0010
0100
0010
0100
0010
0100
0010
0000
0000
0000
0000
0000
,  // measure 39
0100
0000
0000
1000
0000
0000
0010
0000
0100
0000
0010
0000
0100
0000
0010
0000
0100
0000
0010
0000
0100
0000
0010
0000
,  // measure 40
0100
0010
0100
0010
0100
0010
0100
0000
0000
0000
0000
0000
,  // measure 41
0010
0000
0000
0100
0000
0000
0001
0000
1000
0000
0001
0000
1000
0000
0001
0000
1000
0000
0001
0000
1000
0000
0001
0000
,  // measure 42
1000
0001
1000
0001
1000
0001
1000
0001
1000
0001
0000
0000
,  // measure 43
1000
0000
0100
0000
0010
0000
0100
0000
0000
0010
0000
0000
0001
0000
0010
0000
0100
0000
0010
0000
0000
0001
0000
0000
,  // measure 44
0100
0010
1000
0001
0010
0100
0010
0001
1000
0010
0100
0001
,  // measure 45
1000
1000
0001
0010
1100
0000
0000
0000
1001
0000
0001
0100
0110
0000
0101
0000
,  // measure 46
0001
0001
0010
0100
0010
0000
0001
0000
0110
0000
1000
0000
0110
0000
0001
0000
,  // measure 47
1010
0000
0101
0000
0011
0000
0110
0000
1100
0000
1001
0000
1000
0001
1000
0001
1000
0001
1000
0100
0010
0001
0100
0010
,  // measure 48
1000
0000
0000
0100
0000
0000
0001
0000
0000
0100
0000
0000
1000
0000
0000
0010
0000
0000
0001
0000
0000
0010
0000
0000
1000
0000
0010
0000
0100
0000
0010
0000
1000
0000
0001
0000
0010
0000
0000
0000
0000
0000
0000
0000
0000
0000
0000
0000
,  // measure 49
1001
0000
0000
0000
0000
0000
0001
0000
1000
0000
0001
0000
1000
0000
0000
0000
0000
0000
0011
0000
0000
0000
0000
0000
0100
0000
1000
0000
0100
0000
0010
0000
0100
0000
1000
0000
0001
0000
0000
0000
0000
0000
1000
0000
0000
0001
0000
0000
,  // measure 50
0100
0000
0000
0001
0010
0100
0010
0001
1000
0010
0100
0002
0100
0000
0000
0000
0000
0000
0010
0000
0000
0000
0000
0000
,  // measure 51
1003
0000
0000
1100
0000
0000
0000
0000
0000
0010
0100
0010
0100
0000
0000
0000
0000
0000
0010
0001
0100
0010
1000
0001
0010
0000
0000
0110
0000
0000
0000
0000
0000
0000
0000
0000
1001
0000
0000
0000
0000
0000
1000
0001
0010
0001
1000
0100
,  // measure 52
0010
0000
0000
0000
0000
0000
0000
0000
0000
0000
0000
0000
0011
0000
0000
0000
0000
0000
0000
0000
0000
0000
0000
0000
0000
0000
0000
0000
0000
0000
0000
0000
0000
0000
0000
0000
1000
0000
0000
0000
0100
0000
0000
0000
1000
0000
0000
0000
0100
0000
0000
0000
0000
0000
0000
0000
0000
0000
0000
0000
0010
0000
0000
0000
0001
0000
0000
0000
0100
0000
0000
0000
0001
0000
0000
0000
0000
0000
0000
0000
0000
0000
0000
0000
1000
0000
0000
0000
0000
0000
0000
0000
0000
0000
0000
0000
0101
0000
0000
0000
0000
0000
0000
0000
0000
0000
0000
0000
1010
0000
0000
0000
0000
0000
0000
0000
0000
0000
0000
0000
1100
0000
0000
0000
0000
0000
0000
0000
0000
0000
0000
0000
0110
0000
0000
0000
0000
0000
0000
0000
0000
0000
0000
0000
0010
0000
0000
0000
0000
0000
0001
0000
0000
0000
0000
0000
0100
0000
0000
0000
0000
0000
0010
0000
0000
0000
0000
0000
1000
0000
0000
0000
0000
0000
0001
0000
0000
0000
0000
0000
0010
0000
0000
0000
0000
0000
0100
0000
0000
0000
0000
0000
,  // measure 53
1000
0001
1000
0001
0100
0001
0100
0001
,  // measure 54
1000
0001
1000
0001
1000
0000
0010
0000
,  // measure 55
0200
0000
0310
0001
0100
0001
1000
0100
,  // measure 56
0020
0000
0000
0230
0000
0000
2300
0000
,  // measure 57
0000
0000
3001
0100
0001
0100
0010
0100
,  // measure 58
0010
1000
0010
1000
0001
0010
0001
1000
,  // measure 59
0100
0010
0100
1000
0001
0010
0001
0100
,  // measure 60
0010
0100
0010
1000
0001
0010
0200
0000
0000
0000
0000
0000
,  // measure 61
0300
0010
0001
0100
0001
1000
0100
1000
,  // measure 62
0001
0010
0100
0010
0001
1000
0100
0010
,  // measure 63
0100
1000
0100
0010
0001
0100
0010
1000
,  // measure 64
0100
0001
0100
1000
0100
0010
0001
1000
,  // measure 65
0020
0000
0100
0230
,  // measure 66
0000
0310
1000
0001
,  // measure 67
0020
0000
0000
0000
0000
0000
0130
2000
,  // measure 68
0002
0000
0000
3000
,  // measure 69
1003
0010
1000
0010
1000
0010
1000
0010
1000
0001
0100
0001
,  // measure 70
0100
0001
0100
0001
1000
0001
1000
0001
1000
0002
0000
0000
,  // measure 71
0023
0000
0130
1000
0100
0010
0001
1000
,  // measure 72
0200
0000
0000
0320
0000
0000
0032
0000
,  // measure 73
1003
0000
0001
0010
1000
0010
0001
0100
,  // measure 74
0010
1000
0001
1000
0010
1000
0001
1000
,  // measure 75
0001
0100
1000
0100
0010
0100
0010
1000
,  // measure 76
0100
0010
0001
1000
0001
0100
0020
0000
0000
0000
0000
0000
,  // measure 77
0030
1000
0100
0001
0100
1000
0100
0001
,  // measure 78
1000
0100
0001
0100
1000
0100
0001
0100
,  // measure 79
0010
0001
0100
1000
0100
0001
0100
1000
,  // measure 80
0100
0010
1000
0001
0100
0010
1000
0001
,  // measure 81
2000
0000
0001
3002
,  // measure 82
0000
0103
0010
0010
,  // measure 83
2000
0000
0000
0000
0000
0000
0000
0000
0000
3001
1000
0001
,  // measure 84
0020
0000
0000
0030
,  // measure 85
0001
0100
1000
0010
0001
1000
0002
0000
1003
0100
0001
0010
1000
0001
2000
0000
,  // measure 86
3001
0000
0000
0100
0000
0000
0001
0000
0000
0010
0000
0000
0001
0000
0000
0000
0000
0000
0002
0000
0000
0000
0000
0000
1003
0000
0010
0000
1000
0000
0010
0000
0100
0000
0010
0000
0100
0000
0001
0000
0100
0000
0001
0000
0010
0000
0001
0000
,  // measure 87
0010
0100
0010
0001
0100
0010
1000
0001
0010
0100
1000
0001
0010
0100
0010
0001
1000
0010
0100
0001
1000
0001
0010
0100
,  // measure 88
0020
0000
0000
0000
0000
0000
0000
0000
0000
0000
0000
0000
0000
0000
0000
0000
0000
0000
0130
0000
0000
0001
0000
0000
1000
0000
0000
0000
0000
0000
0000
0000
1000
0000
0000
0000
0000
0000
0000
0000
0001
0000
0000
0000
0000
0000
0000
0000
,  // measure 89
0100
0000
0010
0000
0100
0000
0002
0000
0000
0000
0000
0000
,  // measure 90
0013
0000
0000
0100
0000
0000
1000
0000
0000
0100
0000
0000
0010
0000
0000
0001
0000
0000
1000
0000
0000
0010
0000
0000
0100
0000
0010
0000
0100
0000
0010
0000
0100
0000
0001
0000
1000
0000
0100
0000
1000
0000
0100
0000
0010
0000
0001
0000
,  // measure 91
0010
0100
0010
0100
1000
0100
1000
0010
0100
0001
1000
0001
0010
0100
0010
0001
0100
0010
1000
0100
0010
0001
0100
0010
,  // measure 92
2000
0000
0000
0000
0000
0000
0000
0000
0000
0000
0000
0000
0000
0000
0000
0000
0000
0000
3001
0000
0000
0010
0000
0000
0100
0000
0000
0000
0000
0000
0000
0000
0100
0000
0000
0000
0000
0000
0000
0000
0010
0000
0000
0000
0000
0000
0000
0000
,  // measure 93
0001
0000
0100
0000
0010
0000
2000
0000
0000
0000
0000
0000
,  // measure 94
3200
0000
0000
0000
0000
0000
0000
0000
0000
0000
0000
0000
0000
0000
0000
0000
0000
0000
0000
0000
0000
0000
0000
0300
0200
0000
0000
0000
0000
0000
0000
0000
0000
0000
0000
0000
0000
0000
0000
0000
0000
0000
0000
0000
0000
0000
0000
0000
,  // measure 95
0300
0000
0000
0000
;
